#TITLE:Dampener Rod;
#SUBTITLE:;
#ARTIST:Junkie XL;
#TITLETRANSLIT:;
#SUBTITLETRANSLIT:;
#ARTISTTRANSLIT:;
#GENRE:;
#CREDIT:;
#BANNER:Dampener Rod.png;
#BACKGROUND:Dampener Rod-bg.png;
#LYRICSPATH:;
#CDTITLE:;
#MUSIC:Dampener Rod.ogg;
#OFFSET:-0.018000;
#SAMPLESTART:34.287464;
#SAMPLELENGTH:13.714283;
#SELECTABLE:YES;
#BPMS:0.000000=140.000000
;
#STOPS:
;
#BGCHANGES:;
#KEYSOUNDS:;
#ATTACKS:;

//---------------dance-single - XO FS SS BR DS JA----------------
#NOTES:
     dance-single:
     :
     Challenge:
     16:
     0.695790,0.813668,0.383255,0.503022,0.598836,610.000000,562.000000,48.000000,63.000000,40.000000,8.000000,0.695790,0.813668,0.383255,0.503022,0.598836,610.000000,562.000000,48.000000,63.000000,40.000000,8.000000:
// measure 0
0000
0000
0000
0000
,  // measure 1
0000
0000
0000
0000
,  // measure 2
0000
0000
0000
0000
,  // measure 3
0000
0000
0000
0000
,  // measure 4
1000
0000
0011
1000
0000
1000
0011
1000
,  // measure 5
1000
0001
0010
0100
0001
0100
0010
0001
,  // measure 6
0001
0000
1010
0001
0000
0001
1010
0001
,  // measure 7
0001
1000
0010
0100
1000
0100
0010
1000
,  // measure 8
0002
0023
0230
0300
2000
3000
0010
0100
,  // measure 9
0100
0000
0011
1000
0000
1000
0001
0001
,  // measure 10
2000
3020
0230
0300
0002
0003
0010
0100
,  // measure 11
0100
0000
0000
0000
1010
0000
0001
0000
1000
0001
1000
0001
1000
0001
1000
0001
,  // measure 12
1000
0001
0100
0000
1M00
0001
0010
0000
10M0
0001
0100
0000
1M00
0001
0010
0100
,  // measure 13
1000
0010
0100
0001
0010
0000
0010
0100
1000
0001
1000
0000
0010
0100
0001
1000
,  // measure 14
0001
1000
0100
0000
0M01
1000
0010
0000
00M1
1000
0100
0000
0M01
1000
0010
0100
,  // measure 15
0001
0010
0100
1000
0010
0000
1000
0000
0100
0010
0000
0010
0001
1000
0001
1000
,  // measure 16
0001
1000
0010
0000
00M1
1000
0100
0000
0M01
1000
0010
0000
00M1
1000
0100
0010
,  // measure 17
0001
0100
0010
1000
0100
0000
0100
0010
0001
1000
0001
0000
0100
0010
1000
0001
,  // measure 18
1000
0001
0010
0000
10M0
0001
0100
0000
1M00
0001
0010
0000
10M0
0001
0100
0010
,  // measure 19
1000
0001
M010
0010
1000
0001
0100
0010
1000
0001
M010
0010
1000
0001
0100
0010
,  // measure 20
4000
0000
0011
0000
0MMM
0000
3011
1000
,  // measure 21
0001
0010
0101
1000
0001
0100
0011
1000
,  // measure 22
0004
0000
1010
0000
MMM0
0000
1013
0001
,  // measure 23
1000
0010
1100
0001
1000
0100
1010
0001
,  // measure 24
0400
000M
2300
0001
3040
M000
0031
2000
,  // measure 25
0010
0010
3001
0020
0001
0001
0130
1000
,  // measure 26
0040
M000
0032
1000
0403
000M
1300
0002
,  // measure 27
0100
0100
1003
0200
1000
0010
0310
0001
,  // measure 28
1000
0100
0000
0100
0000
0100
0001
0100
,  // measure 29
0100
1000
1000
0010
0001
0001
0010
1000
,  // measure 30
0001
0010
0000
0010
0000
0010
1000
0010
,  // measure 31
0010
0001
0001
0100
1000
0100
0101
0000
,  // measure 32
4000
0001
0000
0001
0000
0010
0000
0010
0000
0001
0000
3001
0010
0000
0001
0010
,  // measure 33
0100
1000
0010
1000
0100
0000
1000
0100
0010
0001
0100
0001
0010
0100
0010
0001
,  // measure 34
4000
0001
0000
0001
0000
0010
0000
0010
0000
0001
0000
3001
0010
0000
0001
0010
,  // measure 35
0100
1000
0010
1000
0100
0000
1000
0100
0010
0001
0100
0001
0010
0100
0010
0001
,  // measure 36
2000
3200
0320
0230
0300
0002
0203
0320
0032
0003
0200
0320
0030
0200
0302
0003
,  // measure 37
0020
0230
2300
3020
0030
0200
2300
3200
0320
0030
0200
0302
0003
0020
0230
0300
,  // measure 38
2000
3020
0230
0320
0030
0002
0023
0230
0302
0003
0020
0230
0300
0020
0032
0003
,  // measure 39
0002
1003
0002
1003
0002
1003
0002
1003
0002
1003
0002
1003
0002
1003
0002
0003
,  // measure 40
4000
0000
0011
0000
0010
0000
3011
1000
,  // measure 41
0001
0010
0101
1000
0001
0100
0011
1000
,  // measure 42
0004
0000
1010
0000
0010
0000
1013
0001
,  // measure 43
1000
0010
1100
0001
1000
0100
1010
0001
,  // measure 44
0400
030M
4000
3MMM
0400
000M
1300
0002
,  // measure 45
0010
0010
1003
0020
1000
1000
0130
0001
,  // measure 46
0040
003M
4000
3MMM
0040
000M
1030
0002
,  // measure 47
0100
0100
1003
0200
1000
1000
0310
0000
,  // measure 48
0001
0000
1100
0001
0001
0010
0101
0000
,  // measure 49
1000
0000
0011
1000
1000
0100
1010
0001
,  // measure 50
1000
0000
0101
1000
1000
0010
1100
0000
,  // measure 51
0001
0000
1010
0001
0001
0100
0110
0000
,  // measure 52
1000
0001
0010
0100
1000
0010
0100
1000
0000
0100
0010
0000
1000
0010
0100
0000
,  // measure 53
0001
1000
0010
0100
0001
0010
0100
0001
0000
0100
0010
0000
0100
0010
0001
0000
,  // measure 54
0010
0100
1000
0010
0100
0001
1000
0100
0000
M100
0001
0000
1000
0100
0010
0000
,  // measure 55
0100
0010
0001
0100
0010
1000
0001
0010
0000
001M
1000
0000
0001
0010
0100
0000
,  // measure 56
0020
0000
0000
0000
0000
0000
0000
0000
0000
0000
0130
1000
0010
0000
0100
0000
,  // measure 57
0000
0000
0000
0000
0000
0000
0000
0100
,  // measure 58
0010
0000
0000
0000
0000
0000
0000
0000
0000
0000
0100
0001
0010
0000
0100
0000
,  // measure 59
0000
0000
0000
0000
0000
0000
0100
0000
1000
0000
0001
1000
0000
0000
0001
0000
,  // measure 60
0101
0000
0010
0110
0000
0100
0101
1001
,  // measure 61
1001
0000
0100
1100
0000
1000
1001
1010
,  // measure 62
1010
0000
0010
0110
0000
1000
1010
1001
,  // measure 63
1001
0000
0010
0011
0000
0001
1001
0101
,  // measure 64
0100
0001
0100
0001
0100
0001
0010
0100
0000
0000
0M01
0000
1000
0000
1000
0000
,  // measure 65
0100
1000
0100
1000
0100
1000
0010
0100
0000
0000
1M00
0000
1010
0000
0000
0000
,  // measure 66
0010
1000
0010
1000
0010
1000
0010
0100
0000
0000
1M00
0000
0001
0000
0001
0000
,  // measure 67
1000
0010
1000
0010
0100
0001
0100
0001
1000
0001
1000
0001
0010
001M
1000
1000
;

//---------------dance-single - No Rolls----------------
#NOTES:
     dance-single:
     :
     Edit:
     16:
     0.749400,0.840790,0.423177,0.503022,0.598836,657.000000,596.000000,53.000000,63.000000,40.000000,8.000000,0.749400,0.840790,0.423177,0.503022,0.598836,657.000000,596.000000,53.000000,63.000000,40.000000,8.000000:
// measure 0
0000
0000
0000
0000
,  // measure 1
0000
0000
0000
0000
,  // measure 2
0000
0000
0000
0000
,  // measure 3
0000
0000
0000
0000
,  // measure 4
1000
0000
0011
1000
0000
1000
0011
1000
,  // measure 5
1000
0001
0010
0100
0001
0100
0010
0001
,  // measure 6
0001
0000
1010
0001
0000
0001
1010
0001
,  // measure 7
0001
1000
0010
0100
1000
0100
0010
1000
,  // measure 8
0002
0023
0230
0300
2000
3000
0010
0100
,  // measure 9
0100
0000
0011
1000
0000
1000
0001
0001
,  // measure 10
2000
3020
0230
0300
0002
0003
0010
0100
,  // measure 11
0100
0000
0000
0000
1010
0000
0001
0000
1000
0001
1000
0001
1000
0001
1000
0001
,  // measure 12
1000
0001
0100
0000
1M00
0001
0010
0000
10M0
0001
0100
0000
1M00
0001
0010
0100
,  // measure 13
1000
0010
0100
0001
0010
0000
0010
0100
1000
0001
1000
0000
0010
0100
0001
1000
,  // measure 14
0001
1000
0100
0000
0M01
1000
0010
0000
00M1
1000
0100
0000
0M01
1000
0010
0100
,  // measure 15
0001
0010
0100
1000
0010
0000
1000
0000
0100
0010
0000
0010
0001
1000
0001
1000
,  // measure 16
0001
1000
0010
0000
00M1
1000
0100
0000
0M01
1000
0010
0000
00M1
1000
0100
0010
,  // measure 17
0001
0100
0010
1000
0100
0000
0100
0010
0001
1000
0001
0000
0100
0010
1000
0001
,  // measure 18
1000
0001
0010
0000
10M0
0001
0100
0000
1M00
0001
0010
0000
10M0
0001
0100
0010
,  // measure 19
1000
0001
M010
0010
1000
0001
0100
0010
1000
0001
M010
0010
1000
0001
0100
0010
,  // measure 20
1000
1000
1011
1000
1MMM
1000
1011
1000
,  // measure 21
0001
0010
0101
1000
0001
0100
0011
1000
,  // measure 22
0001
0001
1011
0001
MMM1
0001
1011
0001
,  // measure 23
1000
0010
1100
0001
1000
0100
1010
0001
,  // measure 24
0100
010M
2100
0001
3010
M010
0001
2000
,  // measure 25
0010
0010
3001
0020
0001
0001
0130
1000
,  // measure 26
0010
M010
0002
1000
0103
010M
1000
0002
,  // measure 27
0100
0100
1003
0200
1000
0010
0310
0001
,  // measure 28
1000
0100
0000
0100
0000
0100
0001
0100
,  // measure 29
0100
1000
1000
0010
0001
0001
0010
1000
,  // measure 30
0001
0010
0000
0010
0000
0010
1000
0010
,  // measure 31
0010
0001
0001
0100
1000
0100
0101
0000
,  // measure 32
1000
0001
1000
0001
1000
0010
1000
0010
1000
0001
1000
0001
0010
0000
0001
0010
,  // measure 33
0100
1000
0010
1000
0100
0000
1000
0100
0010
0001
0100
0001
0010
0100
0010
0001
,  // measure 34
1000
0001
1000
0001
1000
0010
1000
0010
1000
0001
1000
0001
0010
0000
0001
0010
,  // measure 35
0100
1000
0010
1000
0100
0000
1000
0100
0010
0001
0100
0001
0010
0100
0010
0001
,  // measure 36
2000
3200
0320
0230
0300
0002
0203
0320
0032
0003
0200
0320
0030
0200
0302
0003
,  // measure 37
0020
0230
2300
3020
0030
0200
2300
3200
0320
0030
0200
0302
0003
0020
0230
0300
,  // measure 38
2000
3020
0230
0320
0030
0002
0023
0230
0302
0003
0020
0230
0300
0020
0032
0003
,  // measure 39
0002
1003
0002
1003
0002
1003
0002
1003
0002
1003
0002
1003
0002
1003
0002
0003
,  // measure 40
1000
1000
1011
1000
1010
1000
1011
1000
,  // measure 41
0001
0010
0101
1000
0001
0100
0011
1000
,  // measure 42
0001
0001
1011
0001
0011
0001
1011
0001
,  // measure 43
1000
0010
1100
0001
1000
0100
1010
0001
,  // measure 44
0100
010M
1000
1MMM
0100
010M
1100
0002
,  // measure 45
0010
0010
1003
0020
1000
1000
0130
0001
,  // measure 46
0010
M010
1000
1MMM
0100
010M
1100
0002
,  // measure 47
0010
0010
1003
0020
1000
1000
0130
0000
,  // measure 48
0001
0000
1100
0001
0001
0010
0101
0000
,  // measure 49
1000
0000
0011
1000
1000
0100
1010
0001
,  // measure 50
1000
0000
0101
1000
1000
0010
1100
0000
,  // measure 51
0001
0000
1010
0001
0001
0100
0110
0000
,  // measure 52
1000
0001
0010
0100
1000
0010
0100
1000
0000
0100
0010
0000
1000
0010
0100
0000
,  // measure 53
0001
1000
0010
0100
0001
0010
0100
0001
0000
0100
0010
0000
0100
0010
0001
0000
,  // measure 54
0010
0100
1000
0010
0100
0001
1000
0100
0000
M100
0001
0000
1000
0100
0010
0000
,  // measure 55
0100
0010
0001
0100
0010
1000
0001
0010
0000
001M
1000
0000
0001
0010
0100
0000
,  // measure 56
0020
0000
0000
0000
0000
0000
0000
0000
0000
0000
0130
1000
0010
0000
0100
0000
,  // measure 57
0000
0000
0000
0000
0000
0000
0000
0100
,  // measure 58
0010
0000
0000
0000
0000
0000
0000
0000
0000
0000
0100
0001
0010
0000
0100
0000
,  // measure 59
0000
0000
0000
0000
0000
0000
0100
0000
1000
0000
0001
1000
0000
0000
0001
0000
,  // measure 60
0101
0000
0010
0110
0000
0100
0101
1001
,  // measure 61
1001
0000
0100
1100
0000
1000
1001
1010
,  // measure 62
1010
0000
0010
0110
0000
1000
1010
1001
,  // measure 63
1001
0000
0010
0011
0000
0001
1001
0101
,  // measure 64
0100
0001
0100
0001
0100
0001
0010
0100
0000
0000
0M01
0000
1000
0000
1000
0000
,  // measure 65
0100
1000
0100
1000
0100
1000
0010
0100
0000
0000
1M00
0000
1010
0000
0000
0000
,  // measure 66
0010
1000
0010
1000
0010
1000
0010
0100
0000
0000
1M00
0000
0001
0000
0001
0000
,  // measure 67
1000
0010
1000
0010
0100
0001
0100
0001
1000
0001
1000
0001
0010
001M
1000
1000
;

//---------------dance-single - XO BR JA DS----------------
#NOTES:
     dance-single:
     :
     Hard:
     13:
     0.560054,0.596690,0.335348,0.359302,0.219573,491.000000,449.000000,42.000000,45.000000,9.000000,0.000000,0.560054,0.596690,0.335348,0.359302,0.219573,491.000000,449.000000,42.000000,45.000000,9.000000,0.000000:
0000
0000
0000
0000
,
0000
0000
0000
0000
,
0000
0000
0000
0000
,
0000
0000
0000
0000
,
1000
0011
1000
0101
,
1000
0011
1000
0101
,
1000
0011
1000
0101
,
1000
0011
1000
0100
,
0020
0032
0203
0000
1300
0000
0100
0001
,
1000
0000
0001
0010
0000
0100
1000
1000
,
0020
2030
3200
0000
0301
0000
0100
1000
,
0001
0000
1000
0010
0400
0000
0000
0000
,
0310
0000
0000
0000
0101
0000
0000
0000
1001
0000
0000
0000
0001
0010
0100
0000
,
1100
0000
0000
0000
1001
0000
0000
0000
1010
0000
0000
0000
0010
0100
0001
0000
,
1001
0000
0000
0000
0011
0000
0000
0000
0110
0000
0000
0000
0100
1000
0001
0000
,
0101
0000
0000
0000
0110
0000
0001
0000
1000
0001
0000
0001
1000
0100
0010
0000
,
0001
0000
0100
0000
1000
0000
0100
0000
0001
0000
0000
0000
0001
0010
0100
0000
,
1000
0000
0010
0000
0001
0000
0010
0000
1000
0000
0000
0000
1000
0100
0010
0000
,
0001
0000
0100
0000
1000
0000
0100
0000
0001
0000
0000
0000
0001
0010
0100
0000
,
1000
0100
1000
0000
0100
0010
0100
0000
0010
0001
0010
0000
0001
1000
0001
0000
,
4000
0000
0010
0000
0MMM
0000
3001
1000
,
0010
0010
0100
0001
0010
0100
1000
1000
,
0004
0000
0010
0000
MMM0
0000
1003
0001
,
0010
0010
0100
1000
0010
0100
0001
0001
,
1000
0100
0001
0100
1000
0100
0001
0100
,
0100
1000
0010
0100
0100
1000
0100
0100
,
0001
0010
1000
0010
0001
0010
1000
0010
,
0010
0001
0100
0010
0010
0001
0010
0010
,
1000
0100
0000
0100
0000
0100
0110
0010
,
0010
0001
0011
0001
1000
1000
1001
0000
,
0001
0100
0000
0100
0000
0100
0110
0010
,
0010
1000
1010
1000
0001
1000
1001
0000
,
1000
0100
0010
0000
0001
0000
1000
0100
0010
0000
0001
0000
1000
0000
0000
0000
,
0001
0010
1000
0001
0100
1000
1001
0000
,
0001
0100
0010
0000
1000
0000
0001
0100
0010
0000
1000
0000
0001
0000
0000
0000
,
1000
0100
0001
1000
0010
0001
1001
0000
,
0002
0000
0203
0320
0030
0200
0302
0003
0020
0030
0200
2300
3000
2000
3020
0030
,
2000
0000
3200
0320
0030
0200
2300
3000
0020
0030
0200
0302
0003
0002
0023
0030
,
0200
0000
0320
0032
0003
2000
3020
0030
0200
0300
0002
2003
3000
2000
3200
0300
,
0020
0230
0320
0230
0320
0230
0320
0230
,
4300
0000
0001
0000
0010
0000
3001
1000
,
0010
0010
0100
0001
0010
0100
1000
1000
,
0004
0000
1000
0000
0010
0000
1003
0001
,
0010
0010
0100
1000
0010
0100
0001
0001
,
1000
0100
0001
0100
1000
0010
0001
0010
,
0010
1000
0100
0010
0010
1000
0010
0010
,
0001
0100
1000
0100
0001
0010
1000
0010
,
0010
0001
0100
0010
0010
0001
0010
0010
,
1000
0000
1001
1000
0100
0100
0110
0000
,
0001
0000
1001
0001
0100
0100
0110
0000
,
0001
0000
0011
0010
0100
0100
1100
0000
,
0001
0000
0101
0100
0010
0010
1001
0000
,
1000
0100
0010
0000
0010
0000
0010
0001
0000
0001
1000
0000
1000
0000
0000
0000
,
0001
0100
0010
0000
0010
0000
0010
1000
0000
1000
0001
0000
0001
0000
0000
0000
,
0010
0100
1000
0000
1000
0000
1000
0010
0000
0010
0100
0000
0100
0000
0000
0000
,
0010
0100
0001
0000
0001
0000
0001
0010
0000
0010
0100
0000
0100
0000
0000
0000
,
0020
0000
0000
0000
0000
0000
0000
0000
0000
0000
0031
0010
0001
0000
1000
0000
,
0000
0000
0000
0000
0000
0000
0000
1000
,
0001
0000
0000
0000
0000
0000
0000
0000
0000
0000
1000
0010
1000
0000
0001
0000
,
0000
0000
0000
0000
0000
0000
0001
0000
1000
0000
0001
1000
0000
0000
1001
0000
,
0001
0000
0011
0010
0000
0100
0110
0100
,
0100
0000
1100
1000
0000
0001
1001
1000
,
1000
0000
1010
0010
0000
0100
0110
0100
,
0100
0000
0101
0001
0000
1000
1001
0000
,
1000
0100
0010
0000
0001
0000
0100
0010
0000
0000
00M1
0000
0010
0000
0100
0000
,
1000
0010
0100
0000
0001
0000
0010
0100
0000
0000
0M01
0000
1000
0000
0000
0000
,
0001
0100
0010
0000
1000
0000
0100
0010
0000
0000
10M0
0000
0010
0000
0100
0000
,
0001
1000
0001
0000
0010
0001
0010
0000
0001
1000
0001
0000
1000
0010
1000
0001
;
