#TITLE:DUAL BREAKER XX;
#SUBTITLE:;
#ARTIST:Srav3R vs Getty;
#TITLETRANSLIT:;
#SUBTITLETRANSLIT:;
#ARTISTTRANSLIT:;
#GENRE:;
#CREDIT:;
#MUSIC:DUAL BREAKER XX.ogg;
#BANNER:;
#BACKGROUND:;
#CDTITLE:;
#SAMPLESTART:93.600;
#SAMPLELENGTH:19.500;
#SELECTABLE:YES;
#OFFSET:-1.491;
#BPMS:0.000=200.000;
#STOPS:;
#BGCHANGES:;
#FGCHANGES:;

//--------------- dance-single - Maractus (X-Scale) ----------------
#NOTES:
     dance-single:
     Maractus (X-Scale):
     Hard:
     15:
     0,0,0,0,0:
0000
0000
0000
0000
,
0000
0000
0000
0000
,
0000
0000
0000
0000
,
0000
0000
0000
0000
,
0001
0000
1000
0000
0000
0001
0100
0001
,
0000
1000
0100
0000
0010
0010
0001
0000
,
0100
0100
0001
0100
0010
1000
1000
0001
,
1002
0003
0000
0000
0000
0000
2000
0000
,
3001
0010
0100
1000
0001
0010
0200
0000
,
1300
0010
0100
0001
1000
0010
0100
0001
,
0010
0100
1000
0001
0010
0100
2000
0000
,
3001
0100
0010
1000
1010
0000
0110
0000
,
0001
0000
1000
0000
0010
0000
1000
0000
0001
0000
0010
0000
0100
0000
1000
0001
,
0100
0000
0010
0000
1000
0000
0100
0000
0010
0000
0001
0000
1000
0000
0010
0100
,
0001
0000
0000
1000
0000
0000
0100
1000
0001
0100
0000
0010
0000
0000
1000
0001
,
0010
0100
1000
0000
0001
0000
0100
0000
0001
1000
0100
0000
2000
0000
3000
0000
,
0001
0010
0100
1000
0001
0100
0010
1000
,
0001
0000
0010
0100
1000
0000
0001
0100
0010
0000
1000
0000
0001
0000
2000
0000
,
3001
0100
0010
1000
0001
0010
0100
1000
,
0001
0000
0100
0010
1000
0000
0001
0010
0100
0000
1000
0000
0001
0000
2000
0000
,
3001
0001
0001
1000
0010
0100
0001
1000
,
0100
0000
0010
0000
0001
0000
1000
0100
0010
0000
0001
1000
0010
0000
0100
0000
,
0001
0000
2000
0000
3100
0010
0000
0100
,
0000
1000
0000
0001
0010
0001
2000
0010
,
3002
0000
0010
1003
0001
0010
0001
0001
,
1000
0010
0010
1000
0001
0010
0100
1000
,
0020
0000
1030
0010
0000
0100
0000
0001
,
1000
0000
1000
0000
0000
0000
0001
0000
0000
0000
0001
0000
1000
0000
0100
0010
,
0001
1000
0010
1000
0001
0010
0100
1000
,
0001
0100
0001
1000
0100
0010
0001
1000
,
0010
0100
0001
1000
0100
0010
0001
0100
,
0010
0010
0010
0110
,
2001
0000
3001
0001
1000
0001
0010
0001
,
1000
0001
0100
0001
1000
0001
0200
0000
,
0320
0000
0030
0000
2000
0000
3000
0000
2100
3000
0000
0000
0120
0030
0000
0000
,
0021
0030
0000
0000
2001
3000
0000
0000
0210
0300
0000
0000
0001
0000
0001
0000
,
0010
0010
0100
0100
1002
0000
0000
1003
,
0010
0010
0100
0100
0001
0010
0100
1000
,
0001
0000
0001
0000
0000
0000
0100
0000
0000
0010
0000
0000
1000
0000
0000
0100
,
0000
0010
0001
0001
0001
0000
0000
0000
,
2000
3000
0000
0200
0300
0000
0020
0030
0001
0000
0000
0000
0020
0030
0000
0200
,
0300
0000
2000
3000
0000
0002
0003
0000
1000
0000
0000
0000
0001
0000
0010
0000
,
0100
1000
0001
0010
0100
1000
0001
0100
0010
1000
0100
0010
,
0002
0000
0000
0000
,
1003
0100
0010
0001
2000
0000
3000
0001
,
1000
0010
1000
0001
0020
0000
0130
2000
,
0000
0000
3010
0100
0001
1000
0100
0010
,
0001
1000
0010
0100
0002
0000
0013
0100
,
2000
3001
2000
3001
1000
0100
0010
0100
,
1000
0010
0100
0001
0010
0100
1000
0010
,
0100
0101
0000
1100
0000
1001
0201
0000
,
1300
0000
1000
0000
1000
0001
0100
0000
0010
0000
1000
0000
0001
0000
0000
0000
,
1001
0000
0000
0000
,
0000
0000
0000
0000
,
0000
0000
0000
0000
,
0000
0000
0000
0000
,
0110
1000
1000
0001
,
0001
0010
0010
0100
,
0100
1000
0001
1000
0010
0100
0001
1000
,
0002
0100
2003
0100
3001
0010
0100
1000
,
0020
0030
1001
0000
1000
0010
1000
1002
,
0003
0011
0000
0001
0010
0001
1000
2001
,
3000
1010
0000
1000
0100
0010
0001
0010
,
1002
0003
0100
1001
0000
0110
1000
0010
,
2000
0000
3001
0000
1000
0100
0010
0001
,
1000
1000
1000
0001
0010
0001
1000
0010
,
0100
0001
1000
0001
0010
0100
1000
0001
,
0100
0010
1000
0020
0000
0000
1030
0000
,
0002
0000
0103
0100
0001
1000
0100
2000
,
0000
3001
0010
0100
1000
0001
0100
0000
,
1001
0000
0000
0011
0000
0000
1001
0000
0000
1010
0000
0000
1001
0000
0000
0101
,
0000
0000
0000
0000
0000
0000
1001
0000
0000
0000
0000
0000
0000
0000
0000
1100
0000
0000
0000
0000
0000
0000
0000
0000
1000
0000
0000
0000
0001
0000
0000
0000
0100
0000
0000
0000
0020
0000
0000
0000
0000
0000
0000
0000
0000
0000
0000
0000
,
1030
0100
0010
0001
0100
0010
1000
0100
,
0010
0001
0100
0010
1000
0100
0010
0001
,
1000
0010
0100
0001
0010
0100
1000
0000
,
0001
0000
1000
0000
0001
0000
0100
0000
0010
1000
0000
1000
0001
0000
0010
0000
,
0100
1000
0010
0100
0001
0000
0100
0010
,
2000
3001
2000
3001
1000
0010
0100
0020
,
1030
0020
1030
0001
0010
0100
1000
0002
,
0010
1003
0001
1000
0100
0010
0001
0100
,
0010
0100
0001
0010
0100
1000
0100
0010
,
0002
1003
0002
1003
0001
0010
0100
0020
,
0031
0020
0031
1000
0010
0100
0001
2000
,
0010
3001
1000
0001
0100
0010
1000
0100
,
0010
0100
1000
0010
0100
0000
0010
0100
,
0002
1003
0002
1003
0001
0100
0010
0200
,
0301
0200
0301
1000
0100
0010
0001
2000
,
0100
3001
1000
0001
0010
0100
1000
0010
,
0100
0010
1000
0100
0010
0001
0100
0010
,
2000
3000
0200
0300
0020
0030
0002
0003
,
2000
3100
2000
3100
0010
0001
1000
0001
,
2000
3000
2000
3000
0100
0010
0001
0100
,
0010
0100
0001
0010
0100
1000
0002
0000
,
1003
0000
0000
0100
0000
0000
0010
0000
,
0001
0000
1000
0001
,
0100
0010
1000
0010
,
0100
0000
0000
0001
0000
0000
1000
0000
,
0001
0000
1000
0000
0000
0001
0010
0001
,
0000
1000
0010
0000
0100
0100
0001
0000
,
0010
0010
0001
0010
0100
1000
1000
0001
,
0100
0100
0000
0010
0000
1000
0100
0010
,
0002
1003
0002
1003
0001
0010
0100
0020
,
0031
0020
0031
1000
0010
0100
0001
2000
,
3010
1001
0100
1001
,
0001
0010
0100
1000
0001
0100
0020
0030
,
2000
3000
0020
0030
0200
0300
0002
0003
,
2000
3010
2000
3010
0100
0001
1000
0001
,
2000
3000
2000
3000
0010
0100
0001
0010
,
0100
0010
0001
0200
0000
0000
0302
0000
,
1003
0100
0010
0001
1000
0010
0100
0001
,
1000
0000
0100
0010
0001
0000
1000
0010
0100
0000
0001
0000
1000
0000
0002
0000
,
1003
0010
0100
0001
1000
0100
0010
0001
,
1000
0000
0010
0100
0001
0000
1000
0100
0010
0000
0001
0000
1000
0000
0002
0000
,
1003
0000
1000
0000
0100
0000
0010
0000
0001
0000
0001
0000
1000
0000
0001
0100
,
0010
1000
1000
0001
0010
0010
0100
1000
,
0010
0100
0001
0010
0100
1000
0010
0100
,
0001
1000
0001
0020
0000
0130
1000
0000
,
1001
0000
0000
0000
;

//--------------- dance-single - Maractus (X-Scale) ----------------
#NOTES:
     dance-single:
     Maractus (X-Scale):
     Challenge:
     18:
     0,0,0,0,0:
0000
0000
0000
0000
,
0000
0000
0000
0000
,
0000
0000
0000
0000
,
0000
0000
0000
0000
,
0001
0000
1000
0000
0000
0001
0100
0001
,
0000
1000
0100
0000
0010
0010
0001
0000
,
0100
0010
0100
0000
0001
0000
0100
0000
0010
0000
1000
0000
1000
0000
0001
0000
,
1002
0003
0000
0000
0000
0000
2000
0000
,
3001
0000
0010
0M00
0010
0000
1000
0000
0010
000M
0010
0000
0200
0000
0000
0000
,
1300
0000
0100
00M0
0100
0000
0001
0000
0100
00M0
0100
0000
1000
0000
0100
0000
,
0010
000M
0010
0000
1000
0000
0100
00M0
0100
0000
0010
0000
0200
0000
0000
0000
,
0301
0000
0100
00M0
0100
0000
1000
0000
1010
0000
0000
0000
0110
0000
0000
0000
,
0001
0000
1000
0000
0010
0000
1000
0000
0001
0000
0010
0000
0100
0000
1000
0001
,
0100
0000
0010
0000
1000
0000
0100
0000
0010
0000
0001
0000
1000
0000
0010
0100
,
0001
1000
0100
1000
0001
0100
0010
1000
0001
1000
0010
1000
0001
0010
0100
1000
,
0001
0100
0010
1000
0001
0000
0100
0000
0001
1000
0100
0000
2000
0000
3000
0000
,
0001
1000
0010
0100
0001
1000
0010
0100
0001
0000
0010
0100
1000
0000
0010
0100
,
0001
0000
0010
0100
1000
0000
0001
0100
0010
0000
1000
0000
0001
0000
2000
0000
,
3001
0010
0100
1000
0001
0010
0100
1000
0010
0000
0100
0000
0010
0000
1000
0000
,
1100
0001
0101
1000
0100
0001
0100
1000
,
0001
0000
0001
0000
0001
0000
1000
0000
0010
0000
0100
0001
1000
0000
0100
1000
,
0001
0000
0100
0001
1000
0000
0100
0010
0001
0000
1000
0000
0010
0000
0010
0000
,
0100
0000
0002
0000
0103
0010
1000
0100
,
0010
0001
1000
0010
0100
0001
2000
0100
,
3002
0000
0000
0000
0100
0000
1003
0000
0001
0000
0010
0000
0100
M000
0100
0000
,
0001
0000
0100
00M0
0100
0000
1000
0000
0001
0000
0010
0000
0100
1000
0001
0100
,
0020
0000
1030
0010
0100
0001
0010
0100
,
0110
0000
0110
0000
0001
0000
1001
0000
0000
0000
1001
0000
1000
0000
0100
0010
,
0001
1000
0010
1000
0001
0010
0100
1000
,
0001
0100
0001
1000
0100
0010
0001
1000
,
0010
1000
0010
0100
0001
1000
0100
0010
0001
1000
0010
0100
0001
1000
0100
0010
,
0001
0001
0001
0110
,
2001
0000
0000
0000
3100
00M0
0100
0000
0001
0000
1000
0000
0010
0000
1000
0000
,
0001
0000
1000
0000
0100
0000
1000
0000
0001
1000
0001
1000
0200
0000
0000
0000
,
0310
0000
0001
0000
1000
0000
0010
0000
0200
0300
0001
0000
0020
0030
0100
0000
,
1200
0300
0000
0000
2001
3000
0000
0000
0201
0300
0000
0000
0001
0000
0001
0000
,
0010
0010
0100
0100
1002
0000
0000
1003
,
0010
0010
0100
0100
0001
0010
0100
1000
,
1100
0000
1001
0000
0000
0000
0101
0000
0000
1001
0000
0000
1100
0000
0000
1001
,
0000
0101
1001
1001
1001
0000
0000
0000
,
0220
0330
0000
0202
0303
0000
2020
3030
0001
0000
0000
0000
0022
0033
0000
2200
,
3300
0000
2002
3003
0000
0220
0330
0000
1000
0000
0000
0000
0001
1000
0001
1000
,
0100
0010
0001
0100
0100
0010
0100
0001
1000
0001
0010
0100
,
2000
0000
0000
0000
,
3001
0100
0010
1000
0002
0010
1003
0001
,
1000
0010
1000
0001
0010
0100
2000
0100
,
3001
1000
0010
0100
0010
1000
0001
0010
,
0100
0000
0010
0000
0001
0000
0001
0000
2000
0000
0100
0000
3001
0010
0100
1000
,
0001
0100
0010
1000
0001
0100
0010
1000
0002
0000
0100
0000
1003
0000
0001
1000
,
0100
0010
0001
1000
0100
0010
0002
0000
0010
0000
1003
0000
0100
0000
0010
0000
,
0001
0101
0000
1100
0000
1001
0201
0000
,
1300
0000
1000
0000
1000
0001
0100
0000
0010
0100
0010
1000
0001
0000
0000
0000
,
1001
0000
0000
0000
,
0000
0000
0000
0000
,
0000
0000
0000
0000
,
0000
0000
0000
0000
,
0110
1000
1000
0001
,
0001
0010
0010
0100
,
0100
0000
1000
0000
0001
0000
1000
0000
0010
0000
0100
0000
0001
1000
0100
1000
,
0002
0000
0103
0010
2000
0000
3100
0000
0010
0000
0001
0100
0020
0030
1000
0100
,
0020
0030
1001
0000
1000
0010
1000
1002
,
0003
0011
0000
0001
0010
0001
1000
2001
,
3000
1010
0000
1000
0100
0010
0001
0010
,
1002
0000
0003
0000
0011
0000
1001
0000
0000
0000
0110
0000
1000
0100
0010
0001
,
2000
0000
3001
0000
1000
0100
0010
0001
,
1000
1000
1000
0001
0010
0001
1000
0010
,
0100
0000
0001
0000
1000
0000
0001
0000
0010
0100
1000
0001
0100
0010
1000
0001
,
0010
0100
1000
0020
0000
0000
1030
0000
,
0002
0000
0000
0000
0103
00M0
0100
0000
1000
0000
0001
0000
0010
0000
0200
0000
,
0000
0000
1300
0000
0100
0010
0001
1000
0010
0000
0100
0000
0001
0000
0000
0000
,
1001
0000
0000
0011
0000
0000
1001
0000
0000
1010
0000
0000
1001
0000
0000
0101
,
0000
0000
0000
0000
0000
0000
1001
0000
0000
0000
0000
0000
0000
0000
0000
1100
0000
0000
0000
0000
0000
0000
0000
0000
1000
0000
0000
0000
0001
0000
0000
0000
0100
0000
0000
0000
0020
0000
0000
0000
0000
0000
0000
0000
0000
0000
0000
0000
,
1030
0100
1000
0001
0010
0100
1000
0001
0100
0001
1000
0100
0010
0001
1000
0100
,
1000
0001
0100
0010
1000
0001
0010
0100
1000
0001
0100
0010
1000
0001
0010
0100
,
1000
0010
0100
0001
1000
0000
0100
0000
0010
0001
1000
0000
0010
0000
0000
0000
,
1000
0000
0001
0000
1000
0000
0100
0000
1000
0100
00M0
0100
0001
0000
1000
0000
,
0001
0010
0001
1000
0010
1000
0100
0010
0001
0000
0000
0000
1000
0010
0100
0001
,
1000
0100
0010
0001
1000
0100
0010
0001
2000
0000
0100
0000
3001
0010
0100
1000
,
0010
0100
0001
1000
0010
0100
0002
0000
0100
0000
1003
0010
0100
0001
1000
0100
,
0010
0001
1000
0100
0010
0001
2000
0000
0100
0000
3002
0000
0100
0000
1003
0000
,
0002
0000
0010
0000
1003
0000
0002
0000
0100
0000
1003
0000
0001
0010
0100
1000
,
0001
0100
0010
1000
0001
0100
0010
1000
0002
0000
0100
0000
1003
0010
0100
0001
,
0010
0100
1000
0001
0010
0001
2000
0000
0100
0000
3001
0000
1000
0000
0001
0000
,
1001
1000
0010
0100
0101
0001
0010
0110
,
1100
0000
1000
0000
0001
0000
0001
0000
2001
0000
3000
0000
0001
0010
0100
1000
,
0001
0100
0010
1000
0001
0100
0010
1000
0002
0000
0100
0000
1003
0010
0100
0001
,
0010
0100
1000
0001
0010
0100
2000
0000
0100
0000
3001
0010
0100
1000
0001
0100
,
0010
1000
0001
0100
0010
1000
0002
0000
0100
0000
2003
0000
0100
0000
3001
0000
,
2000
0000
0010
0000
3001
0000
2000
0000
0100
0000
3001
0000
1000
0010
0100
0001
,
1000
0100
0010
0001
1000
0100
0010
0001
2000
0000
0100
0000
3001
0010
0100
1000
,
0010
0100
0001
1000
0010
1000
0002
0000
0100
0000
1003
0000
0001
0000
1000
0000
,
2002
3003
2002
3003
2000
3000
0200
0300
,
0010
0010
0001
0001
1000
1000
0002
0000
,
1003
0000
0000
0100
0000
0000
0010
0000
,
0001
0000
1000
0001
,
0100
0010
1000
0010
,
0100
0000
0000
0001
0000
0000
1000
0000
,
0001
0000
1000
0000
0000
0001
0010
0001
,
0000
1000
0010
0000
0100
0100
0001
0000
,
0010
0100
0010
0000
0001
0000
0010
0000
0100
0000
1000
0000
1000
0000
0001
0000
,
1001
0000
0011
0000
0000
0000
1001
0000
0000
0000
1010
0000
1000
0100
0010
0001
,
1000
0010
0100
0001
1000
0010
0100
0001
2000
0000
0010
0000
3001
0100
0010
1000
,
0100
0010
0001
1000
0100
0010
0002
0000
0010
0000
1003
0100
0010
0001
1000
0010
,
1000
0100
0020
0031
0101
0001
1000
1200
,
0000
0000
1300
0001
0010
0000
1000
0000
0010
0000
0100
0000
1000
0000
0001
0000
,
0010
0100
1000
0001
0100
0010
1000
0001
0010
0001
1000
0001
0100
0001
1000
0001
,
0010
0100
1000
0001
0010
0100
1000
0001
0100
0010
1000
0001
0010
0001
1000
0100
,
0010
0000
0000
0010
0001
0000
1000
0010
0100
0000
0100
0001
1000
0000
0010
0000
,
0001
0010
1000
0200
0000
0310
0001
0000
,
1000
0001
0010
0100
1000
0001
0010
0100
1000
0000
0010
0100
0001
0000
0010
0100
,
1000
0000
0010
0100
0001
0000
1000
0100
0010
0000
0001
0000
1000
0000
0002
0000
,
1003
0010
0100
0001
1000
0010
0100
0001
0010
0000
0100
0000
0010
0000
0001
0000
,
0101
1000
1100
0010
0100
1000
0100
0001
,
1000
0000
0100
0000
0100
0000
0010
0000
0001
0000
0001
0000
1000
0000
0001
0100
,
0010
0000
1000
0000
1000
0000
0001
0000
0010
0000
0010
0000
0100
0000
1000
0001
,
0100
0010
1000
0001
0010
0100
1000
0010
0100
0001
1000
0100
0010
0001
1000
0010
,
1000
0001
1000
0020
0000
0130
0001
0000
,
1001
0000
0000
0000
;
