#TITLE:DEEP ROAR;
#SUBTITLE:;
#ARTIST:NAOKI&Tatsh;
#TITLETRANSLIT:;
#SUBTITLETRANSLIT:;
#ARTISTTRANSLIT:;
#GENRE:;
#CREDIT:;
#MUSIC:DEEP ROAR.ogg;
#BANNER:DEEP ROAR.png;
#BACKGROUND:DEEP ROAR-bg.png;
#CDTITLE:;
#SAMPLESTART:78.147;
#SAMPLELENGTH:15.000;
#SELECTABLE:YES;
#OFFSET:-0.376;
#BPMS:0.000=165.000;
#STOPS:;
#BGCHANGES:;
#FGCHANGES:;

//--------------- dance-single - ----------------
#NOTES:
     dance-single:
     :
     Beginner:
     3:
     0,0,0,0,0:
0000
0000
0000
0000
,
0000
0000
0000
0000
,
0000
0000
0000
0000
,
0000
0000
0000
0000
,
1001
0000
0000
0000
,
0000
0000
0000
0000
,
0100
0000
0100
0000
,
0010
0010
0010
0010
,
0000
0000
0000
0000
,
0000
0000
0000
0000
,
1000
0000
0001
0000
,
1000
0000
0000
0000
,
0010
0000
0010
0000
,
0010
0000
0000
0000
,
0001
0000
1000
0000
,
0001
0000
0000
0000
,
0100
0000
0100
0000
,
0100
0000
0000
0000
,
1000
0000
0010
0000
,
1000
0000
0000
0000
,
0100
0000
0100
0000
,
0100
0000
0000
0000
,
0001
0000
0010
0000
,
0001
0000
0000
0000
,
0100
0000
0100
0000
,
0100
0000
0010
0000
,
0000
0000
0000
0000
,
0000
0000
1000
0000
,
1000
0000
0001
0000
,
0001
0000
0100
0000
,
0100
0000
0010
0000
,
0010
0000
1000
0000
,
1000
0000
0001
0000
,
0001
0000
0010
0000
,
0010
0000
0100
0000
,
0100
0000
1000
0000
,
0000
0000
0001
0000
,
0000
0000
0100
0000
,
0001
0000
0100
0000
,
0000
0000
0010
0000
,
0000
0000
1000
0000
,
0000
0000
0001
0000
,
0000
0000
0010
0000
,
0000
0000
0100
0000
,
1000
0000
0100
0000
,
0000
0000
0010
0000
,
0100
0000
0010
0000
,
0000
0000
0001
0000
,
0001
0000
0001
0000
,
0000
0000
1000
0000
,
1000
0000
1000
0000
,
0000
0000
0010
0000
,
0000
0000
0000
0000
,
0000
0000
1000
0000
,
0001
0000
1000
0001
,
1000
0000
0001
0000
,
0100
0000
0001
0100
,
0001
0000
1000
0000
,
0100
0000
1000
0100
,
1000
0000
0010
0010
,
0010
0000
0100
0100
,
0100
0000
0001
0000
,
1000
0000
0001
0010
,
0001
0000
1000
0000
,
0001
0000
1000
0010
,
1000
0000
0100
0000
,
0010
0000
0001
1000
,
0001
0000
1001
0000
,
0110
0000
1000
1000
,
0001
0001
0100
0000
,
0000
0000
0010
0000
,
0000
0000
1000
0000
,
0000
0000
0001
0000
,
0000
0000
0010
0000
,
0010
0000
0100
0000
,
0100
0000
1000
0000
,
0001
0000
0100
0010
,
0100
0010
1001
0000
;

//--------------- dance-single - ----------------
#NOTES:
     dance-single:
     :
     Easy:
     6:
     0,0,0,0,0:
0000
0000
0000
0000
,
0000
0000
0000
0000
,
0000
0000
0000
0000
,
0000
0000
0000
0000
,
1001
0000
0000
0000
,
0000
0000
0000
0000
,
0100
0000
0010
0000
,
0100
0100
0010
0010
,
2002
0000
0000
0000
,
0000
0000
3003
0000
,
1000
0100
1000
0100
,
0010
0001
0010
0000
,
0001
0000
0000
1000
0000
0000
0001
0000
,
0000
1000
0000
0000
0001
0000
0000
0000
,
0100
0000
0010
1000
,
0001
0000
0010
0001
,
1000
0000
0001
0000
,
0100
0100
0100
0000
,
0110
0000
0010
0000
,
1000
0000
0010
0000
,
1000
0000
0000
0001
0000
0000
1000
0000
,
0000
0001
0000
0000
1000
0000
0000
0000
,
0100
0010
0100
0000
,
1000
0001
1000
0000
,
0001
0000
0100
0000
,
0010
0010
0010
0000
,
2002
0000
3003
0000
,
1000
0001
1000
1000
,
0000
1000
0000
0000
0001
0000
0001
0000
,
0000
0001
0000
0000
0100
0000
0100
0000
,
0000
0100
0000
0000
0010
0000
0010
0000
,
0000
0010
0000
0000
1000
0000
1000
0000
,
0000
1000
0000
0000
0001
0000
0001
0000
,
0000
0001
0000
0000
0010
0000
0010
0000
,
0000
0010
0000
0000
0100
0000
0100
0000
,
0000
0000
1000
0001
,
1000
0000
1000
0010
,
1000
0000
1000
0100
,
0010
0001
1000
0000
,
0010
0100
0110
0000
,
0001
0100
0001
0000
,
1000
0100
1000
0001
,
0010
0000
0001
1000
,
0010
0000
0100
0100
,
0001
0001
0100
0001
,
0100
0000
0010
0010
,
1000
1000
0010
1000
,
0010
0000
1000
1000
,
0100
0000
0010
0010
,
0001
0000
0100
0010
,
1000
0001
0100
0010
,
0100
0000
2002
0000
,
0000
0000
0000
0000
,
3003
0000
1000
0100
,
0010
0001
0010
0100
,
0110
0000
0001
0100
,
0010
1000
0010
0100
,
0110
0000
1000
0001
,
0010
0001
1000
0010
,
0110
0000
0100
0001
,
0010
0001
0100
0100
,
0100
0000
0001
0010
,
0100
1000
0010
0100
,
1001
0000
1000
0010
,
0100
0001
0010
0100
,
1001
0000
0001
0100
,
0001
1000
0100
1000
,
1001
0000
0110
0000
,
1001
0000
0010
0010
,
0100
0000
2002
0000
,
0000
0000
3003
0000
,
1000
0001
1000
0000
,
0001
0100
0001
0000
,
1000
0100
1000
0000
,
0010
0010
0010
0000
,
0100
0001
1000
1000
,
0100
0100
0010
0001
,
0010
0001
0200
0000
,
0300
0000
0000
0000
;

//--------------- dance-single - ----------------
#NOTES:
     dance-single:
     :
     Medium:
     10:
     0,0,0,0,0:
0000
0000
0000
0000
,
0000
0000
0000
0000
,
0000
0000
0000
0000
,
0000
0000
0000
0000
0000
0000
0000
1000
,
0002
0000
0000
0000
,
0000
0000
0000
0000
0003
0000
0000
0010
,
0100
0000
0000
1000
0001
0000
0000
0010
,
0100
0110
0110
0010
,
2002
0000
0000
0000
,
0000
0000
3003
0000
,
1000
0000
0100
1000
0001
0000
0010
0000
,
0001
0000
0100
0001
2000
0000
3000
0000
,
0010
0000
0000
0100
0000
0000
0001
0000
0000
0100
0000
0000
0010
0000
0000
0100
,
0000
0000
0001
0000
0000
0100
0000
0000
0010
0000
1000
0000
0010
0000
0000
0000
,
1001
0001
0010
0100
,
0000
0000
1000
0000
0100
0000
0010
0001
,
0010
0000
0010
0100
0010
0000
0010
0001
,
1000
0000
0010
0000
0100
0001
0100
0000
,
1001
0000
1000
0000
0010
0000
0100
0001
,
1000
0100
0010
0001
,
1000
0000
0000
0010
0000
0000
0100
0000
0000
0010
0000
0000
1000
0000
0000
0010
,
0000
0000
0100
0000
0000
0010
0000
0000
1000
0000
0001
0000
1000
0000
0000
0000
,
0011
0000
0010
0000
0100
1000
0001
0000
,
0100
0000
0010
0000
1000
0001
0010
0000
,
0110
1000
0110
0001
,
1001
0000
0110
0000
1000
0001
1000
0000
,
0010
0000
0110
0000
0100
0001
0100
0000
,
0010
0000
0100
0000
0010
0000
0000
0000
1000
0000
1000
0000
1000
0000
0000
1000
,
0000
0000
1000
0000
0000
0000
0000
0000
0001
0000
0001
0000
0001
0000
0000
0001
,
0000
0000
0001
0000
0000
0000
0000
0000
0010
0000
0010
0000
0010
0000
0000
0010
,
0000
0000
0010
0000
0000
0000
0000
0000
0100
0000
0100
0000
0100
0000
0000
0100
,
0000
0000
0100
0000
0000
0000
0000
0000
1000
0000
1000
0000
1000
0000
0000
1000
,
0000
0000
1000
0000
0000
0000
0000
0000
0010
0000
0010
0000
0010
0000
0000
0010
,
0000
0000
0010
0000
0000
0000
0000
0000
0100
0000
0100
0000
0100
0000
0000
0100
,
0000
0100
0000
0000
0001
0001
0001
2000
,
0000
0000
3010
0000
1000
0100
0010
0000
,
0100
1000
0001
0000
0010
0000
0001
0000
,
1000
0010
0100
0000
0001
1000
0100
0000
,
0010
0001
1000
0000
0010
0000
0100
0000
,
0110
0000
1001
0000
0001
0010
0100
0000
,
0010
0000
0001
0000
1000
0010
0100
0000
,
0010
0000
1000
0000
0001
0100
0001
0000
,
1000
0100
1000
0000
0010
0100
0010
0100
,
0010
0110
1001
1000
,
0100
0000
1000
0000
0010
0000
1000
0100
,
0010
0001
1001
0001
,
0100
0000
0010
0000
0100
0000
0001
0100
,
0010
0000
1000
0000
0001
0010
0100
0000
,
0010
0000
0001
0000
1000
0010
0100
0000
,
0010
1000
1100
0001
,
0101
0000
1000
0000
0010
0100
0010
0100
,
0020
1000
0000
0000
,
0000
0000
0130
0110
,
2002
0000
0000
0000
3003
0000
0000
0000
1000
0000
0000
0100
0000
0000
1000
0000
,
0001
0000
0000
0100
0000
0000
0001
0000
0010
0000
0000
0100
0000
0000
0010
0000
,
1001
0000
0000
0000
0000
0000
0000
0000
0001
0000
0000
0100
0000
0000
0001
0000
,
1000
0000
0000
0100
0000
0000
1000
0000
0010
0000
0000
0100
0000
0000
0010
0000
,
1001
0000
0000
0000
0000
0000
0000
0000
1000
0000
0000
0100
0000
0000
0010
0000
,
0001
0000
0000
0010
0000
0000
0100
0000
1000
0000
0000
0001
0000
0000
0100
0000
,
0010
0000
1000
0100
1000
0000
0001
0100
,
0001
0000
0010
0100
0010
0000
0110
0000
,
1001
0000
0000
0000
0000
0000
0000
0000
1000
0000
0000
0010
0000
0000
0100
0000
,
0001
0000
0000
0010
0000
0000
0100
0000
1000
0000
0000
0010
0000
0000
0100
0000
,
1001
0000
0000
0000
0000
0000
0000
0000
0001
0000
0000
0010
0000
0000
0100
0000
,
1000
0000
0000
0010
0000
0000
0100
0000
0001
0000
0000
0010
0000
0000
0100
0000
,
1001
0000
0000
0000
0000
0000
0000
0000
1000
0000
0000
0100
0000
0000
0010
0000
,
0001
0000
0000
0100
0000
0000
0010
0000
1000
0000
0000
0100
0000
0000
0010
0000
,
1001
0000
0000
0000
0000
0000
0001
0000
0100
0000
0000
0001
0000
0000
1000
0000
,
0100
0000
0000
1000
0000
0000
0010
0000
0100
0000
0100
0000
0010
0000
0000
0000
,
0110
0000
1001
0000
1000
0100
1000
0000
,
0001
0000
0010
0000
0001
0100
0001
0000
,
1000
0010
1000
0000
0001
0100
0001
0000
,
1000
0000
0010
0000
1000
0100
0010
0000
,
0001
0100
0010
0000
1000
0100
0010
0000
,
0001
0000
1000
0000
0010
0100
0001
0000
,
0010
0100
1000
0000
0001
0100
0001
0000
,
1000
0010
1000
0000
0100
0010
0100
0010
,
0001
0110
2002
0000
,
3003
0000
0000
0000
;

//--------------- dance-single - ----------------
#NOTES:
     dance-single:
     :
     Hard:
     14:
     0,0,0,0,0:
0000
0000
0000
0000
,
0000
0000
0000
0000
,
0000
0000
0000
0000
,
0000
0000
0000
0000
0000
0000
0000
0100
,
2002
0000
0000
0000
,
0000
0000
0000
0000
3003
0000
0000
1000
,
1010
0000
0000
0001
0011
0000
0000
0100
,
0110
0101
0011
0110
,
2002
0000
0000
0000
,
0000
0000
3003
0000
,
1000
0000
0000
0100
1000
0000
0001
0000
0010
0000
0000
0001
1000
0000
0100
0000
,
0010
0000
0000
0001
1000
0000
0001
0000
0200
0000
0000
0000
0300
0000
0000
0000
,
0010
0000
1000
0010
0000
0000
0100
0000
0001
0100
0000
0000
0010
0000
1000
0010
,
0000
0000
0100
0000
0001
0100
0000
0000
0010
1000
0010
1000
0001
0000
0010
0000
,
0100
0000
1000
0100
0010
0001
0010
0100
,
1000
0000
0001
0100
0010
1000
0010
0100
,
0001
0000
0000
1000
0000
0000
0100
0000
1000
0000
0000
0001
0000
0000
0100
0000
,
0010
0000
1000
0000
0010
0000
1000
0000
0001
0010
0001
0010
0100
0000
1000
0000
,
0001
0000
0000
0100
0001
0000
1000
0000
0010
0000
0000
1000
0001
0000
0100
0000
,
0010
0000
0000
1000
0001
0000
1000
0000
0200
0000
0000
0000
0300
0000
0000
0000
,
0010
0000
0001
0010
0000
0000
0100
0000
1000
0100
0000
0000
0010
0000
0001
0010
,
0000
0000
0100
0000
1000
0100
0000
0000
0010
0001
0010
0001
1000
0000
0010
0000
,
0100
0000
0001
0010
0100
1000
0100
0010
,
0001
0000
1000
0010
0100
0001
0100
0010
,
1000
0000
0000
0100
0000
0000
0001
0000
0100
0000
0000
1000
0000
0000
0010
0000
,
0100
0000
0000
0000
1001
0000
0000
0000
0001
0100
0010
1000
0010
0000
1000
0000
,
0001
0000
1001
0000
1000
1000
0001
0001
,
1000
0001
1000
0000
0001
1000
0001
0000
0100
0000
0100
0000
0100
0000
0001
0100
,
0000
0001
1000
0000
0000
0000
0100
0000
0100
0000
1000
0000
1000
0000
0100
1000
,
0000
0100
0010
0000
0000
0000
0001
0000
0001
0000
0010
0000
0010
0000
0001
0010
,
0000
0001
1000
0000
0000
0000
0010
0000
0010
0000
1000
0000
1000
0000
0010
1000
,
0000
0001
0010
0000
0000
0000
0001
0000
0001
0000
1000
0000
1000
0000
0010
0100
,
0000
0100
0010
0000
0000
0000
1000
0000
1000
0000
0001
0000
0001
0000
0010
0100
,
0000
0100
0010
0000
0000
0000
0001
0000
0001
0000
0100
0000
0100
0000
0010
0000
,
1000
0010
1000
0000
0010
0000
1000
0000
0001
0000
0001
0000
0010
0000
0200
0000
,
0000
1000
1300
0000
0100
0010
0001
0100
,
0001
0010
0100
0000
1000
0010
0100
1000
,
0100
0001
0010
0000
0100
1000
0001
0100
,
0001
1000
0100
0000
0120
0000
0031
0000
,
0001
0100
0000
0000
0010
1000
0000
0000
0001
0000
0010
0000
0100
0010
0000
0001
,
0000
0000
1000
0000
0100
0000
0010
0000
0100
0000
1000
0000
0001
0100
0000
0010
,
0000
0000
0100
0000
0001
0000
1000
0000
0010
0000
0100
0000
0001
1000
0000
0100
,
0000
0000
0010
0000
0001
0000
1000
0000
0010
0000
0100
0000
0001
1000
0000
0100
,
0000
0000
0010
0000
0010
0000
0001
0000
1000
0000
0000
1000
0100
0000
0010
0000
,
0001
0000
0000
0001
0100
0000
0010
0000
1000
0000
0000
1000
0001
0000
0010
0000
,
0110
0000
0000
0000
1001
0000
0000
0000
0001
0000
0000
0001
0100
0000
0010
0000
,
1000
0000
0000
1000
0100
0000
0010
0000
0100
0000
0000
0100
1000
0000
0001
0000
,
1001
0000
0000
0000
0110
0000
0000
0000
1000
0000
0010
0000
0100
0010
0000
1000
,
0001
0000
0010
0000
0100
0000
1000
0000
0001
0000
0010
0000
0100
0010
0000
0001
,
1000
0000
0010
0000
0100
0000
0001
0000
0010
0000
0000
0100
0010
0000
0001
0000
,
0100
0000
0000
0010
0100
0000
0001
0000
1000
0000
0000
1000
0100
0000
0010
0000
,
0001
0101
1000
1000
,
0010
0010
0010
0000
1001
0000
0110
0000
,
2002
0000
0000
0000
3003
0000
0000
0000
1000
0100
0000
1000
0001
0000
0010
0000
,
0001
0100
0000
0001
1000
0000
0010
0000
1000
0100
0000
0010
0001
0000
0100
0000
,
2001
0000
0000
0000
3010
0000
0000
0000
0001
0100
0000
0010
1000
0000
0001
0000
,
1000
0100
0000
0010
0001
0000
1000
0000
0010
0100
0000
0001
1000
0000
0100
0000
,
0110
0000
0000
0000
1001
0000
0000
0000
0001
0010
0000
0001
0100
0000
0001
0000
,
1000
0010
0000
1000
0100
0000
1000
0000
0010
0100
0000
0001
1000
0000
0100
0000
,
0120
0000
0000
0000
0031
0000
1000
0001
2000
0000
0000
3200
0000
0000
0310
0000
,
0002
0000
0000
0203
0000
0000
0310
0000
1000
0000
0001
0000
1001
0000
0000
0000
,
0220
0000
0000
0000
0330
0000
0000
0000
0001
0010
0000
0100
0010
0000
0100
0000
,
1000
0010
0000
0100
0010
0000
0100
0000
0001
1000
0000
0100
1000
0000
0010
0000
,
0110
0000
0000
0000
1001
0000
0000
0000
1000
0100
0000
0010
0001
0000
0100
0000
,
0001
0010
0000
0100
1000
0000
0010
0000
1000
0001
0000
0100
0010
0000
1000
0000
,
1100
0000
0000
0000
0101
0000
0000
0000
0001
0010
0000
0001
0100
0000
0010
0000
,
1000
0100
0000
1000
0010
0000
0100
0000
0001
0010
0000
0100
1000
0000
0010
0000
,
0210
0000
0000
0000
0301
0000
1000
0010
2000
0000
0000
3002
0000
0000
0013
0000
,
0012
0000
0000
2003
0000
0000
3010
0000
0110
0000
0000
0000
1001
0000
0000
0000
,
1000
0100
0010
0001
0010
0000
0000
0000
0210
0000
0000
0000
0010
0000
0000
0000
,
1000
0000
1000
0000
0310
0100
1000
0001
,
0010
0001
1000
0000
1100
0000
0011
0000
,
0001
0100
0010
0000
0101
0000
1010
0000
,
1000
0100
0010
0000
0001
0100
0010
0001
,
0010
0100
0001
1000
0010
0100
1000
0100
,
0010
1000
0001
0000
0010
0100
1000
0100
,
0001
0000
0100
0000
1000
0000
0000
0000
0001
0000
1000
0100
1000
0000
0001
0100
,
0001
0000
0010
0100
0010
0000
0000
0000
2002
0000
0000
0000
0000
0000
0000
0000
,
3003
0000
0000
0000
;

//--------------- dance-single - ----------------
#NOTES:
     dance-single:
     :
     Challenge:
     16:
     0,0,0,0,0:
0000
0000
0000
0000
,
0000
0000
0000
0000
,
0000
0000
0000
0000
,
0000
0000
0000
0000
0000
0000
0000
0100
,
2002
0000
0000
0000
,
0000
0000
0000
0000
3003
0000
0000
0010
,
0110
0000
0000
0100
0110
0000
0000
0010
,
1001
1100
0101
1001
,
2000
0000
0000
0100
0000
0000
0100
0000
3200
0000
0000
0010
0000
0000
0010
0000
,
0320
0000
0000
0001
0000
0000
0001
0000
0032
0000
0000
0100
0000
0000
1000
0000
,
0013
0000
0000
0001
0100
0000
0010
0000
1000
0000
0000
0001
0010
0000
0100
0000
,
1000
0000
0000
0010
0100
0000
0001
0000
0022
0000
0000
0000
0033
0000
0000
0000
,
0010
0100
0010
0002
0000
0000
1003
0100
1000
0002
0000
0000
0103
0010
0100
0002
,
0000
0000
1003
0010
1000
0002
0000
0000
0013
0100
0010
0100
1000
0000
0001
0000
,
0100
0010
1000
0001
0010
0100
1000
0001
,
0100
0000
1000
0000
0100
0000
0001
0000
0010
0000
0100
0000
0110
0000
0010
0001
,
2000
0000
0000
0010
0000
3000
0100
1000
0002
0000
0000
0100
0000
0003
0010
0001
,
1000
0000
1000
0000
0010
0000
0010
0000
1000
0100
0010
0001
1000
0010
0100
0001
,
1000
0000
0000
0100
0010
0000
0001
0000
1000
0000
0000
0010
0100
0000
0001
0000
,
0010
0000
0000
0100
1000
0000
0001
0000
0202
0000
0000
0000
0303
0000
0000
0000
,
0010
0100
0010
2000
0000
0000
3001
0100
0001
2000
0000
0000
3100
0010
0100
2000
,
0000
0000
3001
0010
0001
2000
0000
0000
3010
0100
0010
0100
0001
0000
1000
0000
,
0100
0010
0001
1000
0010
0001
0010
1000
,
0001
0000
0010
0000
0100
0000
1000
0000
0010
0000
0100
0000
1000
0000
0100
0001
,
2000
0000
0000
0010
0000
3000
0100
1000
0002
0000
0000
0010
0000
0003
0100
0001
,
2000
0000
0000
3100
0010
0000
0000
0000
0001
0100
0010
1000
0100
0000
0010
0000
,
1001
0000
1000
0010
0100
0100
0001
0001
,
1000
0100
0010
0000
0001
1000
0001
0000
0100
0000
0100
0000
0001
0000
0100
0001
,
0000
1000
0010
0000
0000
0000
1000
0000
0100
0000
0100
0000
1000
0000
0100
1000
,
0000
0001
0010
0000
0000
0000
0100
0000
0010
0000
0010
0000
0100
0000
1000
0001
,
0000
0100
0010
0000
0000
0000
0100
0000
0010
0000
0010
0000
0100
0000
0001
1000
,
0000
0100
0010
0000
0000
0000
0001
0000
0101
0000
0101
0000
0001
0000
0100
1000
,
0000
0100
0001
0000
0000
0000
1000
0000
1100
0000
1100
0000
1000
0000
0100
0001
,
0000
0100
1000
0000
0000
0000
0010
0000
0100
0001
0100
0001
1000
0000
0100
1000
,
0100
1000
0001
0000
0100
0010
0100
0000
0010
0000
0010
1000
0100
0000
0010
0002
,
0000
0103
1001
0000
0001
0100
0010
0100
,
1000
0100
0010
0100
0001
0010
1000
0010
,
0001
0100
1000
0100
0001
0010
1000
0001
,
0100
1000
0001
0000
0201
0000
0310
0000
,
1010
0000
0000
0000
1100
0000
0000
0000
0001
0000
0100
0000
0001
1000
0000
0100
,
0010
0000
1000
0000
0010
0000
0001
0000
1000
0000
0100
0000
1000
0001
0000
0100
,
0010
0000
0001
0000
0010
0000
1000
0000
1100
0000
0000
0100
0010
0000
0001
0000
,
0101
0000
0000
0100
0010
0000
1000
0000
0001
0000
0010
0000
0100
0010
0000
0100
,
1000
0000
1000
0000
0010
0000
0010
0000
0100
0000
0001
1000
0100
0000
0010
0000
,
0100
0000
1000
0001
0100
0000
0010
0000
1000
0000
0001
0010
0100
0000
1000
0000
,
0010
0000
0100
0000
0110
0000
0000
0000
0001
0000
0100
0001
0010
0000
0100
0000
,
1000
0000
0100
1000
0010
0000
0100
0000
0001
0000
0010
0100
1000
0000
0010
0000
,
0110
0000
0000
0000
1001
0000
0000
0000
1000
0000
0010
0000
0100
0010
0000
1000
,
0100
0000
0010
0000
0001
0000
0100
0000
0001
0000
0010
0000
0100
0010
0000
0001
,
0100
0000
0010
0000
1000
0000
0000
0000
1001
0000
0000
0001
0010
0000
0100
0000
,
1001
0000
0000
1000
0010
0000
0100
0000
0110
0000
0000
0001
0100
0000
0010
0000
,
1000
0001
0010
0100
2000
0000
0000
0000
0010
0000
0000
0000
0010
0000
0000
0000
,
0001
0000
0001
0000
3001
0000
1000
0000
0100
0010
0000
0000
0010
0100
0000
0000
,
1001
0000
0000
0000
1001
0000
0000
0000
0001
0100
0010
0100
0000
0010
1000
0000
,
0001
0010
0100
0010
0000
0100
1000
0000
0001
0100
0001
1000
0000
0010
1000
0000
,
0100
0000
0010
0000
1001
0000
0000
0000
1000
0100
0010
0001
0000
1000
0100
0000
,
1000
0001
0100
0010
0000
1000
0001
0000
0010
0100
1000
0001
0000
1000
0010
0000
,
0100
0000
0110
0000
1001
0000
0000
0000
0001
0010
0001
1000
0000
0010
0100
0000
,
0001
1000
0100
1000
0000
0001
0100
0000
0010
1000
0100
0010
0000
0001
1000
0000
,
0001
0000
0010
0000
0110
0000
0100
1000
0020
0000
0000
1000
0000
0030
0100
0001
,
0020
0000
0000
0001
0000
0030
0100
1000
0001
0000
0100
0001
1000
0000
0010
0000
,
0110
0000
0000
0000
1001
0000
0000
0000
1000
0100
0010
0100
0010
0001
1000
0000
,
0001
0100
0010
0100
0010
1000
0001
0000
0010
0100
0010
0001
1000
0000
0010
0000
,
0100
0000
0110
0000
1001
0000
0000
0000
0001
0100
0010
1000
0010
0100
0001
0000
,
1000
0100
0010
0001
0010
0100
1000
0000
0010
0100
0010
1000
0001
0000
0010
0000
,
0100
0000
0110
0000
1001
0000
0000
0000
1000
0001
0010
0100
0010
0001
1000
0000
,
0010
0100
0001
1000
0001
0100
0010
0000
1000
0100
1000
0001
0100
0000
0001
0000
,
0010
0000
0100
0000
1100
0000
1000
0010
2000
0000
0000
0100
0000
3000
0001
0010
,
0002
0000
0000
0100
0000
0003
0010
0100
0010
0000
0001
1000
0100
0000
1000
0001
,
0100
0010
1000
0001
0010
0000
0000
0000
2001
0000
0000
0000
0100
0000
0000
0000
,
0001
0000
0000
0000
3010
0000
0000
0000
1000
0100
1000
0000
0001
0000
0010
0000
,
0100
1000
0000
0001
0100
0000
0000
0000
1010
0000
0000
0000
0110
0000
0000
0000
,
0100
0000
0001
0010
0100
0000
0000
0000
0011
0000
0000
0000
0110
0000
0000
0000
,
0100
0000
1000
0010
0100
0000
0000
0000
0001
1000
0000
0100
1000
0000
0010
0000
,
0100
0001
1000
0010
0100
0000
0000
0000
0001
0010
0000
0100
0010
0000
0100
1000
,
0000
0001
0010
0000
1001
0000
0000
0000
1000
0000
1000
0000
0010
0000
0010
0000
,
0100
0000
0100
0000
0001
0000
0001
0000
0010
0000
0001
1000
0001
0100
0010
1000
,
0001
0010
0100
1000
0001
0010
0100
1000
0020
0000
0000
0000
0000
0000
0000
0000
,
0030
0000
0000
0000
;
