#TITLE:DEAD END;
#SUBTITLE:;
#ARTIST:N&S;
#TITLETRANSLIT:;
#SUBTITLETRANSLIT:;
#ARTISTTRANSLIT:;
#GENRE:;
#CREDIT:;
#BANNER:DEAD END.png;
#BACKGROUND:DEAD END-bg.png;
#LYRICSPATH:;
#CDTITLE:;
#MUSIC:DEAD END.ogg;
#OFFSET:-1.259000;
#SAMPLESTART:55.576054;
#SAMPLELENGTH:15.000000;
#SELECTABLE:YES;
#BPMS:0.000000=95.000000
,18.000000=190.000000
,84.000000=95.000000
,115.000000=190.000000
,212.000000=95.000000
,221.000000=380.000000
;
#STOPS:18.000000=0.632000,
101.000000=0.632000,
115.000000=0.632000,
212.000000=0.632000
;
#BGCHANGES:;
#KEYSOUNDS:;
#ATTACKS:;

//---------------dance-single - Lunaticboi----------------
#NOTES:
     dance-single:
     Lunaticboi:
     Easy:
     8:
     0.395305,0.465293,0.640085,0.226492,0.014771,281.000000,216.000000,65.000000,23.000000,0.000000,0.000000,0.395305,0.465293,0.640085,0.226492,0.014771,281.000000,216.000000,65.000000,23.000000,0.000000,0.000000:
0000
0000
0000
0000
,
0000
0000
1000
0110
,
0001
0110
2100
3010
,
0102
0000
0013
0000
2000
3000
0220
0330
,
0002
0003
0220
0330
1001
0000
0000
0000
,
1000
0101
1000
0011
,
1000
0100
0011
0000
,
0001
1100
0001
1010
,
0001
0100
1010
0000
,
1000
1100
1000
1001
,
1000
1010
1000
0000
,
0001
0101
0001
1001
,
0001
0011
0001
0000
,
1000
0001
0100
0001
,
1000
0100
0011
0000
,
0001
0010
1100
0000
,
1000
0010
0110
0000
,
0100
1001
0001
1100
,
1000
0100
0011
0000
,
0001
1000
0001
0000
,
1000
0001
1000
0000
,
0002
0000
1000
1003
,
0110
1000
0002
0003
,
1001
0110
0001
0001
,
1100
0000
0000
0000
0000
0000
0000
0000
1000
0000
0000
1000
0100
0000
0000
0100
,
0010
0000
0000
0010
0001
0000
0000
0000
1000
0000
0000
0000
0010
0000
0000
0000
,
0100
0001
0010
0100
,
1000
0020
2030
3020
,
0032
0023
2030
3001
,
0000
1000
1100
0100
,
0110
0010
0011
1001
,
0000
0001
0101
0100
,
0110
0010
1010
1001
,
0000
0000
1000
0000
0000
0001
1000
0001
,
0000
0100
0010
0100
0010
0000
0100
0000
,
0000
0000
0000
1001
0000
1001
0000
1001
,
0000
0000
1001
0000
0000
0000
1000
0001
,
0000
0000
0011
0000
1100
0000
0000
1000
,
0001
0000
0101
0000
1010
0000
0000
1000
,
0001
1000
0020
0031
,
0200
1300
0020
0031
,
0110
0000
1000
0001
0000
0100
0001
0100
,
0000
1000
0010
1000
0000
0010
0001
0010
,
0000
0001
2100
3001
,
0000
1000
0102
1003
,
0000
0000
0101
0000
0000
0101
0000
0000
,
0001
0000
0000
0000
1000
0000
0000
0100
,
0000
0000
0000
1100
0000
1100
0000
0000
,
0100
0000
0000
0001
0000
0000
0100
0000
,
0010
0000
0011
0000
1001
0000
0000
1000
,
0000
0000
0010
0000
0000
0100
0000
0000
,
0001
0000
0000
0110
0000
1001
0000
0000
,
1000
0000
0000
0100
0000
0000
0010
0000
,
1001
0000
0000
1000
0000
0110
0000
0001
,
0000
0110
0000
1000
0000
0110
0000
0001
,
0000
1001
0000
0000
0000
0000
1000
0000
,
0000
0100
0000
0001
,
0000
0100
0000
1000
,
0000
0010
0000
0001
,
0000
0010
0000
1000
,
0000
0001
0000
1001
,
0000
0100
0000
1001
,
0000
0010
0000
1001
,
0000
0000
0000
0001
,
0000
0001
0000
0000
0001
0000
0000
0000
,
0100
0010
0000
1000
,
0000
1000
0000
0000
1000
0000
2002
0000
,
0000
0000
3003
0000
;

//---------------dance-single - Lunaticboi----------------
#NOTES:
     dance-single:
     Lunaticboi:
     Medium:
     13:
     0.562712,0.830880,0.413593,0.206797,0.108322,400.000000,358.000000,42.000000,21.000000,0.000000,0.000000,0.562712,0.830880,0.413593,0.206797,0.108322,400.000000,358.000000,42.000000,21.000000,0.000000,0.000000:
0000
0000
0000
0000
,
0000
0000
0000
0000
0000
0000
0000
0000
1000
0100
0000
0000
1000
0000
0000
0000
,
0001
0100
0001
0000
0020
0000
2030
0000
,
3020
0000
0032
0000
1003
0100
0010
0001
,
0010
0000
0000
0000
0100
0000
0000
0000
1000
0000
0000
0000
0002
0000
0000
0000
2000
3003
0000
0000
0000
0000
0000
0000
0000
0000
0000
0000
0000
0000
0000
0000
,
1000
0010
0100
0100
0001
0010
0100
0100
,
1000
0010
0100
0010
0100
0100
0000
0000
,
0001
0010
0100
0100
1000
0010
0100
0100
,
0001
0010
0100
0010
0100
0100
0000
0000
,
1000
0100
0001
0100
1000
0100
0000
0100
,
0010
0100
1000
0001
1000
0001
0000
0000
,
1000
0010
0001
0010
0100
0010
0000
1000
,
0001
0010
0100
0010
1000
0010
0000
0000
,
0011
0000
2100
0000
0000
0001
3001
0000
,
0001
0100
0010
1000
0001
1000
0000
0000
,
0001
0010
1000
0000
0100
0001
0010
0000
,
1000
0100
0001
0000
0100
0000
1001
0000
,
1000
0001
0000
0010
1000
0100
0000
0100
,
1000
0010
0001
1000
0010
0010
0000
0000
,
0100
0001
0010
1000
0100
1000
0000
0000
,
0010
0001
0100
0010
1000
0001
1000
0000
,
0120
0000
0100
0000
0100
0000
0130
0000
1010
0000
0000
0110
0000
0000
0000
1001
,
0000
0011
0000
1100
0000
1000
0000
0001
2000
0002
0000
0000
3003
0000
0000
0100
,
0100
0000
1001
0000
1000
0100
0001
0100
0010
0000
0100
0010
0000
0011
0000
1100
,
0000
0000
1001
0000
0000
0000
0000
0000
0000
0000
0000
0000
0000
0000
0000
0000
1000
0000
0000
0100
0000
0000
0001
0000
1000
0000
0000
0010
0000
0000
0001
0000
,
1000
0000
0000
0100
0000
0000
0010
0000
0001
0000
0000
0000
0000
0000
0000
0000
0100
0000
0000
0000
0010
0000
0000
0000
1000
0000
0000
0000
0010
0000
0000
0000
,
0100
0001
1000
1000
0001
0001
0010
0100
,
1000
0001
1000
0000
0020
0000
0000
0000
2030
0000
0000
0000
3200
0000
0000
0000
,
0320
0000
0000
0000
0000
0000
0000
0000
0031
0000
0000
0000
0010
0000
0000
0000
0100
0000
0000
0000
2000
0000
0000
0000
0002
3003
0000
0000
0000
0000
0000
0000
,
0000
0000
1000
0100
0001
0100
1000
0100
,
0001
0100
1000
0100
0010
0001
1000
0001
,
0000
0000
0001
0010
1000
0010
0001
0010
,
1000
0010
0001
0010
0100
1000
0001
1000
,
0000
0000
0001
0100
1000
0100
0001
0010
,
1000
0010
0100
1000
0001
1000
0010
0010
,
0000
0000
0000
1001
0000
0110
0000
1001
,
0000
1000
0100
0001
0100
1000
0001
0001
,
0000
0000
1010
0000
0102
0000
0000
0010
,
0013
0000
1100
0000
1000
0001
1000
1000
,
0000
0000
0001
0010
1000
0001
0100
1000
,
0000
0000
1000
0010
0001
1000
0100
0001
,
0000
0000
1000
0010
0010
0001
0010
0010
,
0010
0100
0010
0010
0010
0010
1000
0010
,
0000
0000
1000
0100
0100
0001
0100
0100
,
0100
0010
0100
0100
0100
0100
1000
0100
,
0000
0000
0011
0000
0000
1001
0000
0000
,
1000
0000
0100
0010
0001
1000
0001
0000
,
0000
0000
0000
0101
0000
1010
0000
0000
,
1000
0010
0000
0100
0001
0000
0010
0100
,
0010
0000
1100
0000
0011
0000
0000
1001
,
0000
0000
0101
0000
0100
0010
1000
0000
,
0000
0000
0000
1001
0000
0110
0000
1000
,
0100
0000
0010
0001
1000
0000
0001
0000
,
2002
3003
0000
0000
0000
0000
0000
0000
0000
0000
0000
0000
1000
0000
0000
0000
0001
0000
0000
0000
0001
0000
0000
0000
0000
0000
0000
0000
0001
0000
0000
0000
,
0010
0010
0000
0100
1000
1000
0000
0001
,
1000
1001
0000
0000
0000
0000
1000
0000
,
0000
1100
0000
0001
,
0000
0101
0000
1000
,
0000
0110
0000
0001
,
0000
0110
0000
1000
,
0100
0001
0100
1000
,
0100
0010
0100
0010
,
0001
1000
0001
0100
,
0010
1000
0000
0101
,
0000
0101
0000
0000
0101
0000
0000
0000
,
1000
0001
1000
0110
,
0000
1001
0000
0000
0110
0000
2002
0000
,
0000
0000
3003
0000
;

//---------------dance-single - Lunaticboi----------------
#NOTES:
     dance-single:
     Lunaticboi:
     Hard:
     16:
     0.699170,0.897350,0.541610,0.472678,0.329890,497.000000,442.000000,55.000000,48.000000,0.000000,0.000000,0.699170,0.897350,0.541610,0.472678,0.329890,497.000000,442.000000,55.000000,48.000000,0.000000,0.000000:
// measure 0
0000
0000
0000
0000
,  // measure 1
0000
0000
0000
0000
0000
0000
0000
0000
0001
2000
0000
0000
3100
0000
0000
0000
,  // measure 2
1000
0002
0000
0000
0103
0000
0000
0000
2020
0000
3000
0000
0200
0000
0300
0000
,  // measure 3
0002
0003
0200
0330
0001
0010
0100
1000
,  // measure 4
0001
0000
0100
0000
0010
0000
1000
0000
0100
0000
0010
0000
0001
0000
2000
0000
0002
3003
0000
0000
0000
0000
0000
0000
0000
0000
0000
0000
0000
0000
0000
0000
,  // measure 5
1000
0000
0001
0000
0001
0000
1000
0010
0100
0000
0001
0000
0001
0000
1000
0100
,  // measure 6
0001
0000
0001
0000
0100
0000
1000
0001
1000
0000
1001
0000
0000
0000
1001
0000
,  // measure 7
0001
0000
1000
0000
1000
0000
0001
0010
0100
0000
1000
0000
1000
0000
0001
0100
,  // measure 8
0010
1000
1000
0001
1000
1001
0000
0001
,  // measure 9
1000
1000
0100
0001
0100
0100
1000
0001
,  // measure 10
0100
0100
1000
0100
0001
0001
0000
1000
,  // measure 11
0001
0010
0010
0001
1000
1000
0000
0001
,  // measure 12
1000
0010
0010
1000
0001
0001
0000
0000
,  // measure 13
1001
0000
0000
0000
1200
0000
0000
0000
0000
0000
0010
0000
0310
0000
0001
1000
,  // measure 14
0001
0100
0001
1000
0001
1001
0000
0000
,  // measure 15
0001
0001
0020
0000
1030
1000
0200
0000
,  // measure 16
0301
0001
0010
0100
1000
1001
0000
0001
,  // measure 17
1000
0000
0001
0000
0001
0000
1000
0010
0100
0000
1000
0000
1000
0000
0100
0001
,  // measure 18
1000
0001
0001
1000
0001
0001
0000
0000
,  // measure 19
1000
0100
0020
0000
0100
0130
0000
1000
,  // measure 20
1000
0000
0010
0100
0001
0000
1000
0000
0001
0000
1001
0000
0000
0000
0000
0000
,  // measure 21
1001
0000
0001
0000
1000
0010
0100
0001
2000
0000
3100
2000
0000
3001
1000
0010
,  // measure 22
0000
1001
0000
0001
0000
0100
0010
1000
0100
0020
0002
0000
0000
0033
0000
1001
,  // measure 23
1001
0000
0101
0000
0100
0010
1000
0001
0200
0000
0301
0200
0000
0301
0000
1001
,  // measure 24
0000
0000
1100
0000
0000
0000
0100
0000
0000
0000
0011
0000
0000
0000
0000
0000
1000
0000
0000
1000
0000
0000
1000
0000
0001
0000
0000
0001
0000
0000
0001
0000
,  // measure 25
0100
0000
0000
0100
0000
0000
0100
0000
0020
0030
0000
0000
0000
0000
0000
0000
1000
0000
0000
0000
0001
0000
0000
0000
1000
0000
0000
0000
0100
0000
0000
0000
,  // measure 26
0001
0000
0100
0000
1000
0010
1000
0000
0001
0010
0001
0000
1000
0100
1000
0000
,  // measure 27
0001
0100
0001
0000
0200
0000
0300
0000
2002
0000
3003
0000
0020
0000
0030
0000
,  // measure 28
2002
0000
3003
0000
0001
0010
0100
1000
0010
0100
0001
2000
0002
3003
0000
0000
,  // measure 29
0000
0000
0000
0000
1000
0000
0100
0000
0001
0000
0100
1000
0001
0000
0100
0000
,  // measure 30
1000
0000
0100
0001
1000
0000
0001
0000
0010
0000
1000
0010
0001
0000
1001
0000
,  // measure 31
0000
0000
1000
0000
0001
0000
0010
0000
1000
0000
0010
0001
1000
0000
0010
0000
,  // measure 32
0001
0000
0010
1000
0001
0000
1000
0000
0100
0000
0001
0100
1000
0000
1001
0000
,  // measure 33
0000
1000
0001
0100
0100
1000
0100
0100
,  // measure 34
0001
1000
0100
0001
0100
0010
0100
0100
,  // measure 35
0000
1001
0000
0011
0000
1010
0000
0011
,  // measure 36
0000
0000
1001
0000
1001
0000
0000
0000
1000
0000
0100
0010
0001
0000
1001
0000
,  // measure 37
0000
0000
1001
0000
0201
0000
0000
0010
,  // measure 38
0310
0000
1000
0001
1000
0000
0100
0000
0011
0000
0001
0000
1000
0000
1001
0000
,  // measure 39
0000
0000
0001
0001
0200
0000
1300
1000
,  // measure 40
0020
0000
0031
0001
1000
0001
1000
1000
,  // measure 41
0000
0000
0001
0000
0010
0000
0001
0000
0001
0000
1000
0010
0100
0000
0001
0000
,  // measure 42
0001
0000
1000
0000
0001
0000
1000
0001
1000
0000
0001
0000
0100
0000
0100
0000
,  // measure 43
0000
0110
0010
1000
0002
0013
0100
0110
,  // measure 44
0000
0100
1000
0001
0100
1000
0100
0110
,  // measure 45
0000
0000
1001
0000
0001
0201
0000
0010
,  // measure 46
0310
0000
0000
0000
1000
0001
1000
0100
0010
0000
0001
0000
0001
0000
2000
0000
,  // measure 47
0000
3000
0000
0110
0000
1001
0000
1000
,  // measure 48
0002
0000
0000
0000
0010
0000
0013
0100
1000
0000
0010
0000
0100
0000
0002
0000
,  // measure 49
0000
0003
0110
0000
1001
0000
0000
0001
,  // measure 50
2000
0000
0000
0000
3010
0000
0100
0001
0010
0000
0100
0000
2000
0000
0002
0000
,  // measure 51
0000
3003
0000
0110
0000
1001
0000
1000
,  // measure 52
0020
0000
0000
0000
0130
0000
0001
1000
0001
0000
0100
0000
1000
0000
0200
0000
,  // measure 53
0020
0330
0000
0000
0000
0000
0000
0000
0000
0000
0000
0000
1000
0000
0000
0000
0010
0000
0000
0000
0100
0000
0010
0000
0000
0000
0000
0000
1000
0000
0000
0000
,  // measure 54
0001
0000
0010
0100
1000
0000
0110
0000
0000
1001
0000
0000
0011
0000
0100
1000
,  // measure 55
0001
1001
0000
0000
0000
0000
2000
0000
,  // measure 56
0000
3100
0010
0002
,  // measure 57
0000
0103
0010
2000
,  // measure 58
0000
3010
0100
0002
,  // measure 59
0000
0000
0013
0000
0100
0000
1000
0010
,  // measure 60
1000
0000
0001
0010
0001
0000
1000
0100
,  // measure 61
1000
0000
0001
0100
0001
0000
1000
0100
,  // measure 62
0010
0001
1000
0010
0100
0001
1000
0100
,  // measure 63
0010
0001
1000
0000
0000
0000
1100
0000
,  // measure 64
0000
0101
0000
0000
1100
0000
0000
0000
,  // measure 65
0100
1001
0100
1010
,  // measure 66
0000
0011
0000
0000
0110
0000
2002
0000
,  // measure 67
0000
0000
3003
0000
;
