#TITLE:DDD;
#SUBTITLE:;
#ARTIST:はがね;
#TITLETRANSLIT:;
#SUBTITLETRANSLIT:;
#ARTISTTRANSLIT:;
#GENRE:;
#CREDIT:NOWHERE Dance Club;
#MUSIC:DDD.ogg;
#BANNER:DDD-bn.png;
#BACKGROUND:DDD-bg.png;
#CDTITLE:cdtitle.png;
#SAMPLESTART:28.066;
#SAMPLELENGTH:27.826;
#SELECTABLE:YES;
#OFFSET:-0.240;
#BPMS:0.000=138.000;
#STOPS:;
#BGCHANGES:-0.552=DDD.avi=0.000=0=0=1,
99999.000=-nosongbg-=1.000=0=0=0=StretchNoLoop====
;
#FGCHANGES:;

//--------------- dance-single - NOWHERE Dance Club ----------------
#NOTES:
     dance-single:
     NOWHERE Dance Club:
     Medium:
     13:
     0,0,0,0,0:
0000
0000
0000
0000
,
0000
0000
0000
0000
,
0000
0000
0000
0000
,
0000
0000
0000
0000
,
1000
0100
0000
0100
0010
0000
0000
0001
0000
0000
0100
0000
0010
0000
1000
0000
,
0010
1000
0000
1000
0100
0000
0000
1000
0000
0000
0010
0000
0100
0000
0001
0000
,
0010
0001
0000
0001
0100
0000
0000
0001
0000
0000
0010
0000
0100
0000
1000
0000
,
0001
1000
0000
1000
0010
0000
0000
1000
0000
0000
0100
0000
0010
0000
0001
0000
,
0100
0000
0010
0000
1000
0010
0000
2020
3030
0000
0000
0000
0000
0000
0000
0000
,
1000
0000
0100
0000
0010
0001
0000
0022
0033
0000
0001
0000
0100
0000
0001
0000
,
0010
0000
0100
0010
0000
0001
1000
0001
0000
0100
0010
0000
1000
0010
1000
0000
,
0100
0010
0000
0001
1000
0000
0100
0010
0000
0000
0022
0000
0000
0000
0033
0000
,
0010
0000
0001
0000
0100
0001
0000
0010
0000
0000
0001
0100
0010
0000
1000
0000
,
0100
0000
1000
0000
0010
1000
0000
0100
0000
0010
0001
0000
0010
0000
0001
0000
,
0100
0000
0010
0000
0100
0010
0000
1000
0000
0100
0010
0001
0010
0000
0001
0000
,
1000
0000
0010
0000
1000
0100
0000
1000
0000
0000
2010
0000
0000
0000
0000
0000
,
3001
0000
1000
0000
0001
0000
0001
0000
0100
0000
0000
0010
0000
0000
1000
0000
,
1000
0000
0000
0100
0000
0000
0010
0000
0010
0000
0000
0001
0000
0000
0100
0000
,
0010
0000
0000
0100
0000
0000
0010
1000
0010
0100
0000
0000
0010
0000
1000
0000
,
0100
0000
0000
0010
0000
0000
0001
0000
0100
0000
0000
0010
0000
0000
1000
0000
,
0001
0000
1000
0000
0010
0000
1000
0010
0000
0000
1000
0000
0100
0010
0000
0001
,
0000
0000
0100
0000
0010
1000
0000
0001
0000
0000
0010
0000
0000
0001
0000
1000
,
0000
0000
0010
0000
0000
1000
0001
0100
0001
1000
0000
0000
0100
0000
0010
0000
,
0001
0100
0000
0100
0010
0000
0010
1000
0000
1000
0100
0000
0010
0000
0010
0000
,
0001
0000
0100
0000
0010
1000
0000
1010
0000
1010
0000
1000
0100
0000
0000
1000
,
0000
0010
0000
1000
0001
0000
0000
1001
0000
1001
0000
0001
0100
0020
0000
0000
,
1030
0000
0010
0000
1000
0100
0000
0010
0000
0001
0000
1001
0000
0000
0001
1000
,
0001
0000
0010
1000
0000
0010
0001
0000
0000
1000
0100
0010
0002
0000
0000
0000
,
1003
0000
0010
0000
0100
0001
0000
0100
0000
0101
0000
0000
1001
0000
0001
0100
,
0000
0010
1000
0000
1010
0000
1000
0100
0000
1100
0000
0000
0000
1002
0000
0000
,
1003
0000
0010
0000
1000
0100
0000
0010
0000
0001
0000
0011
0000
0000
0001
0000
,
1000
0000
0001
0000
0100
0010
0000
1000
0001
0000
0001
4000
0000
0000
0000
0000
,
3001
0000
0100
0000
0010
0000
0010
0000
1000
0000
0000
0010
0000
0000
1000
0000
,
0100
0000
0000
0100
0000
0000
0010
0000
0001
0000
0000
0010
0000
0000
0001
0000
,
0010
0000
0000
0010
0000
0000
0001
0100
0010
0000
0000
0000
1000
0000
0002
0000
,
1000
0000
0000
0013
0000
0000
2000
0000
0010
0000
0000
3001
0000
0000
0001
0000
,
1000
0000
2000
0000
3002
0000
0023
0000
2030
0000
0000
3020
0000
0000
0032
0000
,
0203
0000
0000
2300
0000
0000
3200
0000
0000
0301
0000
0000
0001
1000
0000
0000
,
0100
0000
0010
0000
0001
0000
0100
0000
0010
0000
1000
0000
0100
0000
0010
0001
,
0100
0000
0010
1000
0100
0000
0010
0001
0100
0010
1000
0020
0000
0000
0000
0000
,
1030
0000
0010
0000
1000
0000
1000
0000
0010
0000
0000
0100
0000
0000
0001
0000
,
0001
0000
0000
0010
0000
0000
0100
0000
0100
0000
0000
1000
0000
0000
0010
0000
,
0100
0000
0000
0010
0000
0000
0100
0001
0100
0010
0000
0000
0100
0000
0001
0000
,
0010
0000
0000
0100
0000
0000
1000
0000
0010
0000
0000
0100
0000
0000
0001
0000
,
2000
0000
0000
0000
0000
0000
3100
1000
0200
0000
0000
0000
0000
0000
0310
0001
,
0010
0000
0010
0001
0000
0001
0100
0020
0000
0000
1030
0000
0010
1000
0000
0000
,
0200
0000
0000
0320
0000
0000
0032
0000
0000
0000
0000
0000
0000
0000
0013
0000
,
1000
0010
0001
0010
1000
0010
0001
2000
,
0002
0000
0000
0000
0000
0000
0000
3003
,
1000
0000
1000
0000
0010
1000
0000
0001
0000
0000
0100
0000
0010
0000
1000
0000
,
0001
0000
0010
0001
0000
0010
0000
0001
0000
0000
0100
0010
1000
0000
0010
0000
,
1000
0010
0000
1000
0100
0000
1000
0001
0000
0000
2001
0000
0000
0000
0000
0000
,
3010
0000
1000
0000
0100
1000
0000
0010
0000
0000
1000
0100
0010
0000
0001
0000
,
0100
0000
0001
0000
0010
0001
0000
0100
0000
0010
1000
0000
0010
0000
1000
0000
,
0100
0000
0010
0000
0100
0010
0000
0001
0000
0100
0010
1000
0010
0000
1000
0000
,
0001
0000
0010
0000
0001
0100
0000
0001
0000
0000
1000
0000
0100
0000
0010
0001
,
0000
0000
0001
0000
0100
0000
0010
1000
0000
0000
1000
0000
0100
0000
0010
0001
;

//--------------- dance-single - NOWHERE Dance Club ----------------
#NOTES:
     dance-single:
     NOWHERE Dance Club:
     Hard:
     15:
     0,0,0,0,0:
0000
0000
0000
0000
,
0000
0000
0000
0000
,
0000
0000
0000
0000
,
0000
0000
0000
0000
,
1000
0100
0000
1000
0010
0000
0100
0010
0000
1000
0010
1000
0010
0100
0001
1000
,
0010
1000
0000
0100
0010
0000
0001
0010
0000
0001
1000
0000
0001
0100
0010
1000
,
0100
0010
0000
0001
0100
0000
0001
0010
0000
0100
0010
0000
0001
0010
0100
0010
,
0001
0100
0000
0010
1000
0000
0010
0100
0000
0010
1000
0000
0001
0010
0000
0001
,
0100
0000
0000
0000
0010
0000
0000
0000
1000
0000
0100
0000
0000
0000
0040
0030
0000
0000
0000
0000
0000
0000
0000
0000
0000
0000
0000
0000
0000
0000
0000
0000
,
0010
0000
0001
0000
0100
0010
0000
1000
0000
0100
0010
0001
0010
0100
1000
0001
,
0010
0000
0001
0010
0000
0001
0100
0010
0000
0100
0010
1000
0010
1000
0100
0010
,
0001
0010
0000
0100
1000
0000
0100
1000
0000
0000
2002
0000
0000
3003
0000
0000
,
0001
0000
0100
0000
0001
0010
0000
0001
0000
0000
0001
0100
0010
0000
1000
0000
,
0010
0000
0000
0000
1000
0000
0000
0000
0100
0000
0010
0000
0000
0000
0100
0000
0000
0000
1000
0100
1000
0000
0000
0000
0100
0000
0010
0000
0001
0000
0000
0000
,
0010
0000
0001
0000
1000
0100
0000
1000
0000
0001
0010
0100
1000
0000
0001
0000
,
0100
0000
0000
0000
0010
0000
0000
0000
1000
0000
0010
0000
0000
0000
1000
0000
0000
0000
0001
1000
0002
0000
0000
0000
0000
0000
0000
0000
0000
0000
0000
0000
,
0000
0000
1003
0000
0010
0000
0001
0000
0010
1000
0000
0001
0000
0000
0010
0000
,
1000
0000
0000
0010
0000
0000
0001
0000
0100
0010
0000
1000
0000
0000
0010
0000
,
1000
0000
0000
0100
0000
0010
0001
0100
0010
1000
0000
0001
1000
0000
0001
0000
,
0100
0000
0000
0001
0000
0000
0010
0000
0100
0000
0010
0001
0000
0000
1000
0000
,
0001
0000
1000
0000
0100
0000
0010
0002
0000
0000
0103
0000
1000
0100
0000
0002
,
0000
0000
1003
0000
0000
0100
0000
0020
0000
0000
0031
0000
0010
0000
0000
1000
,
0000
0000
0010
0000
0000
0001
0100
0010
1000
0001
0000
0000
1000
0000
0001
0000
,
0100
0010
0000
1000
0100
0000
0010
0001
0000
1000
0001
0000
0100
0001
0100
0000
,
0001
0000
0010
0000
0001
0010
0000
0011
0000
1001
0000
0001
0100
0000
0000
0010
,
0000
1010
0000
1000
0100
0000
0010
0001
0000
0010
0000
0001
0100
0020
0000
1030
,
0001
0000
0010
0000
0001
0100
0000
0201
0000
0010
0000
0301
0000
0100
0010
1000
,
0020
0000
0000
1030
0000
0010
1000
0000
0100
0010
0001
0010
0002
0000
0000
0000
,
0103
0000
0010
0000
0100
0000
0010
0000
1000
0000
0100
0000
0010
0000
0001
0000
0000
0000
0011
0000
0000
0000
0001
0000
1000
0000
0000
0000
1000
0010
1000
0000
,
0000
0000
0001
1000
0001
0000
0000
0000
0011
0000
0000
0000
0010
0001
0010
0000
0000
0000
0001
0000
0000
0000
1000
0000
0000
0000
0002
0000
0000
0000
0000
0000
,
1003
0010
0100
0010
1000
0100
0010
0001
0000
0011
0000
1001
0000
0000
1000
0000
,
0010
0000
0001
0000
0010
1000
0000
0010
1000
0000
0100
0010
0001
0010
0100
1000
,
0002
0000
0000
0000
1000
0000
0000
0000
0010
0000
0000
1000
0000
0000
0000
0000
,
0100
0000
0000
1000
0000
0000
0000
0000
1003
0000
0000
0100
0000
0000
0010
0000
,
0020
0000
0000
0031
0000
0000
0100
0010
1000
0000
0000
0000
0010
0000
1000
0000
,
2000
0000
0000
0010
0000
0000
0000
0000
0001
0000
0000
0010
0000
0000
3001
0000
,
0002
0000
0023
0000
0032
0000
2003
0000
3020
0000
0000
2030
0000
3100
0010
0001
,
2000
0000
0000
3020
0000
0000
0032
0000
0000
0023
0000
0000
1000
1030
0000
0000
,
0001
0100
0010
1000
0100
0010
0001
0010
,
0001
0100
0010
1000
0010
0100
0001
0100
0010
1000
0100
0020
0000
0000
0000
0000
,
0031
0000
0100
0000
0010
0000
1000
0000
0001
0000
0001
1000
0000
0000
0100
0000
,
0001
0000
0000
0100
0000
0000
1000
0000
0100
0000
0100
0010
0000
0000
0001
0000
,
1000
0000
0000
0010
0000
0000
0001
0000
0010
1000
0000
0000
0010
0000
1000
0000
,
0010
0000
0000
1000
0000
0000
0100
0000
0010
0000
0000
0001
0000
0000
1000
0000
,
1002
0000
0000
0000
0000
0000
1003
0100
2000
0000
0000
0000
0000
0000
3100
0010
,
0001
0010
0001
0100
0010
1000
0100
0020
0000
0000
0031
0000
0100
0010
0000
0000
,
1010
0000
0000
1001
0000
0000
0202
0000
0000
0000
0000
0000
0303
0000
0001
0100
,
0010
0000
1000
0100
0010
0000
0001
0100
0010
0000
1000
0010
1000
0000
0001
0010
,
0002
0000
0000
0000
,
1003
0000
0100
0000
0010
0001
0000
0010
0000
0001
0010
0100
1000
0100
0010
0001
,
1000
0000
0010
1000
0000
0100
0010
0001
0000
0100
0001
0100
0010
1000
0010
1000
,
0100
0000
0010
0000
0000
0000
0001
0000
0010
0000
0000
0000
0001
0000
0100
0000
0000
0000
0010
1000
0020
0000
0000
0000
0000
0000
0000
0000
0000
0000
0000
0000
,
1030
0000
0100
0000
1000
0001
0000
1001
0000
0000
0001
0000
0100
0000
0000
0000
,
0010
0000
0000
0000
1000
0000
0000
0000
0100
0000
0010
0000
0000
0000
0011
0000
0000
0000
0001
0010
0001
0000
0000
0000
0100
0000
0000
0000
0010
0000
0000
0000
,
1000
0000
0010
0000
0100
0001
0000
0101
0000
0001
0100
0010
1000
0100
0010
0001
,
1000
0000
0000
0000
0010
0000
0000
0000
1000
0000
0100
0000
0000
0000
1100
0000
0000
0000
1000
0100
1000
0000
0100
0000
0010
0000
0001
0000
0100
0000
0010
0000
,
0000
0000
1000
0000
0100
0000
0010
0000
0001
0000
1000
0000
0100
0000
0010
0000
0000
0000
0001
1000
0001
0000
1000
0000
0100
0000
0010
0000
0001
0000
1000
0000
;
