#TITLE:DARK LEGACY;
#SUBTITLE:;
#ARTIST:BaSTeT;
#TITLETRANSLIT:;
#SUBTITLETRANSLIT:;
#ARTISTTRANSLIT:;
#GENRE:;
#CREDIT:;
#BANNER:DARK LEGACY.png;
#BACKGROUND:DARK LEGACY-bg.png;
#LYRICSPATH:;
#CDTITLE:CDtitle.png;
#MUSIC:DARK LEGACY.ogg;
#OFFSET:0.334000;
#SAMPLESTART:89.670998;
#SAMPLELENGTH:20.179001;
#SELECTABLE:YES;
#BPMS:0.000000=196.000000
;
#STOPS:
;
#BGCHANGES:6.000=DARK LEGACY.mp4=1.000=1=0=1===CrossFade==,
99999=-nosongbg-=1.000=0=0=0 // don't automatically add -songbackground-
;
#KEYSOUNDS:;
#ATTACKS:;

//---------------dance-single - ----------------
#NOTES:
     dance-single:
     Pandemonium X:
     Beginner:
     5:
     0.158132,0.270726,0.146053,0.138366,0.000000,144.000000,125.000000,19.000000,18.000000,0.000000,0.000000,0.158132,0.270726,0.146053,0.138366,0.000000,144.000000,125.000000,19.000000,18.000000,0.000000,0.000000:
0000
0000
0000
0000
,
0000
0000
0000
0000
,
0000
0000
0000
0000
,
0000
0000
0000
0000
,
0000
0000
0000
0000
,
0000
0000
0000
0000
,
0000
0000
0000
0000
,
0000
0000
0000
0000
,
0000
0000
0000
0000
,
0000
0000
0000
0000
,
0001
0000
0001
0000
,
0001
0000
0000
0000
,
1000
0000
1000
0000
,
1000
0000
0000
0000
,
0010
0000
0010
0000
,
0010
0000
0000
0000
,
0100
0000
0100
0000
,
0100
0000
0000
0000
,
1001
0000
0000
0000
,
0000
0000
0000
0000
,
1010
0000
0000
0000
,
0000
0000
0000
0000
,
0101
0000
0000
0000
,
0000
0000
0000
0000
,
0011
0000
0000
0000
,
0000
0000
0200
0000
,
1300
0000
0001
0000
,
0100
0000
0000
0000
,
0001
0000
1000
0000
,
0100
0000
0010
0000
,
0100
0000
0000
0000
,
2000
0000
0000
0000
,
3001
0000
0000
0000
,
0100
0000
0010
0000
,
0200
0300
0001
1001
,
1000
0000
0001
0000
,
1000
0000
0100
0000
,
0010
0000
0001
0000
,
0100
0010
0000
0000
,
0200
0000
0000
0301
,
1000
0001
0000
0000
,
1000
0000
0100
0000
,
1000
0000
0100
0000
,
0010
0000
0001
0000
,
1000
0000
0100
0000
,
0010
0000
0001
0000
,
0001
0000
0010
0000
,
0100
0000
1000
0000
,
0001
0000
0010
0000
,
0100
0000
1000
0000
,
0001
0000
0100
0000
,
0010
0000
1000
0000
,
0001
0000
1000
0000
,
0100
0000
0010
0000
,
0100
0000
1000
0000
,
0001
0000
0100
0000
,
0001
0000
1000
0000
,
0100
0000
0010
0001
,
1001
0000
0000
0000
,
0000
0000
0000
0000
,
0000
0000
0000
0000
,
0000
0000
0000
0000
,
0110
0000
0000
0000
,
0000
0000
0000
0000
,
0000
0000
0000
0000
,
0000
0000
0000
0000
,
2020
0000
0000
0000
,
0000
0000
0000
3030
,
0202
0000
0000
0000
,
0000
0000
0000
0303
,
0022
0000
0000
0000
,
0000
0000
0000
0033
,
2200
0000
0000
0000
,
0000
3300
0001
1000
,
0010
0000
1000
0000
,
0200
0000
0300
0000
,
0010
0000
0001
0000
,
2000
0000
3000
0000
,
0001
0000
1000
0000
,
0010
0000
1000
0000
,
0100
0000
0000
0010
,
0010
0000
0100
0000
,
1000
0000
0100
0000
,
0020
0000
0030
0000
,
0001
0000
1000
0000
,
0002
0000
0003
0000
,
0100
0000
0010
0000
,
1000
0000
0001
1000
,
0001
0002
0000
0000
,
0000
0000
0103
0000
,
1010
0000
0000
1100
,
0000
0000
0110
0000
,
0000
0011
0000
0000
,
0101
0000
0000
1010
,
0000
0000
1001
0000
,
0000
0110
0000
0000
,
0000
0000
0000
0000
,
0002
0000
0000
0000
,
0000
0000
0000
0000
,
0000
0000
1000
0000
,
0000
0000
0000
0000
0000
0003
0000
0000
;

//---------------dance-single - ----------------
#NOTES:
     dance-single:
     Pandemonium X:
     Easy:
     9:
     0.322853,0.464102,0.038435,0.269045,0.000000,294.000000,289.000000,5.000000,35.000000,0.000000,0.000000,0.322853,0.464102,0.038435,0.269045,0.000000,294.000000,289.000000,5.000000,35.000000,0.000000,0.000000:
0000
0000
0000
0000
,
0000
0000
0000
0000
,
0000
0000
0000
0000
,
0000
0000
0000
0000
,
0000
0000
0000
0000
,
0000
0000
0000
0000
,
0000
0000
0000
0000
,
0000
0000
0000
0000
,
0000
0000
0000
0000
,
0000
0000
0000
0000
,
1000
0000
1000
0000
,
0001
0000
0001
0000
,
0100
0000
0100
0000
,
0010
0000
0010
0000
,
0100
0000
0001
0000
,
0100
0000
0010
0000
,
1000
0000
0001
0000
,
0010
0000
0001
0000
,
1000
0010
0000
1000
0010
0000
1000
0010
,
0000
1000
0010
0000
0000
0000
0000
0000
,
0100
0001
0000
0100
0001
0000
0100
0001
,
0000
0100
0001
0000
0000
0000
0000
0000
,
1000
0001
0000
1000
0001
0000
1000
0001
,
0000
1000
0001
0000
1000
0000
0000
0000
,
0010
0100
0000
0010
0100
0000
0010
0100
,
0000
0010
0100
0000
2002
0000
0000
3003
,
0001
0000
1000
0000
,
0100
0000
1000
0100
,
1000
0001
0100
0001
,
0010
1000
0010
0001
,
0100
0010
0000
0100
,
0001
0020
0000
0130
,
0010
0001
0000
0000
,
1000
0001
0100
0010
,
2010
0000
3000
0000
0001
0010
0100
1000
,
0200
0300
0100
1000
,
0100
0010
0100
1000
,
0002
0103
1000
0100
,
0010
1000
0000
0010
,
1000
0002
0000
1003
,
0010
1000
0000
0000
,
0010
0100
0001
1000
,
1001
0000
0000
1000
0000
0000
0100
0000
,
0000
1000
0200
0320
,
0031
0000
0000
0010
0000
0000
0001
0000
,
0000
0100
0020
2030
,
3001
0000
0000
1000
0000
0000
0100
0000
,
0000
0010
0200
2300
,
3001
0000
0000
0100
0000
0000
0010
0000
,
0000
0100
0001
0010
,
0100
0000
0000
0010
0000
0000
0001
0000
,
0000
0000
1000
0000
0001
0010
0100
1000
,
0001
0000
0000
1000
0000
0000
0100
0000
,
0000
0000
1000
0000
1000
0100
0010
0001
,
1000
0000
0000
0100
0000
0000
0010
0000
,
0000
0000
0001
0000
0001
0010
0100
1000
,
0100
0000
0000
0010
0000
0000
0001
0000
,
0000
0000
1000
0000
0001
0100
0010
2000
,
0002
0000
0000
0000
,
0000
0000
0000
0000
,
0000
0000
0000
0000
,
3003
0000
0000
0000
,
1100
0000
0100
0000
,
0010
0000
0001
0000
,
0002
0000
0000
0000
,
0000
0000
0003
0000
,
1000
0100
0010
0001
,
1000
0100
0010
0001
,
1000
0100
0010
0001
,
1000
0100
0010
0100
,
1000
0100
0010
0001
,
1000
0100
0010
0001
,
0010
0100
0010
0001
,
0010
0000
0100
0000
1000
0000
0001
1000
,
0020
0031
0020
1030
,
0200
0000
0310
0100
,
1000
0100
0001
0100
,
2000
0000
3100
0010
,
0200
1300
0010
0200
,
0301
0020
0130
2000
,
3002
0000
0100
0000
0103
0000
0010
1000
,
0200
0000
0310
0001
,
2000
3100
0020
0130
,
2000
0000
3001
0100
,
0002
0013
0200
0310
,
0002
0000
1003
0001
,
0100
0001
0010
0100
,
0020
0000
0030
0001
0010
0100
1000
0100
,
0010
0002
0000
0000
0000
0000
0000
0000
,
0000
0000
1003
0000
,
0001
1000
0000
0001
1000
0000
0001
1000
,
0000
0001
1000
0000
1000
0001
0000
1000
,
0001
0000
1000
0001
0000
1000
0001
0000
,
0001
1000
0000
0001
1000
0000
0001
1000
,
0000
0001
1000
0000
1000
0001
0000
1000
,
0001
0000
1000
0001
0000
1000
0001
0000
,
0000
0000
0000
0000
,
1002
0000
0000
0000
,
0000
0000
0000
0000
,
0000
0000
1000
0000
,
0000
0000
0000
0000
0000
0003
0000
0000
;

//---------------dance-single - ----------------
#NOTES:
     dance-single:
     Pandemonium X:
     Medium:
     13:
     0.528206,0.928204,0.269045,0.407410,0.038435,481.000000,446.000000,35.000000,53.000000,0.000000,0.000000,0.528206,0.928204,0.269045,0.407410,0.038435,481.000000,446.000000,35.000000,53.000000,0.000000,0.000000:
0000
0000
0000
0000
,
0000
0000
0000
0000
,
0000
0000
0000
0000
,
0000
0000
0000
0000
,
0000
0000
0000
0000
,
0000
0000
0000
0000
,
0000
0000
0000
0000
,
0000
0000
0000
0000
,
0000
0000
0000
0000
,
0000
0000
0000
0000
,
1000
0010
0100
0001
,
1000
0100
0010
0001
0010
0100
1000
0001
,
1000
0001
0100
0010
,
1000
0100
0010
0001
0010
0100
1000
0001
,
1000
0100
0010
0001
,
0001
0010
0100
1000
0100
0010
0001
1000
,
0001
0100
0010
1000
,
0001
0010
0100
1000
0100
0001
0100
1000
,
0001
0100
0000
0010
1000
0000
0001
0100
,
0000
0010
1000
0000
0000
0000
0000
0000
,
1000
0100
0000
0010
0001
0000
1000
0100
,
0000
0010
0001
0000
0000
0000
0000
0000
,
0001
0001
0000
1000
1000
0000
0010
0010
,
0000
0100
0100
0000
0020
0000
0130
0000
,
0001
0001
0000
1000
1000
0000
0010
0010
,
0000
0000
0100
0000
0100
0000
0010
1000
0200
0000
0000
0000
0300
0000
0000
0000
,
1001
0000
0000
0000
0000
0000
0000
0001
0100
0000
0000
0000
0000
0000
0000
0100
,
0010
0000
0100
0001
,
1000
0000
0100
0000
1000
0100
0001
0000
,
0100
1000
0010
0001
,
0010
1000
0000
0002
,
2003
3200
0000
0310
,
0100
1000
0000
0000
,
0100
0000
1000
0000
0010
0100
0001
0000
,
2000
0000
0000
0000
0000
0000
0000
0000
3001
0100
0001
0100
0001
0000
0000
1000
,
0001
0000
0001
1000
,
0001
0000
0010
0000
0100
0000
1000
0100
,
0001
0000
0110
0000
0010
0000
0001
0100
,
1000
1100
0000
0200
,
0320
2030
0000
3001
,
1000
0100
0000
0000
,
0010
0100
1000
0001
,
1000
0100
0010
0001
1000
0100
0010
0001
,
0000
1000
0001
0100
0020
0000
1030
0000
,
0001
0010
0100
1000
0001
0010
0100
1000
,
0000
0001
1000
0010
0200
0000
0302
0000
,
1003
0100
0010
0001
1000
0100
0010
0001
,
0000
0010
0100
1000
0002
0000
1003
0000
,
0001
0010
0100
1000
0001
0010
0100
1000
,
0000
0100
0010
0001
2000
0000
3020
0000
,
0130
0100
0001
0100
0100
0010
1000
1000
,
0000
0100
1000
0001
0020
0000
0230
0000
,
0310
0010
0100
1000
1000
0010
0100
0100
,
0000
0001
0100
0010
2000
0000
3020
0000
,
0130
0100
0001
0010
0010
0100
1000
1000
,
0000
0001
1000
0010
0100
1000
0100
0001
,
1000
1000
0001
0010
0010
0100
1000
1000
,
0000
0000
0000
0100
0000
0000
0010
0000
0000
0001
0000
0000
0010
0000
0100
0000
1000
0000
0010
0000
0100
0000
0001
0000
,
2000
0000
0000
0000
,
0000
0000
0000
0000
,
0000
0000
0000
0000
,
3001
0000
0100
0000
,
1020
0000
0230
0000
,
0302
0000
2003
0000
,
3200
0000
0000
0000
,
0320
0000
0032
0000
,
1003
0100
1000
0000
0100
0010
0100
0000
,
0010
0001
0010
0000
0001
0010
0100
1000
,
0001
0100
0001
0000
0100
0010
0100
0000
,
0010
1000
0010
0000
1000
0010
0100
0001
,
0100
0010
1000
0010
0000
0100
0001
0100
,
0000
0010
1000
0010
0100
0001
0010
0100
,
0010
0100
1000
0100
0000
0100
0010
0100
,
0000
0010
0100
0010
0001
0000
0010
0100
,
2000
3100
0200
0310
,
2001
0000
0010
0000
3001
0000
1000
0001
,
0200
0310
2000
3001
,
0201
0000
0010
0000
0301
0000
0010
0100
,
2000
3100
0020
0031
,
0200
0302
2003
3002
,
0203
0000
0010
0000
0001
0000
0310
1000
,
0200
0000
0010
0000
2300
0000
3010
0100
,
0002
0013
2000
3010
,
1002
0000
0100
0000
0013
0000
0100
1000
,
0020
0031
0020
1030
,
1002
0000
0100
0000
1003
0000
0100
0010
,
0021
0130
2100
3010
,
2001
0000
0000
3001
0010
0100
1000
0100
,
0020
0002
0000
0000
0000
0000
0033
0000
,
1000
0001
0100
0010
,
1000
1100
0000
0100
0110
0000
0010
0011
,
0000
0001
0101
0000
0100
0110
0000
0010
,
1010
0000
1000
1001
0000
0001
1001
0000
,
0101
0101
0000
1010
1010
0000
0101
0101
,
0000
1010
1010
0000
1100
1100
0000
0011
,
0011
0000
1100
1100
0000
0011
0011
0000
,
0000
0000
0000
0000
,
1000
0100
0010
0001
1000
0000
0001
0010
,
0100
1000
0000
1000
0100
0010
0001
0000
,
0001
0010
0100
1000
0000
1000
0100
0010
,
0001
0000
0001
0010
0100
1000
0000
0000
;

//---------------dance-single - ----------------
#NOTES:
     dance-single:
     Pandemonium X:
     Hard:
     17:
     0.777484,1.044229,0.730264,0.207549,0.426628,708.000000,613.000000,95.000000,27.000000,0.000000,0.000000,0.777484,1.044229,0.730264,0.207549,0.426628,708.000000,613.000000,95.000000,27.000000,0.000000,0.000000:
// measure 0
0000
0000
0000
0000
,  // measure 1
0000
0000
0000
0000
,  // measure 2
0000
0000
0000
0000
,  // measure 3
0000
0000
0000
0000
,  // measure 4
0000
0000
0000
0000
,  // measure 5
0000
0000
0000
0000
,  // measure 6
0000
0000
0000
0000
,  // measure 7
0000
0000
0000
0000
,  // measure 8
0000
0000
0000
0000
,  // measure 9
0000
0000
0000
0000
,  // measure 10
1000
0100
0010
0001
0010
0100
0010
0001
,  // measure 11
1000
0100
0010
0001
0010
0100
0010
0001
,  // measure 12
1000
0100
0010
0001
0010
0100
0010
0001
,  // measure 13
1000
0100
0010
0001
1000
0100
0010
0001
,  // measure 14
0001
0010
0100
1000
0001
0010
0100
0010
,  // measure 15
0001
0010
0100
1000
0001
0010
0100
0010
,  // measure 16
0001
0010
0100
1000
0001
0010
0100
0010
,  // measure 17
0001
0000
0100
0000
0010
0000
1000
0000
0001
0010
0001
0100
0010
1000
0010
0100
,  // measure 18
0001
0101
0000
1010
1100
0000
0110
0011
,  // measure 19
0000
1001
1010
1000
0100
0100
0010
0010
,  // measure 20
0011
1100
0000
1010
0110
0000
0101
0011
,  // measure 21
0000
0000
1001
0000
0101
0000
0001
0010
0001
0010
0100
1000
0001
0010
0100
1000
,  // measure 22
0001
1001
0000
1010
0110
0000
0101
0011
,  // measure 23
0000
0000
0000
0110
0000
0000
1100
0000
0000
0000
0000
0000
0001
0000
1000
0000
0001
0000
0010
0000
0100
0000
1000
0000
,  // measure 24
0001
1010
0000
0101
0011
0000
0110
1100
,  // measure 25
0000
0000
0110
0000
0011
0000
2000
3200
0320
0000
0000
0000
0030
0000
0000
0000
,  // measure 26
1001
0000
0000
0000
1000
0000
0000
0010
1000
0000
0000
0000
0100
0000
0000
0010
,  // measure 27
0100
0010
0011
0110
,  // measure 28
1100
0000
0000
0000
1010
0000
0000
0000
0101
0000
0001
1000
0100
0000
0000
0000
,  // measure 29
1100
0110
0011
0110
,  // measure 30
0011
0101
0000
0001
,  // measure 31
0200
2000
3300
1100
,  // measure 32
0101
1001
0000
0000
,  // measure 33
0101
0000
0000
0000
1010
0000
0000
0000
0001
0100
0010
0000
1000
0000
0000
0000
,  // measure 34
0200
0000
0000
0000
0320
0000
0000
0000
0031
1000
0001
1000
0001
0000
0000
1000
,  // measure 35
0100
0010
0001
1000
0100
0000
0000
0000
0110
0000
0000
0000
1100
0000
0000
0000
,  // measure 36
1010
0000
0000
0000
0110
0000
0000
0000
1010
0000
0000
0000
0101
0000
0100
0010
,  // measure 37
1000
0100
0010
0001
1000
0000
0000
0000
0011
0000
0000
0000
0110
0000
0010
0100
,  // measure 38
1000
1002
0000
1000
,  // measure 39
0203
0020
0330
0110
,  // measure 40
0101
1001
0000
0000
,  // measure 41
0101
0000
0000
0000
0110
0000
0000
0000
0010
1000
0100
0000
0011
0000
0000
0000
,  // measure 42
1000
0100
0010
0001
1000
0100
0010
0001
,  // measure 43
0000
0000
1000
0000
0001
0000
0100
0000
0010
1000
0010
0100
0001
0100
0001
0010
,  // measure 44
0001
0010
0100
1000
0001
0010
0100
1000
,  // measure 45
0000
0000
0100
0000
0010
0000
0100
0000
1000
0001
0100
0010
1000
0010
1000
0100
,  // measure 46
1000
0100
0010
0001
1000
0100
0010
0001
,  // measure 47
0000
0000
0000
0010
0000
0000
0100
0000
0000
1000
0000
0000
0001
0000
0100
0000
0010
0000
0100
0000
0001
0000
1000
0000
,  // measure 48
0001
0010
0100
1000
0001
0010
0100
1100
,  // measure 49
0000
0000
1100
0000
0100
0000
0010
0000
0001
0100
0010
0100
0001
1000
0100
0010
,  // measure 50
0001
0001
0010
0100
0100
1000
0010
0100
,  // measure 51
0000
0000
0100
0000
1000
0000
0100
0000
0001
0010
0001
0010
0100
1000
0001
1000
,  // measure 52
0010
0010
1000
0001
0001
0010
0100
1000
,  // measure 53
0000
0000
1000
0000
0100
0000
0010
0000
0001
1000
0001
1000
0010
0100
0001
1000
,  // measure 54
0100
0100
1000
0010
0010
0100
0001
1000
,  // measure 55
0000
0000
0010
0000
0001
0000
0010
0000
1000
0010
0100
0010
1000
0001
0010
0100
,  // measure 56
1000
1000
0001
0010
0010
0100
0010
0001
,  // measure 57
0000
0000
0000
0010
0000
0000
0100
0000
0000
1000
0000
0000
0001
0000
0100
0000
1000
0000
0100
0000
0001
0000
0010
0000
,  // measure 58
0200
0000
0000
0000
,  // measure 59
0000
0000
0000
0000
,  // measure 60
0000
0000
0000
0000
,  // measure 61
1000
0000
0000
0000
0000
0000
0000
0000
0300
0000
0000
0000
0010
0001
0100
0010
,  // measure 62
2000
0000
0020
0030
,  // measure 63
0200
0300
0020
0030
,  // measure 64
0002
0000
0000
3003
,  // measure 65
1000
0000
0010
0000
,  // measure 66
1000
0100
0010
0001
1000
0100
0010
0001
,  // measure 67
1000
0100
0010
0001
1000
0100
0010
0001
,  // measure 68
1000
0100
0010
0001
1000
0100
0010
0001
,  // measure 69
1000
0100
0010
0001
0010
1000
0010
0001
,  // measure 70
0001
0010
0100
1000
0001
0010
0100
1000
,  // measure 71
0001
0010
0100
1000
0001
0010
1000
0010
,  // measure 72
0001
0100
0010
1000
0001
0100
0010
1000
,  // measure 73
0001
1000
0001
1000
0010
0100
0010
1000
0001
0000
0000
0000
1000
0100
0010
0001
,  // measure 74
1000
0000
0000
0010
1000
0000
0000
1000
0100
0000
0000
0100
0010
0000
0000
0010
,  // measure 75
0200
0000
1000
0000
1300
1000
0100
0010
,  // measure 76
0001
0000
0000
0010
0001
0000
0000
0010
0100
0000
0000
0010
0001
0000
0000
0100
,  // measure 77
0020
0000
0000
0000
1000
0000
0000
0000
0230
0000
0000
0000
0301
0100
0010
1000
,  // measure 78
0100
0000
0000
0100
0010
0000
0000
0010
0001
0000
0000
0001
1000
0000
0000
1000
,  // measure 79
0010
0000
0000
0010
0100
0000
0000
0100
0001
0000
0000
0001
1000
0000
0000
1000
,  // measure 80
0002
0000
0000
0000
1000
0000
0000
0000
1003
0000
0000
0000
1000
0100
0010
0100
,  // measure 81
1000
0000
0100
0000
0010
0000
0001
0000
0010
0000
0100
0000
0010
0001
0100
0010
,  // measure 82
0100
0000
0000
0010
1000
0000
0000
0001
0100
0000
0000
0001
0010
0000
0000
0010
,  // measure 83
0200
0000
1000
0000
0310
0010
0001
0100
,  // measure 84
0001
0000
0000
1000
0010
0000
0000
0010
0100
0000
0000
0100
0001
0000
0000
0010
,  // measure 85
0200
0000
0000
0000
1000
0000
0000
0000
0320
0000
0000
0000
0031
0100
0001
1000
,  // measure 86
0010
0000
0000
0100
0001
0000
0000
0001
0010
0000
0000
0010
0100
0000
0000
0100
,  // measure 87
2000
0000
0000
0000
0000
3000
0001
1000
0001
0100
0001
0010
0001
0100
0010
1000
,  // measure 88
0100
1000
0020
0000
0100
0000
0000
0000
1000
0000
0000
0000
0100
0000
0000
0000
,  // measure 89
1000
0230
0320
1030
,  // measure 90
1001
0101
0000
1001
1100
0000
1001
0101
,  // measure 91
0000
1001
1100
0000
1001
0011
0000
1001
,  // measure 92
1010
0000
1001
0011
0000
1001
1010
0000
,  // measure 93
0101
1010
0000
1100
0011
0000
1100
0011
,  // measure 94
0000
0101
1010
0000
1001
0110
0000
0110
,  // measure 95
1001
0000
0110
1001
0000
0110
1001
0000
,  // measure 96
0000
0000
0000
0000
,  // measure 97
1000
0100
0010
0001
1000
0000
0001
0010
,  // measure 98
0100
1000
0001
1000
0100
0010
0001
1000
,  // measure 99
0001
0010
0100
1000
0001
1000
0100
0010
,  // measure 100
0001
1000
0001
0010
0100
1000
0000
0000
;

//---------------dance-double - ----------------
#NOTES:
     dance-double:
     Pandemonium X:
     Easy:
     8:
     0.294302,0.464102,0.153740,0.146053,0.000000,268.000000,248.000000,20.000000,19.000000,0.000000,0.000000,0.294302,0.464102,0.153740,0.146053,0.000000,268.000000,248.000000,20.000000,19.000000,0.000000,0.000000:
00000000
00000000
00000000
00000000
,
00000000
00000000
00000000
00000000
,
00000000
00000000
00000000
00000000
,
00000000
00000000
00000000
00000000
,
00000000
00000000
00000000
00000000
,
00000000
00000000
00000000
00000000
,
00000000
00000000
00000000
00000000
,
00000000
00000000
00000000
00000000
,
00000000
00000000
00000000
00000000
,
00000000
00000000
00000000
00000000
,
10000000
00000000
00010000
00000000
,
00100000
00000000
00001000
00000000
,
00010000
00000000
00000100
00000000
,
00001000
00000000
00000010
00000000
,
00000100
00000000
00000001
00000000
,
00000010
00000000
00000100
00000000
,
00001000
00000000
00000100
00000000
,
00010000
00000000
00001000
00000000
,
01000000
00000000
00000000
00100000
00000000
00000000
10000000
00000000
,
00000000
00010000
00000000
00000000
00000000
00000000
00000000
00000000
,
00100000
00000000
00000000
00001000
00000000
00000000
00010000
00000000
,
00000000
00000100
00000000
00000000
00000000
00000000
00000000
00000000
,
00001000
00000000
00000000
00000010
00000000
00000000
00000100
00000000
,
00000000
00000001
00000000
00000000
00000010
00000000
00000000
00000000
,
00000100
00000000
00000000
00001000
00000000
00000000
00000100
00000000
,
00000000
00010000
00000000
00000000
00012000
00000000
00000000
00000000
,
01003000
00000000
00100000
00000000
,
10000000
00000000
01000000
10000000
,
00100000
01000000
00010000
00100000
,
00001000
00010000
00000100
00001000
,
00000010
00000100
00000000
00000010
,
00000100
00000002
00000000
00001000
,
00001000
00001003
00000000
00000000
,
00000100
00010000
00001000
01000000
,
00100000
00000000
00000000
00000000
10000000
00010000
10000000
00000000
,
02000000
03000000
00100000
00001000
,
00010000
00000100
00001000
00000010
,
00000200
00000301
00000010
00000100
,
00000010
00000001
00000000
00001000
,
00000010
00002000
00000000
00000001
,
00000001
00003001
00000000
00000000
,
00001000
00000100
00010000
00001000
,
01000000
00000000
00000000
00100000
00000000
00000000
10000000
00000000
,
00000000
01000000
00100000
00010000
00000000
00000000
00000000
00000000
,
00100000
00000000
00000000
00001000
00000000
00000000
00010000
00000000
,
00000000
00000100
00001000
00000010
00000000
00000000
00000000
00000000
,
00000100
00000000
00000000
00000001
00000000
00000000
00000010
00000000
,
00000000
00000001
00000100
00000010
00000000
00000000
00000000
00000000
,
00000100
00000000
00000000
00000010
00000000
00000000
00001000
00000000
,
00000000
00000100
00010000
00001000
00000000
00000000
00000000
00000000
,
00010000
00000000
00000000
00001000
00000000
00000000
01000000
00000000
,
00000000
00100000
10000000
01000000
00000000
00000000
00000000
00000000
,
00100000
00000000
00000000
00001000
00000000
00000000
00010000
00000000
,
00000000
00000100
00001000
00000010
00000000
00000000
00000000
00000000
,
00000100
00000000
00000000
00000001
00000000
00000000
00000010
00000000
,
00000000
00000100
00000010
00000001
00000000
00000000
00000000
00000000
,
00000010
00000000
00000000
00000001
00000000
00000000
00000100
00000000
,
00000000
00000010
00010000
00001000
00010000
00000000
00001000
00000000
,
00022000
00000000
00000000
00000000
,
00000000
00000000
00000000
00000000
,
00000000
00000000
00000000
00000000
,
00033000
00000000
00000000
00000000
00000000
00000000
00000000
00001000
,
00012000
00000000
00010000
00000000
,
00010000
00000000
00010000
00000000
,
00020000
00000000
00000000
00003000
,
00031000
00000000
00000000
00000000
,
00001000
01000000
00100000
10000000
,
01000000
00010000
01000000
00100000
,
00010000
00100000
00001000
00010000
,
00000100
00001000
00000010
00000001
,
00000010
00000100
00000001
00000010
,
00000100
00001000
00000100
00010000
,
00001000
01000000
00100000
10000000
,
00010000
00000000
00100000
00000000
01000000
00000000
10000000
01000000
,
00100000
01000000
10000000
00010000
,
00200000
00000000
00301000
00010000
,
00000100
00001000
00000010
00000100
,
00000020
00000000
00000130
00000001
,
00000010
00001000
00000010
00000001
,
00000100
00000010
00010000
00001000
,
02000000
00000000
00000000
00000000
00000000
00000000
03100000
10000000
,
02000000
00000000
03200000
00000000
,
01300000
10000000
00010000
00100000
,
00002000
00000000
00013000
00000100
,
00001000
00000010
00000100
00000001
,
00000020
00000000
00000130
00000010
,
00000001
00000100
00000010
00001000
,
00000100
00000000
00000000
00000100
00010000
00001000
01000000
00100000
,
10000000
02000000
00000000
00000000
00000000
00000000
00000000
00000000
,
00000000
00000000
03100000
00000000
,
10010000
00000000
00000000
00110000
00000000
00000000
00011000
00000000
,
00000000
00001100
00000000
00000000
00000110
00000000
00000000
00000011
,
00000000
00000000
00000101
00000000
00000000
00001010
00000000
00000000
,
00001100
00000000
00000000
00010100
00000000
00000000
00011000
00000000
,
00000000
01001000
00000000
00000000
01100000
00000000
00000000
10010000
,
00000000
00000000
00110000
00000000
00000000
00011000
00000000
00000000
,
00000000
00000000
00000000
00000000
,
00022000
00000000
00000000
00000000
,
00000000
00000000
00000000
00000000
,
00000000
00000000
00030000
00000000
,
00000000
00000000
00000000
00000000
00000000
00003000
00000000
00000000
;

//---------------dance-double - ----------------
#NOTES:
     dance-double:
     Pandemonium X:
     Medium:
     12:
     0.430471,0.618802,0.107618,0.261358,0.019217,392.000000,378.000000,14.000000,34.000000,0.000000,0.000000,0.430471,0.618802,0.107618,0.261358,0.019217,392.000000,378.000000,14.000000,34.000000,0.000000,0.000000:
00000000
00000000
00000000
00000000
,
00000000
00000000
00000000
00000000
,
00000000
00000000
00000000
00000000
,
00000000
00000000
00000000
00000000
,
00000000
00000000
00000000
00000000
,
00000000
00000000
00000000
00000000
,
00000000
00000000
00000000
00000000
,
00000000
00000000
00000000
00000000
,
00000000
00000000
00000000
00000000
,
00000000
00000000
00000000
00000000
,
10000000
01000000
00100000
00010000
,
00100000
00001000
00010000
00000100
,
00001000
00000100
00000010
00000001
,
00000100
00000010
00001000
00000100
,
00010000
00001000
01000000
00100000
,
10000000
01000000
00010000
01000000
,
10000000
00010000
00100000
00001000
,
00010000
00000000
00000100
00000000
00001000
00000010
00000100
00000001
,
00000010
00000100
00000000
00000100
00001000
00000000
00000100
00010000
,
00000000
00010000
00001000
00000000
00000000
00000000
00000000
00000000
,
00001000
01000000
00000000
01000000
00100000
00000000
00100000
10000000
,
00000000
10000000
00010000
00000000
00000000
00000000
00000000
00000000
,
10000000
01000000
00000000
00100000
00010000
00000000
00100000
00001000
,
00000000
00010000
00000100
00000000
00002000
00000000
00000000
00000000
,
00003010
00001000
00000000
00000001
00001000
00000000
00000100
00000010
,
00000000
00000100
00001000
00000000
00022000
00000000
00000000
00033000
,
00101000
00000000
00000000
00000000
00000000
00000000
00000000
00001000
01000000
00000000
00000000
00000000
00000000
00000000
00000000
01000000
,
00100000
00000000
10000000
00010000
,
00100000
00000000
10000000
00000000
00100000
00010000
01000000
00000000
,
10000000
01000000
00010000
00100000
,
00001000
00010000
00000000
00000100
,
00001000
00000020
00000000
00000130
,
00001000
00000100
00000000
00000000
,
00001000
00000000
00000010
00000000
00000100
00000001
00001000
00000000
,
00001001
00000000
00000000
00000000
00000000
00000000
00000000
00000000
00000001
00000100
00000001
00000100
00000001
00000000
00000000
00001000
,
00000010
00010000
00001000
00000000
00010000
00000000
00001000
00000000
,
01000000
00000000
00100000
00000000
10000000
00000000
01000000
00100000
,
00010000
00100000
01000000
00000000
10000000
00000000
01000000
00100000
,
00010000
00011000
00000000
00010000
,
00000010
00000200
00000000
00000310
,
00001000
00000100
00000000
00000000
,
00010000
00000000
00001000
00000000
01000000
00100000
10000000
00000000
,
10000000
01000000
00100000
00010000
10000000
01000000
00100000
00010000
,
00000000
00100000
00001000
00010000
00000200
00000000
00002300
00000000
,
00003001
00000010
00000100
00001000
00000001
00000010
00000100
00001000
,
00000000
00000100
00010000
00001000
00200000
00310000
00020000
01030000
,
00010000
00100000
01000000
10000000
00010000
00100000
01000000
10000000
,
00000000
01000000
10000000
00100000
02000000
00000000
03200000
00000000
,
10300000
01000000
00100000
00010000
10000000
01000000
00100000
00010000
,
00000000
00100000
00001000
00010000
00000200
00000000
00002300
00000000
,
00003010
00000010
00000100
00000001
00000001
00001000
00000100
00000100
,
00000000
00001000
00000100
00010000
00002000
00000000
02003000
00000000
,
03100000
00100000
10000000
00010000
00010000
00100000
01000000
01000000
,
00000000
00100000
00001000
00010000
00000200
00000000
00002300
00000000
,
00003010
00000010
00001000
00000001
00000001
00000010
00000100
00000100
,
00000000
00000010
00000001
00001000
00000200
00000000
00020300
00000000
,
00031000
00001000
01000000
00100000
00100000
10000000
01000000
00100000
,
00000000
01000000
10000000
00010000
02000000
00000000
03002000
00000000
,
00020000
00000000
00000000
00000000
,
00000000
00000000
00000000
00000000
,
00033000
00000000
00000000
00000000
,
00001000
00000000
00000000
00000000
,
01100000
00000000
10000000
00000000
,
01000000
00000000
00100000
00000000
,
00010000
00000000
00000000
00000000
,
00100000
00000000
00000000
00000000
,
00100000
00001000
00010000
00000100
,
00001000
00000010
00000100
00000001
,
00000010
00000100
00001000
00000100
,
00010000
00000000
00001000
00000000
00100000
00001000
00010000
00001000
,
00100000
00010000
00100000
00010000
,
01000000
00000000
00100000
00000000
10000000
01000000
00100000
00010000
,
00100000
10000000
00100000
00010000
,
01000000
00000000
00100000
00000000
10000000
00000000
01000000
00100000
,
00010000
00100000
00001000
00010000
,
00000200
00000000
00000000
00000000
00001300
00000010
00000100
00000001
,
00000010
00000100
00000010
00000001
,
00002000
00000000
00000000
00000000
00003010
00000000
00000100
00000001
,
00001000
00000100
00010000
00001000
,
01000000
00100000
10000000
00010000
,
00200000
00000000
00000000
00000000
00000000
00000000
01300000
00100000
,
00020000
00000000
02030000
00000000
,
03100000
10000000
00010000
00100000
,
00002000
00000000
00000000
00000000
00013000
00000100
00001000
00000010
,
00000100
00000001
00000010
00000100
,
00002000
00000000
00000000
00000000
00003100
00000000
00010000
00001000
,
00100000
00001000
01000000
00100000
,
20000000
00000000
00000000
31000000
00010000
01000000
10000000
00100000
,
01000000
00002000
00000000
00000000
00000000
00000000
00000000
00000000
,
00000000
00000000
00013000
00000000
,
00010000
00000100
00000000
00001000
00000010
00000000
00000100
00000001
,
00000000
00000010
00000100
00000000
00000100
00001100
00000000
00000100
,
00010100
00000000
00010000
00011000
00000000
00001000
01001000
00000000
,
01000000
00100000
00000000
10000000
01000000
00000000
00100000
00010000
,
00000000
00100000
01000000
00000000
00100000
00110000
00000000
00100000
,
00101000
00000000
00010000
00011000
00000000
00001000
00011000
00000000
,
00000000
00000000
00000000
00000000
,
00200020
00000000
00000000
00000000
,
00000000
00000000
00000000
00000000
,
00000030
00000000
00020000
00000000
,
00000000
00000000
00000000
00000000
00000000
00330000
00000000
00000000
;

//---------------dance-double - ----------------
#NOTES:
     dance-double:
     Pandemonium X:
     Hard:
     16:
     0.722577,1.044229,0.515028,0.169114,0.422784,658.000000,591.000000,67.000000,22.000000,0.000000,0.000000,0.722577,1.044229,0.515028,0.169114,0.422784,658.000000,591.000000,67.000000,22.000000,0.000000,0.000000:
00000000
00000000
00000000
00000000
,
00000000
00000000
00000000
00000000
,
00000000
00000000
00000000
00000000
,
00000000
00000000
00000000
00000000
,
00000000
00000000
00000000
00000000
,
00000000
00000000
00000000
00000000
,
00000000
00000000
00000000
00000000
,
00000000
00000000
00000000
00000000
,
00000000
00000000
00000000
00000000
,
00000000
00000000
00000000
00000000
,
10000000
01000000
00100000
00010000
10000000
01000000
00100000
00010000
,
10000000
00100000
01000000
00010000
00100000
00001000
00010000
00000100
,
00001000
00000100
00000010
00000001
00001000
00000100
00000010
00000001
,
00001000
00000010
00010000
00001000
01000000
00100000
10000000
00010000
,
10000000
01000000
00100000
00010000
10000000
01000000
00100000
00010000
,
00100000
00001000
00010000
00000100
00001000
00000010
00000100
00000001
,
00001000
00000100
00000010
00000001
00001000
00000100
00000010
00000001
,
00000100
00000000
00000010
00000000
00010000
00000000
00001000
00000000
00010000
00001000
00100000
00001000
00010000
00000010
00010000
00001000
,
01000000
01001000
00000000
01010000
01100000
00000000
10100000
11000000
,
00000000
11000000
10010000
20000000
32000000
03020000
02030000
23000000
,
30100000
01010000
00000000
01010000
01001000
00000000
00011000
00010100
,
00000000
00000000
00001100
00000000
00000011
00000000
00001000
00000001
00001000
00000100
00000010
00000001
00001000
00000100
00000010
00000001
,
00000100
00000101
00000000
00001010
00001100
00000000
00001100
00010100
,
00000000
00000000
00000000
00011000
00000000
00000000
01001000
00000000
00000000
00000000
00000000
00000000
01000000
00000000
00100000
00000000
10000000
00000000
00100000
00000000
01000000
00000000
00100000
00000000
,
10000000
10100000
00000000
11000000
01100000
00000000
00110000
00101000
,
00000000
00001100
00011000
00000000
00200020
00000000
00300030
00000000
,
00110000
00000000
00000000
00000000
00000000
00000000
00000000
10000000
01000000
00000000
00000000
00000000
00000000
00000000
00000000
01000000
,
00100000
00000000
01000000
00100000
,
00001000
00000000
00000000
00000000
00000010
00000000
00000000
00000000
00000001
00000000
00000100
00000010
00001000
00000000
00000000
00000000
,
00000010
00001000
00010000
01000000
,
00100000
10000000
00000000
01000000
,
00100000
00020000
00000000
00130000
,
00010000
00100000
00000000
00000000
,
00001000
00000000
00000000
00000000
00010000
00000000
00000000
00000000
00000100
00001000
00000010
00000000
00000110
00000000
00000000
00000000
,
00000102
00000000
00000003
00000000
00000002
00000000
00000000
00000000
00000013
00000100
00000010
00000100
00000010
00000000
00000000
00000100
,
00001000
00000100
00000010
00000001
00001000
00000000
00000000
00000000
00000100
00000000
00000000
00000000
00010000
00000000
00000000
00000000
,
00000100
00000000
00000000
00000000
00001000
00000000
00000000
00000000
00000100
00000000
00000000
00000000
00010000
00000000
00001000
01000000
,
00010000
00100000
01000000
10000000
00010000
00000000
00000000
00000000
10000000
00000000
00000000
00000000
00010000
00000000
10000000
01000000
,
00100000
11000000
00000000
10000000
,
00100000
02000000
00000000
03100000
,
10000000
00010000
00000000
00000000
,
00100000
00000000
00000000
00000000
00001000
00000000
00000000
00000000
00010000
00000100
00001000
00000000
00001001
00000000
00000000
00000000
,
00001000
00000100
00000010
00000001
00001000
00000100
00000010
00000001
,
00000000
00000000
00000100
00000000
00000010
00000000
00010000
00000000
00001000
01000000
00100000
01000000
00001000
01000000
00100000
10000000
,
00010000
00100000
01000000
10000000
00010000
00100000
01000000
10000000
,
00000000
00000000
01000000
00000000
10000000
00000000
00010000
00000000
00100000
00001000
00010000
00001000
00100000
00001000
00010000
00000100
,
00001000
00000100
00000010
00000001
00001000
00000100
00000010
00000001
,
00000000
00000000
00000100
00000000
00000010
00000000
00010000
00000000
00001000
01000000
00001000
00010000
00001000
01000000
00001000
01000000
,
00010000
00100000
01000000
10000000
01000000
00100000
00010000
10000000
,
00000000
00000000
00100000
00000000
01000000
00000000
00100000
00000000
10000000
01000000
00100000
00010000
00100000
00001000
00010000
00000100
,
00001000
00000100
00000010
00000001
00001000
00000100
00000010
00000001
,
00000000
00000000
00000100
00000000
00000010
00000000
00010000
00000000
00001000
00100000
00010000
01000000
00010000
00100000
01000000
00100000
,
00010000
00100000
01000000
10000000
00010000
00100000
01000000
10000000
,
00000000
00000000
01000000
00000000
10000000
00000000
00010000
00000000
00100000
00001000
00010000
00000100
00001000
00000010
00000100
00000001
,
00001000
00000100
00000010
00000001
00001000
00000100
00000010
00000001
,
00000000
00000000
00000010
00000000
00000001
00000000
00000100
00000000
00000010
00010000
00001000
00100000
00010000
01000000
00100000
10000000
,
00010000
00100000
01000000
10000000
00010000
00100000
01000000
10000000
,
00000000
00000000
00000000
01000000
00000000
00000000
10000000
00000000
00000000
00010000
00000000
00000000
00100000
00000000
00001000
00000000
00010000
00000000
00000100
00000000
00001000
00000000
00000010
00000000
,
00000200
00000000
00000000
00000000
,
00000000
00000000
00000000
00000000
,
00000000
00000000
00000000
00000000
,
00000010
00000000
00000000
00000000
00000000
00000000
00000300
00000000
00000000
00000100
00000010
00010000
,
00012000
00000000
00100000
00000000
,
00010000
00000000
00100000
00000000
,
02000000
00000000
00000000
00003000
,
03001000
00000000
00100000
00000000
,
00010000
00100000
01000000
10000000
00010000
00100000
01000000
10000000
,
00010000
00100000
01000000
10000000
01000000
00100000
00010000
00000010
,
00001000
00000100
00000010
00000001
00001000
00000100
00000010
00000001
,
00001000
00000100
00000010
00000001
00000010
00001000
00000010
00000001
,
00000001
00000010
00000100
00001000
00000001
00000010
00000100
00001000
,
00000001
00000010
00000100
00001000
00000010
00001000
00000100
00010000
,
00010000
00100000
01000000
10000000
00010000
00100000
01000000
10000000
,
00010000
01000000
00010000
01000000
00100000
10000000
00010000
00100000
01000000
00000000
00000000
00000000
10000000
01000000
00100000
00010000
,
10000000
00000000
00000000
00010000
10000000
00000000
00000000
10000000
00100000
00000000
00000000
00100000
01000000
00000000
00000000
01000000
,
00002000
00000000
00000000
00000000
00013000
00000100
00001000
00000100
,
00010000
00000000
00000000
00001000
00010000
00000000
00000000
00010000
00000100
00000000
00000000
00000100
00001000
00000000
00000000
00001000
,
00000020
00000000
00000000
00000000
00000000
00000000
00000000
00000000
00000130
00000000
00000000
00000000
00000010
00000100
00000010
00001000
,
00000001
00000000
00000000
00000001
00000010
00000000
00000000
00000010
00000100
00000000
00000000
00000100
00001000
00000000
00000000
00000100
,
00010000
00000000
00000000
00001000
01000000
00000000
00000000
01000000
00100000
00000000
00000000
00100000
10000000
00000000
00000000
10000000
,
00020000
00000000
00000000
00000000
00000000
00000000
00000000
00000000
00030000
00000000
00000000
00000000
10000000
01000000
00100000
00010000
,
20000000
00000000
00000000
00000000
00000000
00000000
00000000
00000000
30100000
00000000
00000000
00000000
10000000
01000000
00100000
00010000
,
00100000
00000000
00000000
00010000
00100000
00000000
00000000
00100000
00001000
00000000
00000000
00001000
00010000
00000000
00000000
00010000
,
00000200
00000000
00000000
00000000
00010300
00000100
00001000
00000010
,
00000100
00000000
00000000
00000001
00000010
00000000
00000000
00000010
00000100
00000000
00000000
00000100
00001000
00000000
00000000
00000100
,
00020000
00000000
00000000
00000000
00000000
00000000
00000000
00000000
00000100
00000000
00000000
00000000
00031000
00000100
00010000
00001000
,
01000000
00000000
00000000
01000000
00100000
00000000
00000000
00100000
10000000
00000000
00000000
10000000
00010000
00000000
00000000
00010000
,
10000000
00000000
00000000
00000000
00000000
01000000
00100000
00010000
00100000
01000000
10000000
00010000
00100000
00001000
00010000
00000100
,
00001000
00020000
00002000
00000000
00000000
00000000
00000000
00000000
00000000
00000000
00000000
00000000
00000000
00000000
00000000
00000000
,
00000000
00000000
00000000
00033000
,
00010100
00011000
00000000
00011000
00101000
00000000
00011000
00110000
,
00000000
01100000
11000000
00000000
00110000
00011000
00000000
00001100
,
00000110
00000000
00000011
00001100
00000000
00001100
00011000
00000000
,
00001010
00011000
00000000
00011000
00110000
00000000
00110000
00011000
,
00000000
01001000
00011000
00000000
00010100
00011000
00000000
01001000
,
00011000
00000000
00010100
00011000
00000000
00011000
00110000
00000000
,
00000000
00000000
00000000
00000000
,
10000000
01000000
00100000
00010000
10000000
00000000
01000000
00100000
,
00010000
00001000
00000100
00000010
00000001
00001000
00000001
00000000
,
00000100
00000010
00001000
00000001
00000010
00000100
00001000
00000100
,
00010000
00000000
00001000
00010000
00100000
01000000
00000000
00000000
;
