#TITLE:Cyber G;
#SUBTITLE:;
#ARTIST:Street;
#TITLETRANSLIT:;
#SUBTITLETRANSLIT:;
#ARTISTTRANSLIT:;
#GENRE:;
#CREDIT:;
#BANNER:Cyber G.png;
#BACKGROUND:Cyber G-bg.png;
#LYRICSPATH:;
#CDTITLE:;
#MUSIC:Cyber G.ogg;
#OFFSET:-0.024000;
#SAMPLESTART:86.694939;
#SAMPLELENGTH:15.000000;
#SELECTABLE:YES;
#BPMS:0.000000=155.000000
;
#STOPS:
;
#BGCHANGES:;
#KEYSOUNDS:;
#ATTACKS:;

//---------------dance-single - ----------------
#NOTES:
     dance-single:
     :
     Beginner:
     2:
     0.000000,0.000000,0.000000,0.000000,0.000000,0.000000,0.000000,0.000000,0.000000,0.000000,0.000000,0.000000,0.000000,0.000000,0.000000,0.000000,0.000000,0.000000,0.000000,0.000000,0.000000,0.000000:
0000
0000
0000
0000
,
0000
0000
0000
0000
,
0000
0000
0000
0000
,
0000
0000
0000
0000
,
1000
0000
0000
0000
,
0001
0000
0000
0000
,
0001
0000
0000
0000
,
1000
0000
0000
0000
,
0001
0000
0000
0000
,
0100
0000
0000
0000
,
0010
0000
0000
0000
,
1000
0000
0000
0000
,
1000
0000
0000
0000
,
0100
0000
0000
0000
,
0010
0000
0000
0000
,
0001
0000
0001
0000
,
1000
0000
0000
0000
,
0010
0000
0000
0000
,
1000
0000
0000
0000
,
0100
0000
0000
0000
,
1000
0000
0000
0000
,
0010
0000
0000
0000
,
1000
0000
0000
0000
,
0100
0000
1000
0000
,
0001
0000
0000
0000
,
0100
0000
0000
0000
,
0001
0000
0000
0000
,
0010
0000
0000
0000
,
0001
0000
0000
0000
,
0100
0000
0000
0000
,
0001
0000
0000
0000
,
0010
0000
0100
0000
,
1000
0000
0000
0000
,
0000
0000
0000
0000
,
0001
0000
0000
0000
,
0000
0000
0000
0000
,
0000
1000
0000
1000
,
0000
0001
0000
0001
,
0000
1000
0000
1000
,
0000
0001
0001
0000
,
0010
0000
0000
0000
,
0010
0000
0000
0000
,
0010
0000
0000
0000
,
0010
0000
0000
0010
,
0010
0000
0000
0000
,
0010
0000
0000
0000
,
0010
0000
0000
0000
,
0010
0000
0000
0010
,
0100
0000
0000
0000
,
1000
0000
0000
0000
,
0001
0000
0000
0000
,
0100
0000
0000
0100
,
0010
0000
0000
0000
,
1000
0000
0000
0000
,
0001
0000
0000
0000
,
0010
0000
0000
0010
,
0100
0000
0000
0000
,
1000
0000
0000
0000
,
0100
0000
0000
0000
,
0010
0000
0000
0010
,
0001
0000
0000
0000
,
0010
0000
0000
0000
,
0100
0000
0000
0000
,
1001
0000
0000
0001
,
0100
0000
0000
0000
,
0001
0000
0000
0000
,
0100
0000
0000
0000
,
0010
0000
0000
0000
,
1000
0000
0000
0000
,
0010
0000
0000
0000
,
0100
0000
0000
0000
,
1001
0000
0000
0000
,
1000
0000
1000
0000
,
0100
0000
1000
0000
,
0001
0000
0001
0000
,
0100
0000
0001
0000
,
0010
0000
0000
0000
,
0100
0000
0000
0000
,
0010
0000
0000
0000
,
0100
0000
0100
1000
;

//---------------dance-single - ----------------
#NOTES:
     dance-single:
     :
     Easy:
     7:
     0.000000,0.000000,0.000000,0.000000,0.000000,0.000000,0.000000,0.000000,0.000000,0.000000,0.000000,0.000000,0.000000,0.000000,0.000000,0.000000,0.000000,0.000000,0.000000,0.000000,0.000000,0.000000:
0000
0000
0000
0000
,
0000
0000
0000
0000
,
0000
0000
0000
0000
,
0000
0000
0000
0000
,
1000
0100
0000
1000
,
0001
0100
0000
0001
,
1000
0100
0000
0100
,
1000
0010
0001
0010
,
0110
0000
1000
1000
,
1001
0000
0001
0001
,
0011
0000
1100
0000
,
0110
0000
0010
0100
,
1000
1000
0001
0001
,
0100
0100
0010
0010
,
1000
0100
0010
0001
,
0200
0000
0000
0300
,
0001
0000
0100
0010
,
1000
0000
0100
0010
,
0001
0000
0010
0100
,
1000
0000
0010
0100
,
0001
0000
0010
0100
,
1000
0000
0010
0100
,
0001
0000
0100
0001
,
0010
0000
0100
1000
,
0010
0100
0020
0030
,
1000
0100
0001
0100
,
1000
0010
2000
3000
,
0001
0100
1000
0100
,
0010
1000
0002
0003
,
0010
0100
0010
0001
,
1000
0010
0200
0300
,
0010
1000
0001
1000
,
0200
0000
0300
0100
,
2000
0000
0000
3000
,
0002
0000
0003
0001
,
0020
0000
0000
0030
,
0001
0100
0001
0100
,
0010
1000
0010
1000
,
0100
1000
0100
1000
,
0001
0010
0002
0003
,
1000
0100
1000
0001
,
1000
0010
1000
0001
,
0100
0001
1000
0001
,
0010
0001
1000
0010
,
0100
0001
0100
0010
,
0100
1000
0100
0001
,
0010
0100
0010
1000
,
0010
0100
0010
0001
,
1000
1000
0100
0010
,
0001
0001
0010
0100
,
1000
1000
0010
0100
,
0001
0001
0100
0010
,
1000
1000
0001
0010
,
0100
0100
0010
0001
,
1000
1000
0001
0100
,
0010
0010
0020
0030
,
1000
0100
0000
0100
,
0010
0100
1000
0001
,
0100
0001
1000
0010
,
0200
0300
0100
0010
,
1001
0001
0000
0001
,
0100
1000
0100
0010
,
1000
0000
1000
0100
,
0001
0000
0100
0010
,
0002
0000
0000
0003
,
0100
0010
0100
0001
,
1000
0100
1000
0001
,
0020
0030
0100
0010
,
1001
1000
0000
1000
,
0100
0001
0100
0010
,
0001
0000
0001
0100
,
0010
0000
1000
0100
,
0010
0010
0100
1000
,
0100
0010
0002
0003
,
0100
0100
0001
0100
,
0010
1000
0020
0030
,
1000
0100
1000
0100
,
0010
0001
0010
0001
,
0100
0001
0100
0001
,
1000
0010
2000
3001
;

//---------------dance-single - ----------------
#NOTES:
     dance-single:
     :
     Medium:
     10:
     0.000000,0.000000,0.000000,0.000000,0.000000,0.000000,0.000000,0.000000,0.000000,0.000000,0.000000,0.000000,0.000000,0.000000,0.000000,0.000000,0.000000,0.000000,0.000000,0.000000,0.000000,0.000000:
0000
0000
0000
0000
,
0000
0000
0000
0000
,
0000
0000
0000
0000
,
0000
0000
0000
0000
,
2000
0100
0000
0100
,
3002
0100
0000
0100
,
2003
0010
0000
0010
,
3002
0010
1000
0013
,
1100
0001
0010
0001
,
0101
0010
1000
0010
,
0101
1000
1100
0001
,
1001
1000
0010
0100
,
0110
0001
0010
0100
,
0110
0100
1000
0010
,
0100
0001
1000
0100
,
0020
0000
0100
0130
,
1000
0001
0100
0010
,
1000
0000
0001
0000
0010
0100
0010
0000
,
0001
1000
0010
0100
,
0001
0000
1000
0000
0100
0010
0100
0000
,
1000
0001
1000
0010
,
0100
0000
0001
0000
0010
0001
0010
0000
,
0001
1000
0001
0010
,
0100
0000
1000
0000
0010
1000
0001
0100
,
0020
0130
0200
0310
,
0010
1000
0100
0010
,
0002
0013
2000
3100
,
1000
0000
0010
0000
0100
0001
1000
0100
,
0020
0130
0200
1300
,
0001
0000
0100
0000
0010
0000
1000
0001
,
0200
0301
0002
0013
,
0100
0010
0100
1001
,
2000
0000
3200
0000
0320
0000
0130
1000
,
0002
0203
0300
0001
,
0002
0000
0203
0000
0320
0000
0130
0001
,
2000
3200
0300
1000
,
0010
0000
0010
0000
0100
0001
1000
0000
,
0100
0000
0100
0000
0010
0001
1000
0000
,
0010
0100
0001
0000
0010
0100
1000
0000
,
0001
0000
1000
0000
0100
1000
0001
0010
,
0001
0000
1100
0000
0011
0000
0010
0001
,
1000
0000
0101
0000
1010
0000
0010
0100
,
0001
0000
0011
0000
1100
0000
0100
1000
,
0001
0000
1010
0000
0101
0000
0100
0010
,
1000
0000
1100
0000
0101
0000
0001
0100
,
0010
0000
1010
0000
0011
0000
0001
0010
,
0100
0000
1010
0000
1100
0000
1000
0001
,
0100
0011
0101
1001
,
1000
0100
0010
0000
0001
0010
0100
0000
,
1000
0010
0001
0100
,
1000
0010
0100
0000
0001
0100
0010
0000
,
1000
0100
0001
0010
,
1000
0001
0010
0000
0001
1000
0010
0000
,
1000
0010
0001
0100
,
1000
0001
0100
0000
0001
1000
0100
0000
,
1000
1100
0101
0110
,
1002
0100
2003
0100
,
3002
0000
0103
0000
0100
0010
1000
0000
,
0120
1000
0230
0001
,
0320
0000
1030
0000
1000
0001
0010
0100
,
2000
0100
3002
0010
,
2003
0000
3100
0000
0100
0010
0001
0000
,
2000
0000
0010
0000
3020
0000
0130
0001
,
1000
0100
1100
0011
,
1000
0100
0010
0000
0001
0100
0010
0000
,
1000
0001
0101
1010
,
1002
0010
2003
0010
,
3001
1100
0011
0110
,
0200
1000
0320
0001
,
0230
0000
1300
0000
1000
0001
0010
0000
,
0002
0000
0203
0000
0320
0000
1030
0001
,
2000
0000
0000
3000
,
0001
0100
0010
0100
,
0001
0010
0100
1000
,
1000
0010
0100
0010
,
1000
0001
0010
0100
,
1000
1000
0001
0001
,
0100
1010
1001
0101
,
0001
0001
1000
1000
,
0100
0000
1100
0000
1001
0000
0001
0010
;

//---------------dance-single - ----------------
#NOTES:
     dance-single:
     :
     Hard:
     13:
     0.609274,0.632023,0.118690,0.356069,0.320462,539.000000,524.000000,15.000000,45.000000,0.000000,0.000000,0.609274,0.632023,0.118690,0.356069,0.320462,539.000000,524.000000,15.000000,45.000000,0.000000,0.000000:
// measure 0
0000
0000
0000
0000
,  // measure 1
0000
0000
0000
0000
,  // measure 2
0000
0000
0000
0000
,  // measure 3
0000
0000
0000
0000
,  // measure 4
2000
0100
0000
0100
,  // measure 5
3002
0100
0000
0100
,  // measure 6
2003
0100
3002
0100
,  // measure 7
2003
0000
0000
0000
0010
0000
0000
0000
3002
0000
0010
0000
0000
0013
0000
0000
,  // measure 8
0210
1000
0320
0001
,  // measure 9
0230
2300
3020
0001
,  // measure 10
0230
0001
0320
1000
,  // measure 11
0230
0302
0023
1000
,  // measure 12
0031
1100
0010
0101
,  // measure 13
1000
0011
0100
1010
,  // measure 14
0001
0010
0100
0010
1000
0010
0001
1000
,  // measure 15
0020
0000
0000
0000
0000
0000
0000
0000
0130
0000
0010
0000
0100
0010
0000
0010
,  // measure 16
1000
0000
0001
0100
0000
0000
0010
1000
0000
0000
0001
0000
0100
0000
0000
0010
,  // measure 17
1000
0000
0010
0100
0000
0000
0001
0000
0010
0000
0100
0000
1000
0000
0000
1000
,  // measure 18
0001
0000
0100
0001
0000
0000
0010
0001
0000
0000
0001
0000
0010
0000
0100
0000
,  // measure 19
1000
0000
0100
0010
0000
0000
0100
1000
0100
0000
1000
0000
0001
0000
0100
0000
,  // measure 20
0001
0000
1000
0100
0000
0000
0100
0010
0000
0000
0100
0000
1000
0000
0001
0000
,  // measure 21
1000
0000
1000
0010
0000
0000
1000
0000
0001
0000
0100
0000
0001
0000
0000
0001
,  // measure 22
1000
0000
0001
0100
0000
0000
0100
0010
0000
0000
0100
0000
0001
0000
0010
0000
,  // measure 23
0100
0000
1000
0001
0000
0000
0000
0100
0001
0000
0001
0000
1000
0000
1000
0000
,  // measure 24
0200
0000
1000
0000
0000
1000
0000
0000
0320
0000
0001
0000
0000
0001
0000
0000
,  // measure 25
0130
0000
1000
0000
0100
0000
0010
0001
0000
0000
0001
0000
1000
0000
0010
0000
,  // measure 26
0100
0000
0001
0000
1000
0000
1000
0010
0000
0000
1000
0000
0001
0000
0100
0000
,  // measure 27
0001
0000
0010
0000
0100
0000
1000
0001
0000
0001
1000
0000
0010
0000
0100
0000
,  // measure 28
0001
0000
0010
0000
1000
0000
0010
0100
0000
0000
0100
0000
1000
0000
0010
0000
,  // measure 29
0100
0000
0010
0000
0001
0000
0001
0010
0000
0000
1000
0000
0001
0000
0010
0000
,  // measure 30
0100
1000
0010
1000
0001
0100
0001
0010
,  // measure 31
0001
0000
1000
0000
0100
0000
0010
0001
0000
1000
0010
0000
0100
0000
0010
0000
,  // measure 32
2000
0000
0100
0000
3001
0000
0001
0010
,  // measure 33
0100
0202
0300
2003
,  // measure 34
3002
0000
0010
0000
1003
0000
1000
0010
,  // measure 35
0100
2200
0300
3002
,  // measure 36
1003
0100
1000
0100
0010
0001
0010
0100
,  // measure 37
1000
0010
1000
0010
0100
0001
0100
0010
,  // measure 38
1000
0100
0010
0001
0100
0010
1000
0100
,  // measure 39
0020
0000
0000
0000
0000
0000
0000
0000
0130
0000
0010
0000
0100
0010
0000
0010
,  // measure 40
0001
0000
0000
1000
0100
0000
0010
0000
0001
0000
0000
1000
0100
0000
0010
0000
,  // measure 41
0001
0000
0000
0100
0001
0000
1000
0000
0010
0000
0100
0000
0001
1000
0000
1000
,  // measure 42
0010
0000
0000
1000
0001
0000
0010
0000
0100
0000
0000
1000
0001
0000
0010
0000
,  // measure 43
0100
0000
0000
0100
1000
0000
0001
0000
0100
0000
0010
0000
1000
0001
0000
0001
,  // measure 44
0010
0000
0000
0001
0100
0000
0010
0000
1000
0000
0000
1000
0010
0000
0100
0000
,  // measure 45
0001
0000
0000
0001
0100
0000
0010
0000
1000
0000
0100
0000
0010
0001
0000
0001
,  // measure 46
1000
0000
0000
0001
0010
0000
0100
0000
1000
0000
0000
0100
1000
0000
0001
0000
,  // measure 47
0010
0000
0000
0010
0100
0000
1000
0000
0001
0000
0010
0000
1000
0000
0010
0000
,  // measure 48
0001
0000
0000
1000
0010
0000
0100
0000
0010
0000
0000
1000
0100
0000
0010
0000
,  // measure 49
0100
0000
0000
1000
0001
0000
0100
0000
0001
0000
0010
0000
0100
0000
1000
0000
,  // measure 50
0001
0000
0000
0001
0010
0000
0100
0000
0010
0000
0000
0001
0100
0000
0010
0000
,  // measure 51
0100
0000
0000
0001
1000
0000
0010
0000
0100
0000
0001
0000
1000
0100
0000
1000
,  // measure 52
0001
0000
0000
0010
0100
0000
1000
0000
0100
0000
0000
1000
0001
0000
0010
0000
,  // measure 53
0001
0000
0000
0010
0100
0000
1000
0000
0001
0000
0100
0000
0001
0000
0001
0000
,  // measure 54
1000
0000
0000
0010
0100
0000
0001
0000
0100
0000
0000
0001
1000
0000
0010
0000
,  // measure 55
1000
0000
0000
0010
0100
0000
0001
0000
1000
0000
0010
0000
0001
0000
0010
0000
,  // measure 56
2000
0100
3002
0100
,  // measure 57
1003
0100
0010
0001
0100
0010
1000
0001
,  // measure 58
2000
0010
3002
0010
,  // measure 59
1003
0010
0100
0001
0010
0100
1000
0001
,  // measure 60
0010
2100
3001
0102
,  // measure 61
1003
0010
0100
0001
0010
1000
0010
0001
,  // measure 62
0100
2010
3001
0012
,  // measure 63
1003
0100
0001
0100
0010
0001
0100
0010
,  // measure 64
1000
0010
1000
0000
0000
1000
0000
0000
0001
0010
0001
0000
0000
0002
0000
0000
,  // measure 65
1003
0000
0010
0000
0100
0001
0000
0001
1000
0000
0100
0000
0010
0001
0000
0001
,  // measure 66
1000
0100
0011
0000
0001
0100
1010
0000
,  // measure 67
0001
0000
0010
0000
0100
1000
0000
1000
0010
0000
0100
0000
0001
0010
0000
0010
,  // measure 68
0100
1000
0001
0100
0001
1000
0100
0010
,  // measure 69
0001
0000
0010
0000
0100
0000
0100
1000
0001
0000
0100
0000
0010
0000
0010
1000
,  // measure 70
0001
0010
1100
0000
1000
0010
0101
0001
,  // measure 71
2000
0000
0000
0000
0000
0000
0000
0000
3001
0000
0000
0100
0001
0000
1000
0100
,  // measure 72
1000
0100
0010
0100
1000
0001
0100
0001
,  // measure 73
0010
0100
1000
0100
0001
0100
0010
0001
,  // measure 74
0100
0001
0100
0010
1000
0001
0100
0010
,  // measure 75
1000
0001
1000
0010
0001
0010
0100
0001
,  // measure 76
0020
0100
0032
0100
,  // measure 77
2003
0010
3200
0010
,  // measure 78
2300
0010
3002
0100
,  // measure 79
0023
0000
0000
0000
0130
0000
0000
0000
0100
1000
0001
0000
1000
0000
0010
0000
;

//---------------dance-single - ----------------
#NOTES:
     dance-single:
     :
     Challenge:
     16:
     0.000000,0.000000,0.000000,0.000000,0.000000,0.000000,0.000000,0.000000,0.000000,0.000000,0.000000,0.000000,0.000000,0.000000,0.000000,0.000000,0.000000,0.000000,0.000000,0.000000,0.000000,0.000000:
0000
0000
0000
0000
,
0000
0000
0000
0000
,
0000
0000
0000
0000
,
0000
0000
0000
0000
,
1000
0100
0010
0000
1000
0100
0010
0000
,
0001
0100
0010
0000
0001
0100
0010
0000
,
1000
0100
0010
0000
1000
0100
0010
0001
,
0010
0000
0000
0000
0010
0000
0000
0000
0001
0000
0011
0000
0000
0110
0000
0000
,
2001
0100
0010
3001
,
0102
0013
1100
0011
,
0201
0310
2010
3001
,
0012
0100
1000
0013
,
1001
1000
0100
1000
0010
0100
0001
0100
,
1000
0100
0001
0010
1000
0010
0100
1000
,
0001
0100
0010
1000
0100
0010
0001
1000
,
0020
0000
0000
0000
0030
0000
0000
0000
0100
0010
0100
0000
0100
0010
0000
0010
,
1000
0000
0001
0100
0000
0000
0010
0100
0000
0000
0100
0000
0001
0000
0001
1000
,
0010
0000
1000
0001
0000
0000
0001
0000
0010
0000
0100
0000
1000
0001
0000
1000
,
0100
0000
0010
0001
0000
0000
0010
0100
0000
0000
1000
0000
0001
0000
0100
0000
,
1000
0000
0100
0010
0000
0000
0100
0001
0100
0000
0100
0000
0110
0000
0001
0000
,
1000
0000
1000
0100
0000
0000
0010
0100
0000
0000
0100
0000
1000
0000
0001
0000
,
0100
0000
0100
0010
0000
0000
1000
0000
0001
0000
0100
0000
0001
0000
0001
1000
,
0100
0000
0010
0001
0000
0000
1000
0010
0000
0000
0100
0000
0001
0000
0010
0000
,
0100
0000
1000
0100
0000
0000
1000
0001
0100
0000
0100
0000
0001
1000
0001
0000
,
1000
0100
1000
0000
0100
1000
0000
1000
0001
0100
0001
0000
0100
0002
0000
0000
,
1003
0000
0100
0000
0010
0000
0010
0001
0100
0000
0010
0000
1000
0000
0010
0000
,
0100
0000
0001
0000
1000
0000
1000
0100
0010
0000
0001
0000
0100
0000
0100
0010
,
1000
0000
0010
0000
0100
0000
0001
1000
0000
1000
0001
0000
0010
0000
0100
0000
,
1000
0000
0010
0000
0001
0000
0010
0100
0010
0000
1000
0000
0100
0000
0010
0100
,
0010
0000
0001
0000
1000
0000
0001
0010
0000
0100
1000
0000
0001
0000
0100
0000
,
0010
0000
1000
0000
0001
0000
0001
0100
0010
0000
1000
0000
0100
0000
0100
1000
,
0010
0000
1000
0000
0100
0000
0100
1000
0000
0001
0100
0000
0010
0000
1000
0000
,
0002
0000
0100
0000
2003
0000
3001
0010
,
0100
0202
0300
0100
,
2003
0000
0010
0000
3001
0000
1000
0010
,
0100
2200
0300
3002
,
1003
0100
0000
1000
0000
0000
0100
1000
0001
0100
0000
0001
0000
0000
0100
0001
,
1000
0010
1000
0000
0010
1000
0000
0001
0000
0010
0001
0000
0010
0000
0001
0010
,
0100
1000
0000
0010
0000
0000
1000
0100
0010
0001
0000
0100
0000
0000
0001
0010
,
0100
0010
0100
0000
0010
0001
0000
0001
2000
0000
0000
0000
0000
0000
0000
0000
,
3010
0000
1000
0001
0100
0000
0001
1000
0010
0000
1000
0001
0100
0000
0001
1000
,
0010
0000
1000
0100
0010
0000
0001
0010
0100
0000
1000
0100
0010
0000
0001
0010
,
0100
0000
1000
0010
0100
0000
0010
1000
0001
0000
0001
0010
0100
0000
0010
0001
,
1000
0000
0001
0100
0010
0000
0100
0010
1000
0000
1000
0001
1000
0100
0000
0100
,
0010
0000
0001
1000
0010
0000
0100
0001
1000
0000
0001
0100
0010
0000
0100
0010
,
1000
0000
0001
1000
0100
0000
1000
0001
0010
0000
0001
0010
0100
0000
0010
0100
,
1000
0000
0001
0100
0010
0000
1000
0010
0100
0000
0001
0010
0100
0000
1000
0100
,
0010
0000
0100
1000
0001
0000
1000
0001
0100
0001
0000
1000
0010
0000
1000
0000
,
1001
0000
1000
0000
0010
0000
0100
0010
0100
0010
0000
1000
0000
0000
0010
1000
,
0001
0010
0001
0000
0010
0100
0000
0010
0000
0100
0010
0000
0001
0000
1000
0000
,
0100
1000
0000
0100
0000
0000
0100
0010
0100
1000
0000
0100
0000
0000
0100
1000
,
0001
0000
0100
0000
0010
0100
0000
0001
0000
0100
0010
0000
0010
0000
0100
0001
,
1000
0001
0000
0010
0000
0000
0001
1000
0010
1000
0000
0001
0000
0000
0010
0001
,
0100
0000
0001
0000
1000
0100
0000
1000
0000
0001
0100
0000
0001
0000
0001
0100
,
0010
1000
0000
0001
0000
0000
0010
0001
1000
0100
0000
1000
0000
0000
0001
0100
,
0010
0000
0010
0000
0100
0001
0000
1000
0000
0100
0010
0000
0010
0100
0010
0100
,
1000
0100
1000
0100
0010
0100
0010
0100
,
0011
0001
0010
0001
1001
0001
0011
0001
,
0101
0100
0001
0100
1010
0010
1000
0010
,
1001
1000
0001
1000
0110
0001
1001
0100
,
0110
0100
0001
0100
1000
0100
0001
0100
,
1001
0001
0010
0100
0110
0001
1001
1000
,
1010
0001
0100
0010
1000
0010
0100
0001
,
0011
0010
0100
1000
1100
0001
0011
0000
,
1000
0010
1000
0000
0010
1000
0000
1000
0001
0010
0001
0000
0010
0002
0000
0000
,
1003
0000
0010
0000
0100
0001
0000
0100
0010
0000
0100
0000
0010
1000
0000
0100
,
1000
0100
0011
0001
0100
0010
1010
1000
,
0001
0010
0001
0000
1000
0100
0000
1000
0010
1000
0010
0000
0100
0001
0000
0010
,
0001
0000
1000
0000
0001
0000
0100
0000
0001
0000
0010
0000
0100
1000
0000
1000
,
0010
0000
0010
0000
0100
0001
0000
0001
0010
0000
0010
0000
0100
1000
0001
1000
,
0001
0010
1100
1000
0010
0100
0101
0001
,
2000
0000
0000
0000
0000
0000
0000
0000
3001
0100
0001
1000
0100
1000
0001
0100
,
0010
0100
1000
0100
0001
0100
0010
1000
,
0100
0010
0100
0001
0100
1000
0010
0100
,
0001
0100
0010
0100
1000
0100
0001
0010
,
0100
1000
0100
0001
0100
0010
0100
1000
,
0020
0100
2030
0100
,
3002
0010
0203
0010
,
0302
0100
2003
0100
,
3020
0000
0000
0000
0130
0000
0000
0000
0100
0001
1000
0000
0001
0000
0001
0010
;
