#TITLE:Cyaegha;
#SUBTITLE:;
#ARTIST:USAO;
#TITLETRANSLIT:;
#SUBTITLETRANSLIT:;
#ARTISTTRANSLIT:;
#GENRE:;
#CREDIT:;
#MUSIC:Cyaegha.ogg;
#BANNER:Cyaegha.png;
#BACKGROUND:Cyaegha-bg.png;
#CDTITLE:cdtitle.png;
#SAMPLESTART:106.706;
#SAMPLELENGTH:9.600;
#SELECTABLE:YES;
#OFFSET:-0.206;
#BPMS:0.000=200.000;
#STOPS:;
#BGCHANGES:;
#FGCHANGES:;

//--------------- dance-single - Pilgrimsito ----------------
#NOTES:
     dance-single:
     Pilgrimsito:
     Medium:
     14:
     0,0,0,0,0:
0000
0000
0000
0000
,
0000
0000
0000
0000
,
0000
0000
0000
0000
,
0000
0000
0000
0000
,
0000
0000
0000
1002
,
0000
1000
0100
2003
,
0000
0001
0100
3002
,
0000
1000
0103
2002
,
0000
0000
3003
1001
,
0001
1000
0010
0010
1000
0001
0001
0000
,
1000
0001
0010
0010
0001
1000
1000
0000
,
0001
1000
0010
0010
1000
0001
0002
0000
,
2000
0000
3003
0000
0000
0000
1000
0100
,
1000
0100
0010
0100
0010
0100
0001
0100
,
0001
0100
0010
0100
0010
0100
1000
0001
,
1000
0001
0100
0010
0100
0010
1001
0000
,
0000
0000
0000
0000
0010
0010
2002
0000
,
3003
0000
0001
0010
0100
0100
1000
0010
,
0100
0100
0001
1000
0100
0010
0001
0100
,
0010
1000
0001
1000
0010
0010
1000
0001
,
0010
0010
0001
0100
0020
0030
2002
0000
,
3003
0000
1000
0001
0100
0001
0010
0001
,
1000
0001
0100
0001
0010
0100
1000
0010
,
0002
0003
0001
0010
2000
3000
1002
0000
,
0023
0000
0130
0010
0001
0100
0220
0000
,
0330
0000
0001
0100
0010
0010
1000
0100
,
0010
0010
0001
1000
0010
0100
0001
0010
,
0100
1000
0001
1000
0100
0100
1000
0001
,
0100
0100
0001
0010
0200
0300
2002
0000
,
3003
0000
1000
0001
0010
0001
0100
0001
,
1000
0001
0010
0001
0100
0010
1000
0100
,
0002
0003
0001
0100
2000
3000
0001
0100
,
0100
0010
2000
0000
0200
3300
2002
0000
,
3003
0000
1000
0010
2000
3000
2000
3000
,
1000
0100
1000
0001
0100
0100
0010
2000
,
0002
3003
0001
0010
0001
0010
0002
0003
,
0001
0100
0001
1000
0200
0300
2002
0000
,
3003
0000
0001
0010
0100
0010
0001
0100
,
0010
0100
0001
0010
0100
1000
0020
0230
,
0302
0003
0020
0230
2300
3000
1002
0000
,
0020
0030
2000
3000
0200
0303
2002
0000
,
3003
0000
0001
0010
0002
0003
0002
0003
,
0001
0100
0001
1000
0100
0100
0010
0002
,
2000
3003
1000
0010
1000
0010
2000
3000
,
1000
0100
1000
0001
0020
0030
0001
1000
,
0100
0000
0001
1000
0010
1000
0001
1000
,
0100
0000
0001
1000
0010
1000
0001
1000
,
0100
0000
0001
1000
0010
1000
0100
0000
,
0001
0100
0020
0000
0200
0330
1002
0000
,
0000
0000
0000
0000
,
0000
0000
0000
2003
,
3200
0302
0203
2300
,
3020
0032
0023
2030
,
0000
0000
0000
0000
,
0000
0000
0000
3002
,
0023
2030
3020
0032
,
0203
2300
3200
0302
,
0010
1000
0100
1000
,
0010
1000
0100
2003
,
3200
0302
0203
2300
,
3020
0032
0023
2030
,
0100
0001
0010
0001
,
0100
0001
0010
3002
,
0203
2300
3200
0302
,
0023
0000
2030
0000
3020
0030
0110
0000
,
0000
0110
0000
0000
0001
1000
1010
0000
,
0000
1010
0000
0000
1000
0001
0011
0000
,
0000
0011
0000
0000
0001
0100
0201
0000
,
0020
0000
0330
0000
0000
0000
0001
0010
,
0001
0010
0100
1000
0100
1000
0010
0100
,
0010
0100
0001
1000
0001
1000
0100
0010
,
0100
0010
0001
0100
0001
0100
0010
1000
,
0010
1000
0002
0000
0020
0033
1001
0000
,
0001
1000
0100
0100
1000
0001
0001
0000
,
1000
0001
0100
0100
0001
1000
1000
0000
,
0001
1000
0100
0100
1000
0001
0002
0000
,
2000
0000
0000
0000
3003
0000
1000
0010
,
1000
0010
0100
0010
0100
0010
0001
0010
,
0001
0010
0100
0010
0100
0010
1000
0001
,
1000
0001
0010
0100
0010
0100
1001
0000
,
0000
0000
0000
0000
0100
0100
1001
0000
,
1100
0110
0011
0101
,
0110
0000
1010
0000
1001
0000
0001
1000
,
0010
1000
0001
1000
0100
1000
0001
1000
,
0010
1000
0001
1000
0200
0300
0010
0010
,
0011
0110
1100
1010
,
0110
0000
0101
0000
1001
0000
1000
0001
,
0100
0001
1000
0001
0010
0001
1000
0001
,
0100
0001
1000
0001
0020
0000
0130
0000
,
1001
0000
1000
0001
1001
0000
0110
0000
,
0001
1000
1001
0000
1010
0000
1001
0000
,
0011
0000
0001
1000
0001
1000
1100
0000
,
1000
0001
0101
0000
0001
0010
0110
0000
,
1000
0010
0110
0000
0001
0010
0110
0000
,
1000
0010
0100
0001
0010
0100
1000
1000
,
0001
0000
0001
0000
1000
0000
1000
0000
0001
0000
0001
0000
0100
0000
0000
0100
,
0000
0100
0020
0000
0130
0000
1001
0000
,
0101
0011
1100
1010
,
1100
0011
0101
2000
,
3020
0032
0023
2030
,
3200
0302
0203
1300
,
1001
1010
0101
0011
,
0101
1010
1100
0002
,
0203
2300
3200
0302
,
0023
2030
3020
0031
,
1000
0010
0100
0010
1000
0010
0100
0001
,
0020
0000
0130
1000
0020
0000
1030
0100
,
0010
0100
1000
0100
0010
0100
1000
0010
,
0200
0000
0301
0010
0200
0000
1300
0000
,
0101
1000
0011
1000
,
0101
0000
1000
0000
0011
0000
1000
0010
,
0100
0000
0001
0000
0010
0000
0100
0000
1000
0000
0010
0000
0100
0000
0000
0010
,
0000
0100
0100
0000
0010
0000
2002
0000
,
0000
0000
0000
3003
;

//--------------- dance-single - Pilgrimsito ----------------
#NOTES:
     dance-single:
     Pilgrimsito:
     Hard:
     16:
     0,0,0,0,0:
0000
0000
0000
0000
,
0000
0000
0000
0000
,
0000
0000
0000
0000
,
0000
0000
0000
0000
,
0000
0000
0000
2001
,
0000
0100
0010
3002
,
0000
0100
0010
2003
,
0000
0100
3010
0220
,
0000
0000
0330
1001
,
1000
0000
0001
0000
1000
0100
1000
0000
0001
0000
1000
0010
1000
0000
0000
0000
,
0001
0000
1000
0000
0001
0100
0001
0000
1000
0000
0001
0010
0001
0000
0000
0000
,
1000
0000
0001
0000
1000
0100
1000
0000
0001
0000
1000
0010
2000
0000
0000
0000
,
0200
0000
3300
0000
MMMM
0000
0001
0100
,
0010
0100
1000
0100
0010
0100
0001
0010
,
0100
0010
1000
0010
0100
0010
0001
0001
,
1000
0000
1000
0000
0010
0100
0010
0100
0010
0100
0010
0100
0010
0000
0000
0000
,
MMMM
0000
MMMM
0000
0100
0100
2002
0000
,
3003
0000
1100
0100
1000
0010
0110
0010
,
1000
0100
1100
0100
0010
0001
1001
1000
,
0010
0100
0101
0001
0010
0100
1000
0010
,
0001
0010
1000
0100
0020
0030
2002
0000
,
3003
0000
0011
0001
1000
0010
1010
1000
,
0001
0010
0110
0100
1000
0001
0101
0200
,
2000
3300
1100
0200
0002
0303
2001
0000
,
3200
0000
0301
0100
1000
0010
0220
0000
,
0330
0000
0101
0100
0001
0010
0110
0010
,
0001
0100
0101
0100
0010
1000
1001
0001
,
0010
0100
1100
1000
0010
0100
0001
0010
,
1000
0010
0001
0100
0020
0030
2002
0000
,
3003
0000
1010
1000
0001
0010
0011
0001
,
1000
0010
0110
0100
0001
1000
1100
0200
,
0002
0303
0101
0200
2000
3300
1000
0010
,
0001
0010
2000
0000
0200
3300
2002
0000
,
3003
0000
0001
0100
020M
0300
2001
0000
,
3100
M100
0001
0010
001M
1000
0020
0200
,
0330
0000
0001
0010
001M
1000
2001
0000
,
3010
M010
0001
0010
0200
0300
2002
0000
,
3003
0000
1000
0010
0001
0010
1000
0100
,
0001
0100
1000
0010
0100
0001
2000
0001
,
0200
3300
0002
1000
0200
0303
2001
0000
,
0010
0010
0010
0000
0200
3300
2002
0000
,
3003
0000
1000
0100
M200
0300
1002
0000
,
0103
010M
1000
0010
M010
0001
0020
0200
,
0330
0000
1000
0010
M010
0001
1002
0000
,
0013
001M
1000
0100
0010
0100
1000
0010
,
0100
0000
1000
0100
0010
0100
1000
0010
,
0100
0000
1000
0100
0010
0100
1000
0010
,
0100
0000
1000
0100
1000
0010
0100
0000
,
1000
0100
0020
0000
0200
0330
1002
0000
,
0000
0010
0000
0000
,
0000
0100
0000
0000
,
0000
0010
0000
0000
,
0000
0100
0000
2003
,
0000
0010
0000
0000
,
0000
0100
0000
3002
,
0203
2300
3200
0302
,
0023
0000
2030
0000
3020
0030
1001
0000
,
1000
1100
1000
1010
,
0010
0110
0100
0002
,
0023
2030
3020
0032
,
0203
0000
2300
0000
3200
0300
1001
0000
,
0001
0101
0001
0011
,
0010
0110
0100
2000
,
3020
0032
0023
2030
,
3200
0000
0302
0000
0203
0300
1001
0000
,
0000
0000
1001
0000
0000
0000
0000
0000
1000
0000
0001
0010
0002
0000
0003
0000
,
0000
0000
1001
0000
0000
0000
0000
0000
0001
0000
1000
0010
2000
0000
3000
0000
,
0000
0000
1001
0000
0000
0000
0000
0000
1000
0000
0001
0010
0002
0000
0000
0000
,
0200
0000
0303
0000
0000
0000
1001
0001
,
0100
0000
0010
0000
1000
0001
1000
0000
0010
0000
0100
0000
0001
0000
0010
0000
,
0100
0000
1000
0000
0001
0100
0001
0000
1000
0000
0100
0000
0010
0000
0001
0000
,
0100
0000
0010
0000
1000
0001
1000
0000
0010
0000
0100
0000
0001
0000
0010
0000
,
1000
0010
0002
0000
0200
0303
1001
0000
,
1000
0000
0001
0000
1000
0100
1000
0000
0001
0000
1000
0010
1000
0000
0000
0000
,
0001
0000
1000
0000
0001
0100
0001
0000
1000
0000
0001
0010
0001
0000
0000
0000
,
1000
0000
0001
0000
1000
0100
1000
0000
0001
0000
1000
0010
1000
0000
0000
0000
,
0002
0000
0000
0000
0000
0000
1003
0100
,
0010
0100
0001
0100
0010
0100
1000
0010
,
0100
0010
0001
0010
0100
0010
1000
1000
,
0001
0000
0001
0000
0010
0100
0010
0100
0010
0100
0010
0100
0010
0000
0000
0000
,
MMMM
0000
MMMM
0000
0100
0100
1001
1000
,
0010
1000
0100
0010
1000
0010
0001
0100
,
0010
0001
1000
0100
0001
0010
0100
1000
,
0001
1000
0010
1000
0001
1000
0100
0010
,
1000
0010
0001
0100
0010
1000
0001
0010
,
0001
1000
0010
0100
1000
0100
0001
0010
,
0100
0001
1000
0010
0001
0100
0010
1000
,
0001
1000
0100
1000
0001
1000
0010
0100
,
1000
0100
0001
0010
1000
0010
0001
0000
,
1001
0000
1010
1000
2100
3000
2010
3000
,
1100
1000
1010
1000
0100
1000
0010
0100
,
0002
0003
0011
0001
0101
0001
0012
0003
,
0101
0001
0011
0001
0010
0100
1100
1000
,
0010
0100
0101
0001
0100
0010
1010
1000
,
0100
0010
0011
0001
0010
0100
1000
1000
,
0001
0000
0001
0000
0100
0000
0100
0000
0010
0000
0010
0000
1001
0000
0000
0110
,
0000
1001
2002
0000
3003
0000
2000
0100
,
3002
0100
2003
0010
3002
0010
2003
0100
,
3002
0100
2003
0010
3002
0010
1003
0100
,
M100
0001
1000
0100
M100
0010
1000
0100
,
M100
0001
1000
0100
M100
0010
2000
0010
,
3002
0010
2003
0100
3002
0100
2003
0010
,
3002
0010
2003
0100
3002
0100
1003
0010
,
M010
0001
1000
0010
M010
0100
1000
0010
,
M010
0001
1000
0010
M010
0100
1000
MMMM
,
1001
0001
0100
0001
1000
0001
0010
1000
,
2010
0000
3010
0001
0021
0000
0130
1000
,
0001
1000
0010
1000
0001
1000
0100
0001
,
0102
0000
0103
1000
2100
0000
3001
0100
,
0010
0000
1000
0001
1000
0000
0100
0000
0010
0000
0100
0000
1000
0000
0010
0000
,
0100
0000
0001
0010
0001
0000
0100
0000
0010
0000
1000
0000
0001
0000
0001
0000
,
1000
0000
1000
0000
0100
0000
0100
0000
0010
0000
0010
0000
0011
0000
0000
1001
,
0000
0101
0201
0000
0310
0000
2002
0000
,
0000
0000
0000
3003
;
