#TITLE:Crackpot Evangelist;
#SUBTITLE:;
#ARTIST:BEMANI Sound Team "ZAQUVA";
#TITLETRANSLIT:;
#SUBTITLETRANSLIT:;
#ARTISTTRANSLIT:;
#GENRE:;
#CREDIT:;
#MUSIC:Crackpot Evangelist.ogg;
#BANNER:Crackpot Evangelist-bn.png;
#BACKGROUND:Crackpot Evangelist-bg.png;
#CDTITLE:;
#SAMPLESTART:58.855;
#SAMPLELENGTH:9.600;
#SELECTABLE:YES;
#OFFSET:-0.055;
#BPMS:0.000=200.000;
#STOPS:;
#BGCHANGES:;
#FGCHANGES:;

//--------------- dance-single - Highflyer ----------------
#NOTES:
     dance-single:
     Highflyer:
     Beginner:
     4:
     0,0,0,0,0:
0000
0000
0000
0000
,
0000
0000
0000
0000
,
0000
0000
0000
0000
,
0000
0000
0000
0000
,
0000
0000
0000
0000
,
1000
0000
0000
0000
,
0001
0000
0000
0000
,
0100
0000
0000
0000
,
0010
0000
0010
0000
,
0100
0000
0100
0000
,
0010
0000
0010
0000
,
1000
0000
1000
0000
,
0001
0000
0001
0000
,
0010
0000
0100
0000
,
0010
0000
0001
0000
,
2000
0000
0000
0000
,
3002
0000
0000
0103
,
0100
0000
0010
0010
,
0000
0100
0100
0100
,
0001
0000
0001
0001
,
0000
1000
1000
1000
,
0001
0000
0100
0100
,
0000
0010
0010
0010
,
0100
0000
0001
0000
,
1000
1000
0001
0001
,
0010
0000
0010
0000
,
0100
0000
0100
0000
,
0010
0000
0001
0000
,
1000
0000
0010
0000
,
0100
0000
0100
0000
,
0010
0000
0010
0000
,
0100
0000
0100
0000
,
0001
0001
0001
0000
,
1000
0000
0001
0001
,
0001
0000
1000
0000
,
0010
0000
0100
0100
,
0100
0000
0010
0000
,
0100
0000
0010
0000
,
1000
0000
0001
0000
,
0100
0100
0100
0100
,
0100
0000
0000
0000
,
1001
0000
1000
0000
,
0001
0000
0010
0000
,
0100
0000
0010
0000
,
0001
0000
1000
0000
,
0010
0000
0100
0000
,
0010
0000
1000
0000
,
0001
0000
0010
0000
,
0100
0100
0100
0000
,
1000
0000
0001
0000
,
0100
0000
0010
0000
,
0100
0000
0010
0000
,
0100
0000
0001
0000
,
1000
0000
0100
0000
,
0010
0000
0001
0000
,
1000
1000
1000
1000
,
1000
0000
0001
0000
,
0100
0100
0100
0000
,
0010
0010
0010
0000
,
1000
1000
1000
0000
,
0001
0001
0001
0001
,
0010
0010
0010
0000
,
0100
0100
0100
0000
,
1000
1000
1000
0000
,
0010
0010
0010
0010
,
0100
0000
0100
0000
,
0010
0000
1000
0000
,
0001
0000
0001
0000
,
0010
0010
0010
0000
,
0100
0000
0100
0000
,
1000
0000
1000
0000
,
0001
0000
0100
0000
,
0010
0010
0010
0000
,
1000
1000
1000
0000
,
0001
0001
0001
0000
,
0010
0010
0010
0000
,
0100
0100
0100
0100
,
1000
1000
1000
0000
,
0001
0001
0001
0000
,
0100
0100
0100
0000
,
0010
0010
0010
0010
,
0100
0000
0001
0000
,
1000
0000
0100
0000
,
0010
0000
0010
0000
,
0100
0100
0100
0000
,
0010
0010
0010
0000
,
0001
0001
0001
0000
,
1000
1000
1000
0000
,
0010
0000
0010
0010
,
0010
0000
1000
0000
,
0001
0001
0001
0000
,
1000
0000
0001
0000
,
0010
0000
0100
0000
,
0010
0010
0010
0100
,
0200
0300
0000
0000
;

//--------------- dance-single - Highflyer ----------------
#NOTES:
     dance-single:
     Highflyer:
     Easy:
     11:
     0,0,0,0,0:
0000
0000
0000
0000
,
0000
0000
0000
0000
,
0000
0000
0000
0000
,
0000
0000
0000
0000
,
0000
0000
0000
0000
,
1000
0001
0100
0100
,
0010
1000
0100
0100
,
0010
0100
1000
0000
,
0001
0100
0010
1001
,
0001
0100
0010
1000
,
1000
0100
0010
0001
,
0200
0310
1000
0002
,
0013
0010
0100
1000
,
0001
0100
0010
1000
,
0001
0001
0010
0100
,
1000
0001
1000
0000
0001
0100
0001
0000
,
1000
0100
0010
0110
,
1001
0000
1000
0000
0001
0100
0001
0000
,
0000
1000
0100
0000
0010
0000
0100
0000
,
0010
0000
0001
0000
1000
0010
1000
0000
,
0000
0001
0100
0000
0010
0000
0010
0000
,
0100
0000
0001
0000
1000
0100
1000
0000
,
0000
0001
1000
0000
0010
0000
0100
0000
,
0010
1000
0010
0000
1000
0100
1000
0000
,
0100
0100
0010
0001
,
2000
0000
3020
0000
0130
0001
0000
1000
,
0100
0010
0001
1000
,
1000
0000
1000
0000
0010
0000
0100
0001
,
0100
0010
0100
0002
,
0013
0100
1000
0001
,
1000
0010
1000
0000
0001
0000
0010
0000
,
0100
1000
0100
0000
0010
0000
0001
0000
,
1000
0000
1000
0000
0001
0100
0010
0000
,
1001
0000
0001
0000
1000
0010
1000
0000
,
0001
0010
0001
0000
1000
0000
0010
0000
,
0110
0000
0001
0000
1000
0100
1000
0000
,
0001
0100
0001
0000
1000
0010
0200
0000
,
0310
0000
0000
1000
0000
0000
0001
0000
0010
0000
0000
0000
0010
0000
0000
0000
,
0100
1000
0100
0000
0010
0001
1000
0000
,
0001
0100
0001
1000
0001
0010
0001
1000
,
0100
0000
0000
0000
,
1000
0001
0100
0100
,
0010
1000
0010
0000
0100
0000
0100
0000
,
0001
0010
0100
1000
,
0001
0100
0001
0000
1000
0000
0100
0000
,
0010
0001
1000
1000
,
0100
0010
0100
0000
1000
0000
0001
0000
,
0100
0010
0100
0001
,
1100
0101
1100
1001
,
0001
0000
0100
0000
0010
1000
0010
0000
,
0100
0001
1000
0100
,
0010
0000
0010
0000
0001
0000
1000
0100
,
1000
0000
0001
0000
0100
0000
0010
0100
,
0010
1000
0001
0010
,
0100
1000
0001
0000
1000
0010
1000
0000
,
0010
0100
0010
1000
0010
0100
0001
1000
,
0100
0010
0001
1001
,
0001
0000
1000
0000
0010
0100
0010
0000
,
0100
0000
0001
0000
1000
0100
1000
0000
,
0001
0000
1000
0000
0001
0010
0001
0000
,
1000
0000
0000
0001
0000
0000
1000
0000
0010
0000
0000
0000
0100
0000
0001
0000
,
0100
0000
0010
0000
1000
0001
1000
0000
,
0001
0000
0010
0000
0100
1000
0100
0000
,
1000
0000
0001
0000
0100
0010
0100
0000
,
0001
1000
0001
0100
0001
1000
0200
0000
,
0310
0000
0010
0000
0000
0000
0100
0000
0100
0000
0000
0000
,
1000
0000
1000
0000
0000
0000
0001
0000
0100
0000
0000
0000
,
0010
0000
0010
0000
0000
0000
0100
0000
0001
0000
1000
0000
,
0100
0000
0100
0000
0100
0010
0001
0000
,
1000
0000
0010
0000
0100
0001
0100
0000
,
0010
0000
1000
0000
0100
0010
0100
0000
,
0010
0001
1000
0010
,
1000
0001
1000
0100
1000
0001
0100
0000
,
0010
0000
0000
1000
0000
0000
0001
0000
0000
0010
0000
0000
0100
0000
0000
0000
,
0010
0000
0000
0001
0000
0000
1000
0000
0000
0010
0000
0000
0100
0000
0000
0000
,
0010
0000
0000
1000
0000
0000
0001
0000
0000
1000
0000
0000
0100
0000
0000
0000
,
0010
0100
1000
0100
0010
0001
1000
0000
,
0001
0000
0000
0100
0000
0000
0010
0000
0000
1000
0000
0000
0001
0000
0000
0000
,
0010
0000
0000
0100
0000
0000
0010
0000
0000
0001
0000
0000
1000
0000
0000
0000
,
0010
0000
0000
0100
0000
0000
0010
0000
0000
1000
0000
0000
0001
0000
0000
0000
,
0010
0100
0010
0001
1000
0001
0100
0000
,
0010
0000
0010
0000
0000
0000
1000
0000
1000
0000
0000
0000
,
0001
0000
0001
0000
0000
0000
0010
0000
0100
0000
0010
0000
,
0001
0000
0001
0000
0000
0000
1000
0000
1000
0000
0000
0000
,
0010
0000
0100
0001
0000
1000
0100
0000
0000
0010
0000
0000
,
0100
0000
0000
1000
0000
0000
0001
0000
0000
0100
0000
0000
0010
0000
0000
0000
,
0100
0000
0000
0010
0000
0000
1000
0000
0000
0001
0000
0000
0010
0000
0000
0000
,
0100
1000
0100
0000
1000
0001
1000
0000
,
0010
0000
0000
0010
0000
0000
0100
0000
0001
0000
1000
0000
0100
0000
0010
0000
,
0002
1000
0010
0100
,
1003
0001
1000
0000
0001
0100
0010
0000
,
0100
0000
0001
0000
0100
0000
0000
0000
0010
0000
0000
0010
0000
0000
0010
0000
,
1000
0000
0001
0010
0001
0000
1000
0010
,
1000
0001
0010
0100
1000
0010
0100
0001
,
2000
3000
0000
0000
;

//--------------- dance-single - Highflyer ----------------
#NOTES:
     dance-single:
     Highflyer:
     Medium:
     13:
     0,0,0,0,0:
0000
0000
0000
0000
,
0000
0000
0000
0000
,
0000
0000
0000
0000
,
0000
0000
0000
0000
,
0000
0000
0000
0000
,
2000
0000
3001
0100
0010
0010
0100
0002
,
0000
1003
0100
1000
0001
0100
0010
1000
,
0002
0000
1003
0001
0100
1000
0000
1000
,
0100
0001
1000
0100
0010
0001
1001
0000
,
0001
0100
0010
1000
0001
0010
1000
0010
,
0100
1000
0001
0100
0010
1000
0100
0001
,
0200
0000
0310
0001
1000
0010
0200
0000
,
0301
0001
1000
1000
0100
0010
0001
0100
,
0020
0000
1030
0100
0010
0010
0100
1000
,
0001
0001
0100
0010
1000
1000
0200
0000
,
0310
0001
0100
0010
1000
0100
0010
0001
,
0200
0000
0000
0310
,
1001
0000
1000
0001
1000
0010
0002
0000
,
0003
0000
0010
0000
1000
0000
0000
0100
0010
0000
0001
0000
2000
0000
0000
0000
,
3020
0000
0130
0001
1000
0100
0002
0000
,
0003
0000
0000
0100
0000
0000
1000
0000
0000
0001
0000
0000
0100
0000
0010
0000
0100
0000
0020
0000
0000
0000
0000
0000
,
2030
0000
3001
0010
0001
0100
2000
0000
,
3000
0000
0100
0000
0001
0000
0000
1000
0100
0000
0010
0000
0002
0000
0000
0000
,
1003
0000
0010
0000
1000
0000
0000
0001
0010
0000
0100
0000
1000
0000
0000
0001
,
0100
0000
0010
0000
1000
0000
0001
0000
0010
0000
0100
0000
1000
0010
1000
0000
,
0001
0000
0100
0000
1000
0000
0100
0000
0001
0000
0000
1000
0000
0100
0000
0000
,
0010
0000
0001
0000
1000
0000
0100
0000
0010
0000
0001
2000
0000
0000
3000
0001
,
0100
0000
0010
0000
0100
0000
0001
0000
0010
0000
0100
1000
0000
0100
0020
0000
,
0031
1000
0010
0100
0001
0100
1000
0000
,
0100
0001
0010
0001
1000
0010
0001
0010
,
1000
0000
0001
0000
0100
0010
0000
0000
0100
0000
0001
1000
0000
0000
0001
0010
,
0001
0000
0000
1000
0010
0000
0100
0000
0001
0000
0000
1000
0100
0000
0010
0000
,
0001
0000
1000
0000
0001
0000
1000
0010
1000
0000
0001
0000
0020
0030
0000
0000
,
1001
0000
0000
0000
0001
0000
1000
0100
0000
0000
1000
0100
0000
0000
1000
0100
,
0010
0000
0001
0000
1000
0000
0010
0000
0100
0000
0001
1000
0000
0001
1000
0000
,
0100
0000
0000
0000
0010
0000
0001
1000
0000
0000
0001
1000
0000
0000
0001
1000
,
0010
0100
0001
0010
1000
0010
0002
0000
,
1003
0000
0010
0100
0000
0010
0100
0000
0001
0000
1000
0100
0000
1000
0100
0000
,
0010
0001
0100
0010
1000
0100
0001
0000
,
0100
0000
1000
0001
1000
0000
0001
1000
0001
0000
0100
0020
0000
0000
0000
0000
,
0130
0000
0000
0000
0010
0100
0020
0000
,
1030
0100
0010
0001
0100
1000
0100
1000
,
0001
0010
1000
0100
0010
0001
1000
0001
,
0010
0000
0100
0000
0010
0000
0001
0000
1000
0000
0010
0000
1000
0000
0100
0010
,
0100
0000
1000
0000
0001
0000
0100
0000
0010
0000
0100
0000
0001
1000
0001
0000
,
0100
0010
0100
0001
0010
1000
0010
1000
,
0001
0100
1000
0001
0100
0010
1000
0100
,
0010
0001
0100
0001
1000
0100
0010
0001
,
1000
0000
0000
0000
0000
0000
0001
0000
0000
0000
0000
0000
1000
0000
0000
0000
0000
0000
0220
0330
0000
0000
0000
0000
,
0001
0000
0000
1000
0000
0000
0100
0000
0010
0000
0100
0000
1000
0000
0001
0000
,
0100
0000
0010
1000
0000
0000
0001
0000
1000
0000
0100
0000
1000
0000
0001
0000
,
0100
0000
0000
0010
0000
0000
0100
0000
0001
0000
1000
0000
0010
0000
0100
0000
,
0001
0000
0000
1000
0000
0000
0100
0000
0010
0000
0001
0000
1000
0000
0001
0000
,
0010
0100
0010
0100
1000
0010
1000
0010
,
0100
0001
0100
0001
1000
0100
1000
0100
,
0010
0001
0100
0010
1000
0100
0010
0001
,
0100
0010
0100
1001
,
1000
0000
0000
0001
0000
0000
0100
0000
0010
0000
1000
0000
0100
0000
0010
0000
,
0001
0000
0000
1000
0000
0000
0001
0000
0100
0000
1000
0000
0100
0000
0001
0000
,
0010
0000
0000
0100
0000
0000
0010
0000
0001
0000
1000
0000
0010
0000
0100
0000
,
0001
0010
1000
0001
0100
1000
0010
0100
,
0001
0000
0000
0100
0000
0000
0010
0000
1000
0000
0100
0000
0010
0000
0001
0000
,
1000
0000
0000
0001
0000
0000
1000
0000
0100
0000
0001
0000
0100
0000
0010
0000
,
0001
0000
0000
1000
0000
0000
0010
0000
0100
0000
0001
0000
1000
0000
0100
0000
,
1000
0010
0001
1000
0100
0001
1000
0000
,
0100
0000
0010
0000
0001
0000
1000
0000
0010
0000
0100
0000
,
0001
0000
1000
0000
0100
0000
0010
0000
1000
0000
0010
0001
,
1000
0000
0010
0000
0100
0000
0010
1000
0001
0020
0000
0000
,
0031
0100
1000
0001
0010
1000
0200
0000
,
0310
0000
0000
0001
0000
0000
1000
0000
0000
0010
0000
0000
0100
0000
0010
0000
,
1000
0000
0000
0001
0000
0000
0010
0000
0000
0100
0000
0000
1000
0000
0001
0000
,
0100
0010
1000
0001
0010
0100
1000
0001
,
1000
0100
0001
1000
0010
0001
1000
0000
,
0001
0000
0000
1000
0000
0000
0010
0000
0000
1000
0000
0000
0001
0000
0100
0010
,
1000
0000
0000
0100
0000
0000
0010
0000
0000
0001
0000
0000
1000
0001
1000
0000
,
0010
0000
0000
0100
0000
0000
0001
0000
0000
1000
0000
0001
0010
0000
0001
0000
,
1000
0000
0010
0000
0001
0000
1000
0000
0100
0000
0001
0000
2000
0000
0000
3001
,
0010
0000
0000
0001
0000
0000
1000
0000
0010
0100
0000
0010
0000
0000
0100
0001
,
1000
0000
0000
0100
0000
0010
0001
0000
1000
0001
0000
1000
0000
0000
0000
0000
,
0001
0000
0100
0010
0000
0100
0010
0000
1000
0001
0000
0010
0000
0000
0100
1000
,
0001
0100
1000
0001
0010
1000
0001
0000
,
1000
0000
0100
0000
0010
0000
0001
0000
1000
0000
0010
0000
,
0100
0000
0001
0000
1000
0000
0100
0000
1000
0000
0001
0100
,
0010
0000
0100
0000
0001
0000
1000
0100
1000
0000
0010
0000
,
1000
0000
0001
0000
1000
0000
0001
0000
1000
0000
0001
0000
0200
0000
0000
0000
0000
0000
0310
0000
0000
1000
0000
0000
,
0100
0000
1000
0010
0000
1000
0010
0000
0100
0001
0000
0200
0000
0000
0300
0000
,
0010
0000
1000
0001
0000
1000
0001
0000
1000
0100
0000
0020
0000
0000
0000
0030
,
0001
0000
0100
0010
0000
0100
0010
0000
0100
0001
0000
1000
0000
0001
0010
0000
,
0100
0000
1000
0001
0000
1000
0001
0000
1000
0000
0100
0000
0001
0000
0100
0000
,
2000
0000
0000
0000
0010
0000
0000
0000
0001
0000
0000
0000
0100
0000
0000
3001
,
0100
0010
0100
0000
0010
1000
1001
0000
,
1000
0100
0000
0000
0010
0001
0000
1000
0001
0000
1000
0010
0000
1000
0010
0000
,
0200
0000
0310
0000
1000
0000
0001
0000
0020
0000
0130
0000
1000
0001
0000
0001
,
1000
0010
0100
0001
1000
0200
0310
0010
,
0002
0003
0000
0000
;

//--------------- dance-single - Highflyer ----------------
#NOTES:
     dance-single:
     Highflyer:
     Hard:
     17:
     0,0,0,0,0:
0000
0000
0000
0000
,
0000
0000
0000
0000
,
0000
0000
0000
0000
,
0000
0000
0000
0000
,
0000
0000
0000
0000
,
2000
0000
3001
0100
0010
0010
1000
0100
,
0010
0010
0001
1000
0010
0100
0001
1000
,
0200
0000
0310
0001
0100
0010
0000
0100
,
0001
1000
0000
1000
0001
0000
0010
0000
0100
1000
0001
0000
0100
0000
0000
0000
,
0010
1000
0010
0000
0100
0000
0001
0000
1000
0000
0100
0000
0010
0000
0001
1000
,
0001
0100
0010
0100
0001
1000
0100
0020
,
0002
0000
0030
0000
1003
0000
0010
0000
1000
0000
0100
0000
0002
0000
0000
0103
,
0010
0000
0001
0000
0010
0000
0001
0000
1000
0000
0010
0000
0100
0000
0010
1000
,
0010
0000
0100
0000
0001
0000
1000
0100
1000
0000
0001
0000
0100
0000
0010
1000
,
0010
0000
0100
0000
0001
0000
0010
0100
0010
0000
0001
0000
0100
0000
0010
1000
,
0010
0000
1000
0100
1000
0000
0001
0100
0001
0000
1000
0100
1000
0000
0001
0100
,
0010
1000
0010
1000
0010
1000
0010
1000
0001
0010
0100
1000
0001
0000
0000
0000
,
1000
0000
0000
0000
0010
0100
0010
0000
0100
0000
0001
0000
0010
0000
0000
0000
,
0100
0000
0010
0001
0010
0000
0001
0010
0001
0000
1000
0000
0020
0000
0000
0000
,
0230
0000
0000
0000
0301
0000
1000
0100
1000
0000
0001
0000
0100
0000
0000
0000
,
0010
0000
0000
0000
0000
0000
0100
0000
0000
0001
0000
0000
0100
0000
0000
0000
0000
0000
0010
0000
0000
1000
0000
0000
0001
0000
0000
0000
0010
0000
0000
0000
0100
0000
0000
0000
1000
0000
0000
0000
0000
0000
0000
0000
0000
0000
0000
0000
,
0001
0000
0000
0000
1000
0000
0001
0010
0001
0000
1000
0000
0100
0000
0000
0000
,
0010
0000
0100
1000
0100
0000
1000
0100
1000
0000
0001
0000
0200
0000
0000
0000
,
0310
0000
1000
0000
0100
0000
0010
0001
0010
0000
0100
0000
1000
0000
0001
0100
,
0001
0000
1000
0100
1000
0000
0001
0100
0001
0000
1000
0000
0200
0000
0000
0000
,
0310
0000
0001
1000
0001
0000
1000
0001
2000
0000
0000
0010
0000
3001
0000
1000
,
0100
0000
0100
0000
0010
0001
0010
0000
0100
0000
1000
0010
0200
0000
0301
0010
,
0200
0000
0310
0001
0200
0000
0310
0000
1000
0000
0001
0100
0001
0000
1000
0000
,
0100
0000
0010
0001
0010
0001
1000
0000
0010
0000
0100
0000
0002
0000
0000
0013
,
0100
0000
1000
0001
0100
0000
0010
1000
0001
0000
0010
0000
0100
1000
0100
0000
,
0010
0000
0001
0000
1000
0010
1000
0000
0010
0000
0100
0001
0000
0100
0000
0010
,
1000
0000
0001
0010
0000
0001
0000
1000
0010
0000
0100
0001
0000
1000
0100
0000
,
0010
0000
0001
0000
0010
0000
0001
1000
0001
1000
0100
0000
0010
0000
0000
0000
,
1001
0000
0000
0000
0001
0000
1000
0010
1000
0000
0010
1000
0010
0000
1000
0001
,
1000
0001
0010
0000
0100
0000
1000
0100
1000
0000
0001
0100
0000
0001
0100
0000
,
0010
0000
0000
0000
0100
0000
0001
1000
0001
0000
1000
0001
1000
0000
0001
0010
,
0001
0010
0100
0000
0010
0000
0001
1000
0001
0000
0100
0000
0020
0000
0000
0000
,
1030
0000
0001
0010
0000
0010
0001
0000
1000
0000
0010
0000
0100
0001
0100
0000
,
0010
0000
1000
0000
0100
0000
0010
0001
0010
0000
0100
0000
2000
0000
0000
0000
,
3001
0100
0001
0000
1000
0100
1000
0000
0001
0010
0001
0000
1000
0010
1000
0000
,
0100
0000
0020
0100
,
0031
1000
0010
0100
0010
1000
0100
0100
,
0010
0001
1000
0010
0100
0001
1000
0100
,
0010
0000
0001
0000
0010
0000
0100
0000
0010
0000
0001
0000
0100
0000
0010
1000
,
0010
0000
0100
0000
0001
0000
1000
0000
0100
0000
0010
0000
0100
1000
0100
0000
,
1000
0001
0100
0010
0100
0001
1000
1000
,
0020
0000
1000
0000
0230
0000
0010
0000
0302
0000
1000
0000
0013
0100
0010
0000
,
0001
0000
1000
0000
0010
0100
0010
0000
0100
0000
0001
0000
1000
0000
0100
0000
,
0010
0010
0010
0100
,
1000
0000
0001
0100
0000
0000
0010
0000
0100
0000
0001
0000
1000
0000
0100
0000
,
0010
0000
0001
1000
0000
0000
0001
0000
0010
0000
0100
0000
1000
0000
0001
0000
,
0100
0000
0000
0010
0000
0000
0100
0000
0010
0000
1000
0000
0001
0000
0010
0001
,
0010
0000
0000
0100
0000
0000
1000
0000
0001
0000
0100
0000
0010
0000
1000
0000
,
0001
0010
0001
0010
0100
1000
0100
1000
,
0001
0100
0001
0100
0010
1000
0010
1000
,
0001
0010
0001
0000
1000
0000
0010
0000
0100
0001
0100
0000
0010
0000
1000
0000
,
0002
0023
0030
0000
0100
0000
1000
0001
0100
0000
0010
0000
1001
0000
0000
0000
,
1000
0000
0001
0100
0000
0100
0001
0000
1000
0100
0000
0100
0000
0010
0001
0000
,
1000
0000
0010
1000
0000
1000
0001
0000
0010
0100
0000
0100
0000
1000
0001
0000
,
0100
0000
0001
0010
0000
0010
0100
0000
0010
0001
0000
0001
0000
1000
0010
0000
,
0100
0001
0000
0100
0001
0000
0100
0001
1000
0000
0100
0000
0010
0001
0010
0000
,
0100
0000
1000
0010
0000
0010
0100
0000
0010
1000
0000
1000
0000
0001
0010
0000
,
0100
0000
1000
0001
0000
0001
0100
0000
0010
0100
0000
0100
0000
0001
0010
0000
,
0100
0000
0010
0001
0000
1000
0010
0000
0100
0001
0000
0001
0000
1000
0100
0000
,
0010
0001
0000
0010
0001
0000
1000
0010
0100
0000
0010
0000
2000
0000
0000
3000
,
0001
0000
0011
0000
0010
0100
1000
0000
1001
0000
0001
0100
,
0010
0000
1010
0000
1000
0100
0010
0001
1000
0000
0010
0100
,
0001
0000
0000
0000
0101
0000
0000
0000
0100
0000
0010
0000
1000
0000
0001
0000
0010
0000
0100
0000
0000
1000
0000
0000
,
0001
1000
0000
0001
1000
0000
0001
0100
0010
0000
1000
0000
0200
0000
0310
0000
,
0001
0000
1000
0100
0000
1000
0001
0000
1000
0100
0000
1000
0000
0001
0100
0000
,
0010
0000
0100
0001
0000
0100
0010
0000
0100
0001
0000
0100
0000
0010
1000
0000
,
0001
0000
1000
0100
0000
1000
0010
0000
0100
0001
0000
0001
0000
1000
0100
1000
,
0001
0100
0000
0010
0100
0000
0010
0100
0010
1000
0001
0010
0100
0000
0000
0000
,
0010
0000
0001
0010
0000
0001
0100
0000
0001
0010
0000
0100
1000
0000
0001
1000
,
0010
0000
1000
0100
0000
1000
0010
0000
1000
0100
0000
0010
0001
0000
1000
0000
,
0010
0000
0100
0001
0000
0100
0010
0000
0100
0001
0000
0100
0010
0000
1000
0000
,
0001
0010
0000
0001
1000
0000
0001
0100
0010
0000
1000
0000
0200
0000
0000
0310
,
0001
0000
1000
0001
0000
1000
0010
0000
0100
0001
0000
1000
0000
0000
0001
0000
,
1000
0000
0100
0010
0000
0100
1000
0000
0001
0100
0000
0010
0000
0000
1000
0000
,
0100
0000
0010
0100
0000
0100
0010
0000
0100
1000
0000
0001
0000
0000
1000
0000
,
0010
0100
0000
0010
0100
0000
0001
0000
1000
0100
1000
0000
0010
0000
0000
0000
,
0100
0000
0101
0000
0001
1000
0100
0000
0110
0000
0010
0100
,
1000
0000
1001
0000
0001
0100
0010
1000
0001
0000
1000
0100
,
0010
0000
0011
0000
0001
0100
0010
1000
0100
0000
0010
0100
,
1000
0000
0001
0000
0100
0000
0010
0000
1000
0000
0100
0000
0020
0000
0000
0000
0000
0000
0130
0000
0000
1000
0000
0000
,
0001
0000
1000
0010
0000
1000
0010
0000
0100
0001
0000
0100
0000
0010
1000
0000
,
0001
0000
0010
0100
0000
0010
0100
0000
0010
0001
0000
1000
0000
0010
0100
0000
,
0001
0000
1000
0100
0000
1000
0001
0000
0100
0010
0000
1000
0000
0001
0010
0001
,
1000
0000
0001
1000
0000
0001
1000
0000
0010
0000
0100
0000
0001
0000
0010
0000
,
0200
0000
0000
0000
0010
0000
0000
0000
1000
0000
0000
0000
0010
0000
0000
1300
,
0001
0100
0010
0000
1000
0100
0010
0000
,
0001
0100
0001
0000
1000
0100
0000
1000
0100
0000
0010
0001
0000
1000
0010
0000
,
0100
0000
0001
1000
0000
0100
0010
0000
0001
0000
1000
0000
0010
0000
0100
0000
,
0001
0010
0001
0000
1000
0010
1000
0000
0001
0100
0001
0000
2000
0000
3200
0000
,
0320
0030
0000
0000
;

//--------------- dance-single - Highflyer ----------------
#NOTES:
     dance-single:
     Highflyer:
     Challenge:
     18:
     0,0,0,0,0:
0000
0000
0000
0000
,
0000
0000
0000
0000
,
0000
0000
0000
0000
,
0000
0000
0000
0000
,
0000
0000
0000
0000
,
2000
0000
0000
0000
3001
0000
0010
0000
0200
0300
0100
0000
0001
0000
2000
0000
,
0010
3001
0100
0010
1000
0100
0010
1000
,
0010
0100
1000
0010
0100
0010
0000
1000
,
0001
0100
0000
0001
0100
0010
1000
0001
0010
0100
1000
0000
1001
0000
0000
0000
,
0001
0100
0001
0000
1000
0000
0200
0000
0010
0000
1300
0000
0001
0000
1000
0010
,
1000
0001
0100
0010
1000
0001
0010
1000
,
0020
0000
0000
0000
0130
0000
1000
0000
0001
0100
0001
0000
2000
0000
0000
3100
,
0010
0000
0001
0000
0010
0000
0001
0000
1000
0000
0010
0000
0100
0000
0001
0010
,
0001
0000
1000
0000
0010
0000
0100
0001
0100
0000
0010
0000
1000
0000
0100
0010
,
0100
0000
1000
0000
0001
0000
0100
0010
0100
0000
0001
0000
1000
0000
0100
0000
,
0010
0001
0010
0001
1000
0010
1000
0010
0100
0001
0100
0001
1000
0100
1000
0100
,
0010
0001
1000
0001
0100
0010
1000
0001
0010
0100
0010
0100
2000
0000
3000
0000
,
1001
0000
0000
0000
1000
0100
1000
0000
0001
0000
0100
0000
1000
0000
0000
0000
,
MMMM
0000
0001
0010
0001
0000
1000
0010
1000
0000
0100
0000
0002
0000
0000
0000
,
0203
0000
0000
0000
0310
0000
0001
1000
0001
0000
0010
0000
1000
0000
0000
0000
,
MMMM
0000
0000
0000
0000
0000
1000
0000
0000
0010
0000
0000
1000
0000
0000
0000
0000
0000
0001
0000
0000
0100
0000
0000
0001
0000
0000
0000
1000
0000
0000
0000
0100
0000
0000
0000
0020
0000
0000
0000
0000
0000
0000
0000
0000
0000
0000
0000
,
0230
0000
0000
0000
1300
0000
0001
0100
0010
0000
1000
0000
0100
0000
0000
0000
,
MMMM
0000
0001
1000
0100
0000
1000
0001
0100
0000
0010
0000
2000
0000
0000
0000
,
3001
0000
0100
0000
0010
0000
1000
0001
0010
0000
0100
0000
1000
0000
0100
0010
,
0001
1000
0001
0100
0010
0000
0100
0001
1000
0000
0010
1000
0100
0010
0100
0010
,
0001
0000
1000
0010
1000
0000
0001
0010
0001
1000
0010
0100
0000
0001
0000
1000
,
0200
0000
0000
0300
0000
0000
0100
0000
0000
0000
0000
0000
0001
0000
1000
0000
0001
0000
0100
0000
0000
0000
0000
0000
0010
0000
0000
0000
0000
0000
1000
0000
0000
0100
0000
0000
0010
0000
0001
0000
1000
0000
0001
0000
0000
0100
0000
0000
,
0010
0000
0000
0000
0000
0000
0100
0000
0000
0001
0000
0000
0010
0000
0000
0000
0000
0000
0100
0000
0000
0000
0000
0000
1000
0000
0000
0000
0000
0000
0001
0000
0000
0100
0000
0000
0010
0000
0000
1000
0000
0000
0001
0000
0010
0000
0001
0000
,
1000
0000
0000
0000
0000
0000
0010
0000
0000
1000
0000
0000
0001
0000
0000
0010
0000
0000
0100
0000
0000
0000
0000
0000
0010
0000
0000
0000
0000
0000
0001
0000
0000
0000
0000
0000
1000
0000
0010
0000
1000
0000
0001
0000
0000
0100
0000
0000
,
0010
0000
1000
0100
0010
0000
0001
1000
0001
0100
0010
0000
1000
0100
1000
0001
,
0100
0010
0100
0010
0000
0100
0001
1000
0100
0000
0010
0001
0100
0010
1000
0001
,
0010
0000
0100
1000
0000
0100
1000
0001
0100
0010
0000
0100
0001
0000
1000
0100
,
0010
0000
0001
0000
0010
0000
0001
1000
0001
0100
0010
0000
MMMM
0000
0000
0000
,
1001
0000
0000
0000
0001
0000
1000
0010
1000
0000
1000
0010
1000
0000
1000
0001
,
1000
0100
0010
0000
0010
0000
0001
0100
0001
0000
0100
0010
0000
1000
0001
0000
,
0011
0000
0000
0000
0010
0000
0100
1000
0100
0000
0100
1000
0100
0000
0100
1000
,
0100
0010
0001
0000
0100
0000
0010
1000
0010
1000
0001
0010
0200
0000
0310
0001
,
1000
0000
0010
0100
0000
0010
0100
0000
0001
0000
1000
0200
0300
0100
0001
0000
,
1000
0000
0000
0000
0000
0000
0010
0000
0000
0000
0000
0000
1000
0000
0000
0000
0000
0000
0010
0000
0100
0000
0001
0000
1000
0000
0000
0001
0000
0000
0010
0000
0000
0000
0000
0000
0200
0000
0000
0000
0000
0000
0300
0000
0000
0000
0000
0000
,
0010
0000
0000
0001
0000
0000
1000
0000
0000
0001
0000
0000
0100
0000
0000
0010
0000
0000
1000
0000
0000
0001
0000
0000
1000
0000
0000
0100
0000
0000
0010
0000
0000
0001
0000
0000
1000
0000
0010
0000
1000
0000
0010
0000
0000
0100
0000
0000
,
0002
0000
0000
0000
0000
0000
0000
0000
1003
0100
1000
0001
0100
0000
0010
0100
,
0001
0000
1000
0000
0010
0000
1000
0000
0200
0300
0100
0000
0001
0000
1000
0000
,
0100
0100
0100
0010
0001
1000
0001
0100
,
0010
0000
1000
0000
0010
0000
0100
0000
0001
0000
1000
0000
0100
0000
0010
0001
,
0010
0000
0100
0000
1000
0000
0001
0000
0100
0000
0010
0000
1000
0001
1000
0100
,
0010
0000
0001
0000
1000
0000
0001
0000
0020
0030
0010
0000
0200
0300
0100
0000
,
1000
0000
0001
0000
0100
0000
0010
0000
0100
0000
0001
0000
1000
0100
0010
0000
,
0100
0000
1000
0000
0001
0100
0001
0000
1000
0000
0100
0000
0010
0000
0001
0000
,
1000
MMMM
0001
MMMM
1000
MMMM
0001
MMMM
,
1000
0000
0010
0100
0000
0001
1000
0000
0100
0000
0010
0000
0001
1000
0001
0000
,
0100
0000
0010
0100
0000
0010
1000
0000
0001
0000
1000
0000
0100
0010
0001
0000
,
1000
0000
0010
0100
0001
0000
1000
0000
0100
0000
0010
0000
0100
1000
0001
0100
,
0001
0000
1000
0100
0000
0000
0010
0000
0100
0000
0010
0001
1000
0000
0010
0100
,
0001
0000
0010
0000
0001
0000
0010
0000
0100
0000
1000
0000
0100
1000
0001
1000
,
0010
0000
0100
0001
1000
0100
0010
0000
0001
1000
0010
0100
0001
1000
0001
0000
,
1000
0100
1000
0001
0100
0010
1000
0001
0100
0001
1000
0100
0010
0100
1000
0001
,
0100
0000
0010
0000
0100
0000
0001
0000
0000
0000
0000
0000
1000
0000
0000
0000
0000
0000
0001
0000
0010
0000
0001
0000
1000
0000
0000
0010
0000
0000
0100
0000
0000
0001
0000
0000
0010
0000
0000
0000
0000
0000
0000
0000
0000
0000
0000
0000
,
0100
0000
1000
0001
0000
0100
0001
0000
1000
0100
0000
0010
0001
1000
0001
0100
,
0010
0000
0100
0001
0000
0100
0010
0000
1000
0100
0000
0001
0000
0100
1000
0001
,
0100
0000
0010
1000
0000
0001
0010
0000
0100
1000
0000
0001
0000
0100
0010
1000
,
0100
0010
0001
0010
0100
0010
0001
0010
0100
1000
0001
0100
0010
1000
0001
0100
,
0010
0000
0100
0001
0000
1000
0100
0000
1000
0001
0000
0100
0000
0010
1000
0001
,
0010
0000
0100
1000
0000
0001
0100
0000
0001
0010
0000
1000
0000
0010
0001
1000
,
0001
0000
0100
0010
1000
0001
0010
0000
0100
1000
0000
0001
0000
0100
0010
1000
,
0100
0000
0000
0010
0000
0000
0001
0000
0000
0100
0000
0000
0010
0000
0000
0100
0000
0000
0001
0000
0000
0010
0000
0000
0100
0000
0000
1000
0000
0000
0001
0000
0000
0100
0000
0000
0010
0000
1000
0000
0010
0000
1000
0000
0000
0001
0000
0000
,
0010
0000
0100
0000
1000
0001
0100
0000
0010
0000
0100
0001
,
0010
0000
0100
0000
0010
0001
1000
0010
0001
0000
0010
0100
,
0001
0000
0000
0000
0000
0000
0000
0000
0010
0000
0000
0000
0000
0000
0000
0000
0100
0000
0000
0000
1000
0000
0000
0000
0001
0000
0000
0000
0100
0000
0000
0000
1000
0000
0000
0000
0100
0000
0000
0010
0000
0000
1000
0000
0000
0001
0000
0000
,
0010
0000
0000
0100
0000
0000
1000
0000
0000
0100
0000
0000
0010
0000
0000
0001
0000
0000
0100
0000
0000
0010
0000
0000
1000
0000
0000
0100
0000
0000
0010
0000
0000
0001
0000
0000
1000
0000
0100
0000
1000
0000
0100
0000
0000
0010
0000
0000
,
0001
0000
1000
0020
0030
0010
0001
0000
1000
0100
0000
0001
0000
0100
1000
0001
,
0100
0000
0001
0020
0030
0010
1000
0000
0001
0010
0000
1000
0000
0010
0100
1000
,
0001
0100
0010
0100
0001
1000
0100
1000
0001
0100
0000
0010
0000
0100
0001
1000
,
0100
1000
0010
0100
0010
1000
0100
0010
0001
0100
0010
1000
0200
0000
0000
0000
,
0310
0000
0001
0100
0000
0010
1000
0000
0001
0010
0000
0010
0000
0000
0100
1000
,
0010
0000
0100
0001
0000
1000
0100
0000
0010
0001
0000
1000
0010
0100
0010
0000
,
0100
0000
0001
1000
0000
0001
0010
0000
0100
1000
0000
0001
0100
0000
0010
0100
,
0010
0000
0000
1000
0000
0000
0001
0000
0000
0010
0000
0000
0001
0000
0000
1000
0000
0000
0010
0000
0000
1000
0000
0000
0001
0000
0000
0100
0000
0000
0001
0000
0000
0010
0000
0000
0100
0000
1000
0000
0100
0000
1000
0000
0000
0001
0000
0000
,
0100
0000
0010
1000
0000
0001
0010
0000
0001
1000
0000
1000
0000
0000
0010
0100
,
0001
0000
1000
0100
0000
1000
0001
0000
0100
0010
0000
0010
0100
0001
0100
0000
,
0001
0000
0010
1000
0000
0010
0001
0000
1000
0001
0000
1000
0010
0000
0100
0001
,
0100
0010
1000
0100
0010
0100
1000
0010
0100
0001
0010
0100
2000
0000
0000
0000
,
3001
0000
0100
0000
0010
1000
0001
0000
0010
0000
0100
1000
,
0010
0000
0000
0000
0000
0000
0000
0000
0100
0000
0000
0000
0000
0000
0000
0000
0010
0000
0000
0000
1000
0000
0000
0000
0001
0000
0000
0010
0000
0000
0100
0000
0000
1000
0000
0000
0000
0000
0000
0001
0000
0000
0100
0000
0000
0010
0000
0000
,
1000
0000
0000
0000
0100
0000
0000
0000
0010
0000
0001
0000
1000
0000
0010
0000
0100
0001
0100
0000
0010
0000
1000
0000
,
0200
0000
0300
0000
0100
0000
0000
0000
0001
0000
0000
0000
0020
0000
0030
0000
0010
0000
0000
0000
1000
0000
0000
0000
0200
0000
0000
0000
0000
0000
0000
0000
0000
0000
0000
0000
1300
0000
0000
0001
0000
0000
0100
0000
0000
0001
0000
0000
,
1000
0000
0001
0020
0030
0010
1000
0000
0001
0200
0300
0100
1000
0001
0100
0010
,
1000
0000
0001
0200
0300
0100
1000
0000
0001
0020
0030
0010
1000
0100
1000
0001
,
0100
0010
1000
0100
0010
0100
1000
0010
0100
0001
0010
0100
0010
0001
0100
0010
,
1000
0000
0001
0000
1000
0000
0001
0000
0000
0010
0000
0000
0100
0000
1000
0000
0100
0000
1000
0000
0000
0001
0000
0000
0100
0000
0000
0010
0000
0000
1000
0000
0000
0100
0000
0000
1000
0000
0001
0000
1000
0000
0001
0000
1000
0000
0001
0000
,
2000
0000
0000
0000
0100
0000
0000
0000
0010
0000
0000
0000
0001
0000
0000
3010
,
0100
0100
0100
0000
0010
1000
1001
0000
,
0001
0000
0000
0010
0000
0000
0001
0000
0000
0000
0000
0000
1000
0000
0000
0010
0000
0000
0000
0000
0000
0100
0000
0000
0001
0000
1000
0000
0001
0000
1000
0000
0000
0001
0000
0000
0010
0000
0000
0001
0000
0000
0100
0000
0000
0000
0000
0000
,
0010
0000
0000
0000
0000
0000
0100
0000
0001
0000
1000
0000
0001
0000
0000
0010
0000
0000
0000
0000
0100
0000
1000
0000
0001
0000
0000
0000
0000
0000
1000
0000
0000
0001
0000
0000
0200
0300
0000
0100
0000
0000
1000
0000
0000
0010
0000
0000
,
0100
0000
0001
0000
0100
0000
0001
0000
0000
1000
0000
0000
0100
0000
0000
1000
0000
0000
0020
0030
0000
0010
0000
0000
0001
0000
0000
1000
0000
0000
0200
0300
0000
0100
0000
0000
0001
0000
1000
0000
0001
0000
0010
0000
0100
0000
1000
0000
,
0002
0000
0000
0000
0003
0000
0000
0000
0000
0000
0000
0000
;
