#TITLE:Corruption;
#SUBTITLE:;
#ARTIST:3R2;
#TITLETRANSLIT:;
#SUBTITLETRANSLIT:;
#ARTISTTRANSLIT:;
#GENRE:;
#CREDIT:;
#MUSIC:Corruption.mp3;
#BANNER:;
#BACKGROUND:;
#CDTITLE:;
#SAMPLESTART:48.040;
#SAMPLELENGTH:20.000;
#SELECTABLE:YES;
#OFFSET:-0.064;
#BPMS:0.000=170.000
,404.000=180.000
;
#STOPS:;
#DISPLAYBPM:170.000;
#ORIGIN:;
#PREVIEWVID:;
#JACKET:;
#CDIMAGE:;
#DISCIMAGE:;
#BGCHANGES:;
#FGCHANGES:;

//--------------- dance-single - Cremie + ZSL ----------------
#NOTES:
     dance-single:
     Cremie + ZSL:
     Medium:
     12:
     0.614932,0.662557,0.308445,0.267319,0.04798,628,583,45,39,12,0,0,0,0,0.614932,0.662557,0.308445,0.267319,0.04798,628,583,45,39,12,0,0,0,0:
0000
0000
0000
0000
,
0000
0000
0000
0000
,
1000
0001
0100
0001
,
1000
0000
0100
0000
0010
0000
0001
1000
,
0001
0000
0100
0010
1000
0010
0100
0000
,
0001
0010
0100
1000
0001
0000
1000
0000
,
0100
0010
0001
1000
,
0010
0000
0100
0000
0001
0000
1000
0100
,
1000
0000
0001
0100
0001
1000
0010
0000
,
1000
0001
1000
0100
0010
0000
0001
0000
,
1001
1000
0010
0100
,
0101
0000
0001
0000
0010
0000
0100
1000
,
0001
0000
0100
0010
1000
0001
0100
0000
,
0001
0010
0100
1000
0010
0000
0100
0000
,
0001
1000
0100
0000
0010
0001
1000
0000
,
0010
0100
0001
0000
1000
0010
0100
0000
,
0001
1000
0100
0010
0001
0100
0010
1000
,
0002
2003
3000
0000
,
1100
0000
1010
0000
1100
0000
0010
0001
,
1001
0000
0110
0000
2002
0000
0000
3003
,
0011
0000
0101
0000
0011
0000
0100
1000
,
1001
0000
0101
0000
0020
2030
3002
1003
,
0100
0000
MMMM
0000
1100
0000
0100
1000
,
2020
0030
3000
0000
0000
0000
0000
0000
0202
0300
0000
0000
0000
0000
0000
0000
0023
0000
0000
0000
0000
0000
0000
0000
0230
0000
0000
0000
0000
0000
0000
0000
,
1300
0010
0100
0000
1000
0100
0010
0000
,
0100
0001
0010
1000
0010
0001
0100
0000
,
0101
0000
0011
0000
0101
0000
0010
1000
,
1001
0000
0110
0000
2002
0000
0000
3003
,
1010
0000
1100
0000
1010
0000
0100
0001
,
1001
0000
1100
0000
0020
0032
2003
3002
,
0103
0000
0001
0100
0101
0000
0100
0001
,
0022
0030
0003
0000
0000
0000
0000
0000
2200
0300
0000
0000
0000
0000
0000
0000
3020
0000
0000
0000
0000
0000
0000
0000
0230
0000
0000
0000
0000
0000
0000
0000
,
0301
0010
0100
0000
0001
0100
0010
0000
,
0100
1000
0010
0001
0010
1000
0100
0000
,
1000
0100
0010
0000
0100
1000
0001
0000
,
0100
0010
1000
0000
0001
0010
0100
0001
,
0100
1000
0010
0000
0100
0010
1000
0000
,
0100
1000
0010
0000
0001
0010
1000
0001
,
0010
0100
1000
0000
0010
1000
0100
0000
,
0010
0001
1000
0000
0001
0100
0010
1000
,
0001
0010
0100
0000
0010
0001
1000
0010
,
0100
0110
0101
1001
,
MMMM
0000
1000
0010
0100
0000
0001
1000
,
0100
0000
0010
0001
1000
0100
0001
0100
,
0010
0001
1000
0000
0010
0100
0001
0000
,
1000
0010
0100
0000
0001
1000
0002
0000
,
1003
0000
1100
1000
0010
0000
0100
0001
,
1000
0000
0100
0010
0001
0100
1000
0100
,
0010
1000
0001
0000
0010
0100
0110
0000
,
0010
0001
0010
0000
0001
0000
1000
0010
1000
0000
0000
0000
0001
0000
0000
0000
,
1000
1000
0010
0010
,
0100
0100
0001
0001
,
0010
0000
0100
1000
0001
1000
0010
0000
,
0100
0001
0100
0010
1000
0001
1000
0000
,
0001
0001
0100
0100
,
0010
0010
1000
1000
,
0100
0010
0100
1000
0001
1000
0001
0000
,
0100
0010
0100
0001
1000
0001
1000
0000
,
0001
0010
0100
1000
0001
0010
0100
1000
,
0001
0100
0010
1000
0001
0100
0010
1000
,
0001
0000
0100
0010
1000
0001
0100
0010
,
1000
0001
0010
0100
1000
0001
0010
0100
,
1000
1001
0010
0110
,
1000
0100
0001
0100
0010
1000
0010
0001
,
0100
0000
0010
1000
0010
0000
1000
0000
0100
0000
0010
0100
0010
0000
0001
0000
,
2000
0000
3001
1000
0001
1000
0000
0000
,
2100
0000
3100
0000
0010
0001
1000
0000
,
0001
0100
0010
1000
0001
0001
0100
0100
,
0010
0000
1000
0000
0001
0010
0100
0000
,
1000
0001
0100
0010
1000
0100
0010
0000
,
1002
0000
1003
0000
0010
1000
0001
0000
,
1000
0100
0010
0001
1000
1000
0100
0100
,
0010
0000
0001
0000
1000
0010
0100
0000
,
0002
0000
2003
0000
3100
0010
0001
0000
,
0100
0100
0000
0010
1010
0000
0001
0000
,
1000
0100
0010
0001
0010
0010
0001
0001
,
0100
0000
0010
0000
1000
0001
0010
0000
,
0001
0000
0000
0100
0000
0000
0010
0000
0000
1000
0000
0000
0001
0000
1000
0000
0001
0000
1000
0000
0000
0000
0000
0000
,
2010
0000
3010
0000
0100
0001
0010
0000
,
0100
1000
0001
0100
0010
0010
1000
1000
,
0100
0010
0001
1000
,
2002
0000
3003
0000
,
0001
0000
0000
0100
0010
0000
1000
0000
0100
0000
0010
0000
1000
0000
0010
0000
,
0001
0000
0000
1000
0010
0000
0100
0000
0001
0000
0100
0000
0010
0000
1000
0000
,
0001
0000
0000
0100
0010
0000
1000
0000
0100
0000
0001
0000
0100
0000
1000
0000
,
0001
0000
0000
1000
0100
0000
0010
0000
0100
0000
1000
0000
0001
0000
1000
0000
,
0010
0000
0000
1000
0010
0000
1000
0000
0001
0000
0100
0000
1000
0000
0100
0000
,
0001
0000
0000
1000
0001
0000
0100
0000
0010
0000
0100
0000
0001
0000
1000
0000
,
0100
0000
0000
0010
0100
0000
0010
0000
0001
0000
1000
0000
0010
0000
0100
0001
,
0100
0101
1010
1001
,
MMMM
0000
0001
0100
0010
1000
0100
0010
,
0100
0001
0100
1000
0001
0100
0010
0000
,
1000
0100
0010
0100
1000
0010
0100
0001
,
0010
0100
1000
0001
0100
0010
2000
0000
,
3010
0000
1000
0100
0010
0100
1000
0010
,
0001
0010
1000
0001
0010
0100
1000
0000
,
0001
0100
0010
1000
0100
0010
0001
0000
,
1000
0010
0100
0001
1000
0100
0001
0100
,
2000
0000
0000
0000
,
0000
0000
0000
0000
,
0000
0000
0000
0000
,
3002
0203
0320
0030
;

//--------------- dance-single - Cremie + ZSL ----------------
#NOTES:
     dance-single:
     Cremie + ZSL:
     Hard:
     16:
     0.804895,0.976401,0.534638,0.52093,0.448959,822,744,78,76,12,0,6,0,0,0.804895,0.976401,0.534638,0.52093,0.448959,822,744,78,76,12,0,6,0,0:
0000
0000
0000
0000
,
0000
0000
0000
0000
,
1000
0100
0010
0001
,
1000
0000
0000
0000
0010
0000
0000
0000
0100
0000
0000
0000
0001
0000
1000
0001
,
1000
0000
0100
0010
0001
0010
0100
0000
,
1000
0010
0100
0001
0100
0010
2000
0000
,
3001
0100
0010
1000
,
0001
0000
0000
0000
0010
0000
0000
0000
0100
0000
0000
0000
1000
0000
0001
1000
,
0001
0000
0100
0010
1000
0010
0100
0000
,
0001
0010
0100
1000
0100
0010
0001
0000
,
1001
1000
1010
0010
,
0110
0000
0000
0000
0100
0000
0000
0000
0101
0000
0000
0000
0001
0000
1000
0100
,
0010
0000
0001
0100
0010
1000
0100
0000
,
1000
0010
0100
0001
0010
0001
1000
0000
,
1001
0001
0100
0010
1000
0100
0001
0100
,
1100
1000
0010
0100
0001
0100
1000
0100
,
0001
1000
0010
0100
0001
0000
0100
0000
0001
0010
0100
1000
0010
0100
0001
1000
,
0200
0320
0030
0000
,
0022
0030
0003
0000
0000
0000
0000
0000
2020
0030
3000
0000
0000
0000
0000
0000
0022
0003
0030
0000
0000
0000
0000
0000
0001
0000
0000
0000
1000
0000
0000
0000
,
0110
0000
0000
0000
1001
0000
0000
0000
0001
0010
0001
0010
0100
1000
0100
1000
,
0010
0000
0000
0000
0000
0000
0000
0000
0202
0003
0300
0000
0000
0000
0000
0000
2020
0030
0000
0000
0000
0000
0000
0000
3100
0000
0000
0000
0010
0000
0000
0000
,
0022
0030
0003
0000
0000
0000
0000
0000
2020
3000
0030
0000
0000
0000
0000
0000
0210
0000
0000
0000
0010
0000
0000
0000
0302
0000
0000
0000
1003
0000
0000
0000
,
1001
0000
0000
0000
0000
0000
0000
0000
MMMM
0000
0000
0000
0000
0000
0000
0000
0220
0300
0030
0000
0000
0000
0000
0000
0100
0000
0000
0000
0010
0000
0000
0000
,
1001
0000
0000
0000
0000
0000
0000
0000
0000
0000
0000
0000
1010
0000
0000
0000
0000
0000
0000
0000
0000
0000
0000
0000
0010
0000
0000
0100
0000
0000
0010
0000
0000
0100
0000
0000
0001
0000
0000
0000
0010
0000
0000
0000
0100
0000
0000
0000
,
1000
0000
0000
0000
1010
0000
0100
0000
0000
0000
0101
0000
0001
0010
0001
0010
,
0100
0000
1000
0010
1000
0000
0100
0000
0010
0001
0010
0001
1000
0000
0000
0000
,
2020
0030
3000
0000
0000
0000
0000
0000
0022
0030
0003
0000
0000
0000
0000
0000
2020
3000
0030
0000
0000
0000
0000
0000
1000
0000
0000
0000
0001
0000
0000
0000
,
0110
0000
0000
0000
1001
0000
0000
0000
1000
0010
1000
0010
0100
0001
0100
0001
,
0010
0000
0000
0000
0000
0000
0000
0000
2200
3000
0300
0000
0000
0000
0000
0000
0022
0030
0000
0000
0000
0000
0000
0000
0103
0000
0000
0000
0010
0000
0000
0000
,
2020
0030
3000
0000
0000
0000
0000
0000
0022
0003
0030
0000
0000
0000
0000
0000
0210
0000
0000
0000
0010
0000
0000
0000
2300
0000
0000
0000
3001
0000
0000
0000
,
1001
0000
0000
0000
0000
0000
0000
0000
0001
0000
0000
0000
0100
0000
0000
0000
0220
0300
0030
0000
0000
0000
0000
0000
0100
0000
0000
0000
0010
0000
0000
0000
,
1001
0000
0000
0000
0000
0000
0011
0000
0000
0000
0000
0000
0010
0000
0100
0000
1000
0000
0010
0000
0000
1000
0000
0000
,
0001
0000
0000
0000
0011
0000
0100
0000
0000
0000
1100
0000
1000
0010
1000
0010
,
0100
0000
0001
0010
0001
0000
0100
0000
0010
1000
0010
1000
0001
0000
0000
0000
,
1000
0100
0110
0000
0001
0100
0110
0000
,
0010
0000
1000
0000
1001
0000
0000
0000
0001
0000
0100
0000
1000
0100
0010
1000
,
0010
1000
1001
0000
0001
0010
0110
0000
,
0100
0000
1000
0000
1001
0000
0000
0000
0001
0100
0010
1000
0100
1000
0010
0100
,
0001
1000
1100
0000
0010
0001
0101
0000
,
0100
0000
0010
0000
1001
0000
0000
0000
1000
0000
0100
0000
0001
0100
0010
0001
,
0010
0000
0001
0000
1001
0000
0000
0000
1000
0000
0010
0000
0110
0000
0100
0001
,
1000
1100
0110
0011
,
MMMM
0000
1001
0001
0100
0000
1010
1000
,
0100
0000
0000
0000
0110
0000
0100
0000
1000
0000
0001
0000
0100
1000
0100
0010
,
1000
0001
1001
0000
1000
0010
0110
0000
,
0001
0000
0000
0000
0000
0000
0010
0000
0000
0000
0000
0000
0110
0000
0000
0000
0000
0000
0000
0000
0000
0000
0000
0000
0100
0000
0000
0010
0000
0000
0001
0000
0000
0100
0000
0000
0001
0000
0000
0000
1000
0000
0000
0000
0010
0000
0000
0000
,
0100
0000
0110
0010
1000
0000
1100
0010
,
0001
0000
0000
0000
0101
0000
0010
0000
1000
0000
0100
0000
0001
0100
0010
0001
,
1000
0001
1001
0000
1000
0010
0110
0000
,
0001
0010
0100
1000
0001
0010
0100
1000
0010
0000
0000
0000
1000
0000
0000
0000
,
2100
0100
0010
0010
,
0001
0000
0000
0000
3001
0000
0000
0000
1001
0000
0000
0000
1001
0000
1000
0001
,
0100
0000
0001
0010
1000
0010
0100
0000
,
0010
1000
0010
0001
1000
0010
0100
0000
,
0102
0100
0010
0010
,
1000
0000
0000
0000
1003
0000
0000
0000
1001
0000
0000
0000
1001
0000
0001
1000
,
0010
0100
0020
0100
0130
1000
0100
0001
,
0020
0100
0230
1000
1300
0010
0200
0000
,
0301
0000
1000
0000
0001
0000
0010
0000
1000
0000
0010
0000
0100
0000
1000
0001
,
1000
0000
0010
0000
0100
0000
1000
0000
0100
0000
0010
0000
1000
0000
0001
0010
,
0100
0000
2000
0001
3002
0403
0320
4030
,
3001
0010
0100
0001
0400
4300
3004
0403
,
0310
0000
0100
0001
0010
0000
0100
0010
0001
0000
0100
0010
1000
0000
0100
0010
,
0001
0000
0100
0010
1000
0000
0010
1000
0100
0000
1000
0100
0010
0000
0001
0000
,
0100
0010
0100
0010
1000
0001
1000
0001
0010
0100
0010
0100
1000
0001
1000
0001
,
2000
0000
0001
0001
0001
0001
3000
0000
,
2100
0000
0000
0000
3010
0000
0000
0000
0100
0000
0001
1000
0100
0000
0010
0000
,
0001
0100
1000
0200
0001
0320
1000
0130
,
0002
0000
0000
0000
2003
0000
0000
0000
3100
0000
0010
0001
1000
0000
0010
0000
,
0100
0000
0001
0000
1000
0000
0100
0000
0010
0001
0200
0000
0301
0000
0000
0000
,
0102
0000
0000
0000
0013
0000
0000
0000
0100
0000
1000
0001
0100
0000
0010
0000
,
1000
0100
0001
0200
1000
0320
0001
0130
,
2000
0000
0000
0000
3002
0000
0000
0000
0103
0000
0010
1000
0001
0000
0010
0000
,
0200
0000
0000
0000
1300
0000
0001
0000
0100
0001
0010
0000
0100
0000
1000
0000
,
0001
0000
0001
0000
0000
0000
1000
0000
1001
0000
0001
0100
0010
0000
1000
0000
,
0100
0010
0001
0200
1000
0320
1000
0130
,
0002
0000
0000
0000
0023
0000
0000
0000
0130
0000
1000
0001
0100
0000
0001
0000
,
0010
0000
0000
0001
0000
0000
1000
0000
0000
0100
0000
0000
0010
0000
1000
0000
0010
0000
0001
0000
0000
0000
0000
0000
,
0012
0000
0000
0000
0103
0000
0000
0000
0010
0000
1000
0100
0010
0000
0001
0000
,
0100
0010
1000
0200
0001
0320
0001
0130
,
2100
3001
0102
1003
,
0001
1000
0001
1000
0001
1000
0020
0000
0000
0030
0000
0000
,
1000
0000
0100
0010
0100
0000
1000
0000
0010
0000
0100
0001
1000
0000
0100
0000
,
0001
0000
0100
0010
0001
0000
1000
0000
0010
0000
0100
0000
0001
0010
0100
0010
,
0001
0000
0100
0010
1000
0000
0001
0000
0010
0000
0100
1000
0001
0000
0100
0000
,
1000
0000
0100
0010
1000
0000
0001
0000
0010
0100
0010
0100
1000
0001
1000
0001
,
1000
0000
0001
0100
0010
0000
0001
0000
0010
0000
1000
0001
1000
0000
0100
0000
,
0010
0000
1000
0010
0100
0000
0010
0000
0100
0000
1000
0000
0001
0100
0010
1000
,
0100
0000
0001
0100
0010
0000
0100
0000
1000
0000
0001
1000
0001
0000
0100
0010
,
1000
1010
0101
1001
,
MMMM
0000
0000
0000
1000
0000
0001
0100
0010
0000
0100
0000
0001
0000
0010
0100
,
1000
0000
0001
0000
0100
0000
1000
0100
0010
0000
1000
0000
0001
0100
0001
0010
,
0100
0000
1000
0001
0100
0000
0010
0000
1000
0000
0100
0001
0100
0000
0010
0000
,
0100
0000
0000
0000
0000
0000
1000
0000
0000
0010
0000
0000
0100
0000
0000
0000
0000
0000
1000
0000
0000
0000
0000
0000
0100
0000
0000
0001
0000
0000
1000
0000
0000
0100
0000
0000
0010
0000
0000
0000
0001
0000
0000
0000
0010
0000
0000
0000
,
0200
0000
0000
0000
1300
0000
0100
1000
0010
0000
0100
0000
0001
0000
1000
0001
,
0010
0000
0100
0000
1000
0000
0100
0010
1000
0000
0010
0000
0100
1000
0001
0100
,
0010
0000
1000
0100
0010
0000
0100
0000
0001
0000
0100
1000
0001
0000
0100
0000
,
0010
1000
0100
0000
0010
0001
0100
0000
1000
0100
0001
0000
1000
0010
0001
0000
,
0020
0000
0000
0000
,
0000
0000
0000
0000
,
0000
0000
0000
0000
,
2030
3002
0023
0030
;
