#VERSION:0.83;
#TITLE:Come Sail Away;
#SUBTITLE:(Impromptu Acapella);
#ARTIST:Eric Cartman feat. Kyle Broflovski;
#TITLETRANSLIT:;
#SUBTITLETRANSLIT:;
#ARTISTTRANSLIT:;
#GENRE:;
#ORIGIN:;
#CREDIT:;
#BANNER:Come Sail Away (Impromptu Acapella).png;
#BACKGROUND:Come Sail Away (Impromptu Acapella)-bg.png;
#PREVIEWVID:;
#JACKET:Come Sail Away (Impromptu Acapella)-jacket.png;
#CDIMAGE:;
#DISCIMAGE:;
#LYRICSPATH:;
#CDTITLE:;
#MUSIC:Come Sail Away (Impromptu Acapella).ogg;
#OFFSET:-4.453000;
#SAMPLESTART:44.598000;
#SAMPLELENGTH:12.000000;
#SELECTABLE:YES;
#BPMS:0.000=141.197,
0.354=173.931,
1.000=295.515,
1.542=109.494,
2.000=260.433,
3.000=292.958,
4.000=360.589,
5.000=208.465,
5.771=207.876,
6.000=238.615,
7.000=200.698,
8.000=167.840,
8.333=181.781,
9.000=331.787,
10.000=204.957,
11.000=334.810,
12.000=213.078,
13.000=267.868,
14.000=99.732,
15.000=228.675,
16.000=228.655,
17.000=208.330,
18.000=234.367,
19.000=89.174,
19.854=88.200,
20.000=219.603,
21.000=260.407,
22.000=246.713,
23.000=292.958,
24.000=292.991,
25.000=312.507,
26.000=360.540,
27.000=334.852,
28.000=468.733,
29.000=302.400,
30.000=126.700,
31.000=302.469,
32.000=121.756,
33.000=176.883,
34.000=390.611,
35.000=468.733,
36.000=323.274,
37.000=446.432,
38.000=852.448,
39.000=669.534,
40.000=302.435,
41.000=235.787,
42.000=45.409,
44.000=47.346,
45.000=80.489,
45.500=76.346,
46.000=115.917,
46.750=61.678,
47.000=73.122,
48.000=55.818,
48.500=112.615,
48.750=116.770,
49.000=145.529,
49.500=118.030,
50.000=42.918,
50.500=101.989,
50.750=135.664,
51.000=72.254,
51.667=65.102,
52.000=17.014,
53.000=68.430,
54.000=121.756,
55.000=64.212,
56.000=190.319,
57.000=126.307,
57.333=198.828,
57.667=140.245,
58.000=180.282,
59.000=235.242,
59.250=244.909,
59.500=159.072,
60.000=315.225,
61.000=316.242,
61.667=269.725,
62.000=241.876,
62.667=344.531,
63.000=206.075,
63.667=176.860,
64.000=141.165,
64.375=160.447,
64.667=308.932,
65.000=167.787,
65.500=170.930,
66.000=147.196,
66.292=146.587,
66.667=260.024,
67.000=175.775,
67.750=180.294,
68.000=312.507,
69.000=191.118,
69.479=180.606,
69.667=186.233,
70.000=218.119,
71.000=302.400,
72.000=347.244,
73.000=321.078,
74.000=237.693,
74.500=274.424,
75.000=161.637,
76.000=334.810,
77.000=161.637,
77.500=159.571,
78.000=152.305,
79.000=95.195,
79.833=130.204,
80.000=123.639,
81.000=332.746,
82.000=349.215,
83.000=236.018,
83.333=174.033,
84.000=376.226,
85.000=384.649,
86.000=338.883,
86.500=167.214,
87.000=322.959,
88.000=381.928,
89.000=363.661,
89.500=159.705,
90.000=334.471,
91.000=400.424,
92.000=418.406,
92.500=82.869,
93.000=337.070,
94.000=323.274,
95.000=380.939,
96.000=298.646,
97.000=269.267,
97.750=313.656,
98.000=300.102,
98.667=325.942,
99.000=412.406,
100.000=299.830,
101.000=371.473,
102.000=337.672,
103.000=375.000,
104.000=261.851,
105.000=340.584,
106.000=318.080,
106.750=303.162,
107.000=294.393,
108.000=424.379,
109.000=528.671,
110.000=387.977,
111.000=375.000,
112.000=323.274,
113.000=207.042,
114.000=440.633,
115.000=352.894,
116.000=303.614,
117.000=458.738,
118.000=389.519,
119.000=367.704,
120.000=407.641,
121.000=468.733,
122.000=407.641,
123.000=446.356,
124.000=302.435,
125.000=334.810,
126.000=153.223,
127.000=254.668,
128.000=323.274,
129.000=334.810,
130.000=407.641,
131.000=334.810,
132.000=360.589,
133.000=471.574,
134.000=345.656,
135.000=375.000,
136.000=270.110,
137.000=343.369,
138.000=107.935,
138.750=198.947,
139.000=239.804,
139.667=208.314,
140.000=360.589,
141.000=226.212,
142.000=278.702,
143.000=263.686,
143.750=252.192,
144.000=317.013,
144.750=198.947,
145.000=292.505,
146.000=422.077,
147.000=227.294,
147.750=300.409,
148.000=180.294,
148.500=184.236,
149.000=256.445,
150.000=240.425,
150.667=260.331,
151.000=240.327,
151.333=231.496,
152.000=186.522,
152.500=168.535,
153.000=269.890,
153.250=89.861,
154.000=365.369,
155.000=389.863,
156.000=364.162,
157.000=338.796,
158.000=390.611,
159.000=426.156,
160.000=406.889,
161.000=375.586,
162.000=375.000,
163.000=407.641,
164.000=227.868,
165.000=159.282,
166.000=323.274,
167.000=375.000,
168.000=334.810,
169.000=360.589,
170.000=375.000,
171.000=360.540,
172.000=390.669,
173.000=468.733,
174.000=375.000,
175.000=347.199,
176.000=232.227,
177.000=75.832,
178.000=61.999;
#STOPS:;
#DELAYS:;
#WARPS:;
#TIMESIGNATURES:0.000=4=4;
#TICKCOUNTS:0.000=4;
#COMBOS:0.000=1;
#SPEEDS:0.000=1.000=0.000=0;
#SCROLLS:0.000=1.000;
#FAKES:;
#LABELS:0.000=Song Start;
#BGCHANGES:0.000=Come Sail Away (impromptu Acapella).mp4=1.000=0=0=0=StretchNoLoop==CrossFade_Fastest==,
180.000=Come Sail Away (Impromptu Acapella)-bg.png=1.000=1=0=1===CrossFade==,
99999=-nosongbg-=1.000=0=0=0 // don't automatically add -songbackground-
;
#KEYSOUNDS:;
#ATTACKS:
;

//---------------dance-single - ----------------
#NOTEDATA:;
#CHARTNAME:;
#STEPSTYPE:dance-single;
#DESCRIPTION:;
#CHARTSTYLE:;
#DIFFICULTY:Hard;
#METER:14;
#RADARVALUES:0.443765,0.658465,0.098095,0.228889,0.204365,190.000000,184.000000,6.000000,14.000000,8.000000,0.000000,0.000000,0.000000,0.000000,0.443765,0.658465,0.098095,0.228889,0.204365,190.000000,184.000000,6.000000,14.000000,8.000000,0.000000,0.000000,0.000000,0.000000;
#CREDIT:;
#NOTES:
// measure 0
0000
0000
0000
0000
,  // measure 1
0000
0000
0000
0000
,  // measure 2
0000
0000
0000
0000
,  // measure 3
0000
0000
0000
0000
,  // measure 4
0000
0000
0000
0000
,  // measure 5
0000
0000
0000
0000
,  // measure 6
0000
0000
0000
0000
,  // measure 7
0000
0000
0000
0000
,  // measure 8
0000
0000
0000
0000
,  // measure 9
0000
0000
0000
0000
,  // measure 10
0000
0000
0000
0000
,  // measure 11
2000
0000
0000
0000
3100
0000
0020
0000
0000
0000
0000
0130
2000
0000
0000
0000
,  // measure 12
0000
0000
0000
0000
0000
0000
3001
0000
0000
0100
0000
0000
0010
0000
0000
0000
0000
0000
0100
0000
0000
0000
0000
0000
0002
0000
0000
0000
0000
0000
0013
0000
0000
0100
0000
0000
2000
0000
0000
0000
0000
0000
3000
0000
0001
0000
0000
0000
,  // measure 13
0020
0030
00M0
0000
MMMM
0000
MMM0
0000
,  // measure 14
0010
0000
0000
0000
0000
0000
0000
0000
0000
0000
0000
0000
0100
0000
0000
0000
1000
0000
0000
0000
0100
0000
0000
0000
1000
0000
0000
0000
0000
0000
0000
0000
0000
0000
0000
0000
0001
0000
0000
1000
0000
0000
0001
0000
0000
0000
0000
0000
,  // measure 15
0010
0000
0000
0000
0100
0000
1000
0100
0000
0000
0000
0100
0010
0000
0000
0010
,  // measure 16
0001
1000
0000
0000
1000
0000
0010
0000
0100
0001
0000
0100
0010
0000
0000
1000
,  // measure 17
0100
0000
0000
0010
0000
0100
0010
0100
0000
1000
0000
0000
,  // measure 18
0001
0000
0100
0000
0010
1000
1001
0000
,  // measure 19
0001
0000
0010
0001
1001
0000
0002
0000
,  // measure 20
0103
0000
0000
0010
0000
0000
0010
0000
0000
1000
0100
0000
,  // measure 21
0010
0000
0010
0000
0001
0100
0010
0000
,  // measure 22
0010
0000
1000
0100
0010
0000
0010
0000
,  // measure 23
0001
0100
0020
0000
2030
0000
3200
0000
,  // measure 24
0302
0000
0203
0000
1300
0010
0000
0010
,  // measure 25
0100
1000
0100
0001
,  // measure 26
1000
0000
0000
0000
0100
0000
0000
0000
0010
0000
0000
0100
0010
0000
0000
0000
,  // measure 27
0100
1000
0010
0100
,  // measure 28
0001
0020
0130
0010
,  // measure 29
0001
0000
1000
0010
1000
0000
0001
0000
,  // measure 30
1000
0100
1000
0000
0001
0000
0100
0010
,  // measure 31
0100
0001
1000
0100
,  // measure 32
0010
0000
0001
1000
0001
0000
0100
0000
,  // measure 33
0001
1000
0001
0000
0010
0000
0100
1000
,  // measure 34
0100
0000
0000
0000
0010
0000
0000
0000
0001
0000
0000
1000
0010
0000
0100
0000
,  // measure 35
0010
0000
1000
0000
0001
0000
0000
0000
0001
0000
0000
0000
0010
0000
0000
0100
,  // measure 36
1000
0000
0000
0100
1000
0000
0000
0000
0001
0000
0000
0000
0100
0000
0000
0010
,  // measure 37
0100
0000
0001
0000
1000
0000
0000
0000
0100
0000
0000
0010
0100
0010
0000
0000
,  // measure 38
0001
0000
0100
0000
0010
0200
0000
0000
0310
0000
0000
0000
1000
0000
0001
0000
,  // measure 39
0010
0000
0100
0000
1000
0001
0100
0000
,  // measure 40
0010
0000
1000
0100
0010
0000
0001
0000
,  // measure 41
0100
0000
0110
0000
0010
0000
0100
0001
,  // measure 42
1000
0000
0100
0000
0010
0001
0100
0000
,  // measure 43
0010
0000
1000
0100
0010
0000
0001
0000
,  // measure 44
0100
0110
1001
1001
;

//---------------dance-single - ----------------
#NOTEDATA:;
#CHARTNAME:;
#STEPSTYPE:dance-single;
#DESCRIPTION:;
#CHARTSTYLE:;
#DIFFICULTY:Challenge;
#METER:16;
#RADARVALUES:0.474127,0.695046,0.294286,0.228889,0.228889,203.000000,185.000000,18.000000,14.000000,17.000000,0.000000,0.000000,0.000000,0.000000,0.474127,0.695046,0.294286,0.228889,0.228889,203.000000,185.000000,18.000000,14.000000,17.000000,0.000000,0.000000,0.000000,0.000000;
#CREDIT:;
#NOTES:
0000
0000
0000
0000
,
0000
0000
0000
0000
,
0000
0000
0000
0000
,
0000
0000
0000
0000
,
0000
0000
0000
0000
,
0000
0000
0000
0000
,
0000
0000
0000
0000
,
0000
0000
0000
0000
,
0000
0000
0000
0000
,
0000
0000
0000
0000
,
0000
0000
0000
0000
,
2000
0000
0000
0000
0000
0000
3100
0000
0000
0020
0000
0000
0000
0000
0000
0030
0100
0000
0002
0000
0000
0000
0000
0000
,
0000
0000
0000
0000
0000
0000
0103
0000
0000
1000
0000
0000
0010
0000
0000
0000
0000
0000
0001
0000
0000
0000
0000
0000
0020
0000
0000
0000
0000
0000
1030
0000
0000
0010
0000
0000
0100
0000
0000
0000
0000
0000
0000
0000
0100
0000
0000
0000
,
2000
3000
M000
0000
MMMM
0000
MMMM
0000
,
0001
0000
0000
0000
0000
0000
0000
0000
0000
0000
0000
0000
0100
0000
0000
0000
0001
0000
0000
0000
1000
0000
0000
0000
0100
0000
0000
0000
0000
0000
0000
0000
0000
0000
0000
0000
0100
0000
0000
0010
0000
0000
1000
0000
0000
0000
0000
0000
,
0001
0000
0000
0000
1000
0000
0010
0100
0000
0000
0000
0100
1000
0000
0000
0010
,
0100
1000
0000
1000
0100
0000
0001
0000
0010
0100
0000
0010
1000
0000
0000
0010
,
0001
0000
0000
0000
0000
0000
0001
0000
0000
0010
0100
0000
1000
0000
0000
0000
0000
0000
0001
0000
0000
0000
0000
0000
,
0100
0000
0010
0000
1000
0100
0110
0000
,
0010
0000
0000
0000
0000
0000
0001
0000
0000
0100
0000
0000
0110
0000
0000
0000
0000
0000
0002
0000
0000
0000
0000
0013
,
2000
0000
0000
3000
0000
0000
1100
0000
0000
0000
0000
0000
0100
0000
0000
0000
0000
0000
0010
0000
0100
0000
0000
0000
,
1100
0000
1000
0000
0010
0100
0101
0000
,
0001
0000
0010
0100
0110
0000
0010
0000
,
0001
0100
2000
0000
3200
0000
0302
0000
,
0023
0000
0000
0000
2030
0000
3000
1000
0010
0000
0000
0010
0001
0000
0000
0000
,
0100
1000
0100
0001
,
0010
0000
0000
0000
1000
0000
0000
0000
0010
0000
0000
0001
0100
0000
0000
0000
,
1000
0100
0010
1000
,
0100
0002
0103
1000
,
1010
0000
1000
0010
0100
0000
0101
0000
,
0001
1000
0100
0000
0110
0000
0010
0001
,
1000
0010
0100
0001
,
1001
0000
1000
0100
0010
0000
0011
0000
,
0001
0100
0010
0000
1010
0000
1000
0001
,
0010
0000
0000
0000
0100
0000
0000
0000
1000
0000
0000
0001
0100
0000
0010
0000
,
0100
0000
0001
0000
1000
0000
0000
0000
0100
0000
0000
0000
0010
0000
0000
0100
,
1000
0000
0000
0001
0100
0000
0000
0000
0010
0000
0000
0000
1000
0000
0000
0001
,
0010
0000
0100
0000
0010
0000
0000
0000
1000
0000
0000
0010
0100
1000
0000
0000
,
0001
0000
0100
0000
1000
0100
0000
0000
0101
0000
0000
0000
0001
0000
0010
0000
,
1000
0000
1010
0000
1000
0010
0100
0000
,
1100
0000
1000
0010
0001
0000
0010
0000
,
0100
0000
0001
0000
1100
0000
1000
0100
,
0001
0000
0101
0000
0100
0010
0001
0000
,
0101
0000
0001
0100
1000
0000
0100
0000
,
0001
0000
0020
0030
MMMM
0000
MMMM
0000
;

//---------------dance-single - Copied from----------------
#NOTEDATA:;
#CHARTNAME:Copied from;
#STEPSTYPE:dance-single;
#DESCRIPTION:Copied from;
#CHARTSTYLE:;
#DIFFICULTY:Edit;
#METER:18;
#RADARVALUES:0.611928,0.731628,0.261588,0.228889,0.326984,262.000000,246.000000,16.000000,14.000000,17.000000,0.000000,0.000000,0.000000,0.000000,0.611928,0.731628,0.261588,0.228889,0.326984,262.000000,246.000000,16.000000,14.000000,17.000000,0.000000,0.000000,0.000000,0.000000;
#CREDIT:Copied from;
#NOTES:
1000
0010
0000
0000
0110
0000
0000
0100
0001
0000
0000
0000
1000
0000
0000
0000
,
0100
0000
0010
0010
0000
0000
0000
0000
,
0001
0100
0000
0000
0010
0000
0000
0000
0100
0000
0000
0000
0001
0000
0000
0000
,
1000
0000
0000
1000
0100
0000
0000
0000
0010
0000
0000
0000
0100
0000
0000
0000
,
1000
0000
0000
0001
0100
0000
0000
0000
0010
0000
0000
0000
0100
0000
0000
0001
,
1000
0000
0000
1000
0000
0100
0000
0010
0000
0100
0000
1000
0000
0001
0000
0000
,
0001
0100
1000
0001
,
0100
0010
0100
0001
,
1000
0100
0000
0000
,
0000
0000
0000
0000
,
0000
0000
0000
0000
,
2000
0000
0000
0000
0000
0000
3100
0000
0000
0020
0000
0000
0000
0000
0000
0030
0100
0000
0002
0000
0000
0000
0000
0000
,
0000
0000
0000
0000
0000
0000
0103
0000
0000
1000
0000
0000
0010
0000
0000
0000
0000
0000
0001
0000
0000
0000
0000
0000
0020
0000
0000
0000
0000
0000
1030
0000
0000
0010
0000
0000
0100
0000
0000
0000
0000
0000
0000
0000
0100
0000
0000
0000
,
2000
3000
M000
0000
MMMM
0000
MMMM
0000
,
0001
0000
0000
0000
0000
0000
0000
0000
0000
0000
0000
0000
0100
0000
0000
0000
0001
0000
0000
0000
1000
0000
0000
0000
0100
0000
0000
0000
0000
0000
0000
0000
0000
0000
0000
0000
0100
0000
0000
0010
0000
0000
1000
0000
0000
0000
0000
0000
,
0001
0000
0000
0000
1000
0000
0010
0100
0000
0000
0000
0100
1000
0000
0000
0010
,
0100
1000
0000
1000
0100
0000
0001
0000
0010
0100
0000
0010
1000
0000
0000
0010
,
0001
0000
0000
0000
0000
0000
0001
0000
0000
0010
0100
0000
1000
0000
0000
0000
0000
0000
0001
0000
0000
0000
0000
0000
,
0100
0000
0010
0000
1000
0100
0110
0000
,
0010
0000
0000
0000
0000
0000
0001
0000
0000
0100
0000
0000
0110
0000
0000
0000
0000
0000
0002
0000
0000
0000
0000
0013
,
2000
0000
0000
3000
0000
0000
1100
0000
0000
0000
0000
0000
0100
0000
0000
0000
0000
0000
0010
0000
0100
0000
0000
0000
,
1100
0000
1000
0000
0010
0100
0101
0000
,
0001
0000
0010
0100
0110
0000
0010
0000
,
0001
0100
2000
0000
3200
0000
0302
0000
,
0023
0000
0000
0000
2030
0000
3000
1000
0010
0000
0000
0010
0001
0000
0000
0000
,
0100
1000
0100
0001
,
0010
0000
0000
0000
1000
0000
0000
0000
0010
0000
0000
0001
0100
0000
0000
0000
,
1000
0100
0010
1000
,
0100
0002
0103
1001
,
1000
0010
0100
0010
1000
0000
0100
0010
,
0001
1000
0100
0000
0110
0000
0010
0001
,
1000
0001
0100
0010
0100
0000
0001
0000
,
1000
0010
1000
0100
0010
0000
0001
0010
,
0001
0100
0010
0000
0010
1000
0001
0010
,
0100
0000
0000
0000
0110
0000
0000
0000
1000
0000
0000
0001
0100
0000
0010
0000
,
0100
0000
0001
0000
1000
0000
0000
0000
0100
0000
0000
0000
0010
0000
0000
0100
,
1000
0000
0000
0001
0100
0000
0000
0000
0010
0000
0000
0000
1000
0000
0000
0001
,
0010
0000
0100
0000
0010
0000
0000
0000
1000
0000
0000
0010
0100
1000
0000
0000
,
0001
0000
0100
0000
1000
0100
0000
0000
0101
0000
0100
0000
0001
0000
0010
0000
,
1000
0000
1010
0010
1000
0010
0100
0000
,
1100
0100
1000
0010
0001
0010
0100
0000
,
0100
0000
0001
0000
1100
0100
1000
0100
,
0001
0100
0101
0100
0010
0001
0100
0001
,
0101
0001
0010
0100
1000
0010
0100
0001
,
0010
0100
2000
3000
MMMM
0000
MMMM
0000
;

//---------------dance-single - ----------------
#NOTEDATA:;
#CHARTNAME:;
#STEPSTYPE:dance-single;
#DESCRIPTION:;
#CHARTSTYLE:;
#DIFFICULTY:Medium;
#METER:12;
#RADARVALUES:0.362018,0.475558,0.261588,0.261588,0.032698,155.000000,139.000000,16.000000,16.000000,0.000000,0.000000,0.000000,0.000000,0.000000,0.362018,0.475558,0.261588,0.261588,0.032698,155.000000,139.000000,16.000000,16.000000,0.000000,0.000000,0.000000,0.000000,0.000000;
#CREDIT:;
#NOTES:
// measure 0
0000
0000
0000
0000
,  // measure 1
0000
0000
0000
0000
,  // measure 2
0000
0000
0000
0000
,  // measure 3
0000
0000
0000
0000
,  // measure 4
0000
0000
0000
0000
,  // measure 5
0000
0000
0000
0000
,  // measure 6
0000
0000
0000
0000
,  // measure 7
0000
0000
0000
0000
,  // measure 8
0000
0000
0000
0000
,  // measure 9
0000
0000
0000
0000
,  // measure 10
0000
0000
0000
0000
,  // measure 11
2000
0000
3100
0200
0000
0000
0320
0000
,  // measure 12
0030
0000
0000
0001
0000
0000
0001
0000
0000
0100
0000
0000
0020
0000
0000
0100
0000
0000
0230
0000
0000
0000
0001
0000
,  // measure 13
0302
0003
0000
0000
0000
0000
0000
0000
,  // measure 14
0020
0000
0000
0130
1000
0100
1000
0000
0000
0001
0000
0000
,  // measure 15
0100
0000
0010
1000
,  // measure 16
0100
0010
0010
0100
,  // measure 17
1000
0001
0100
0010
,  // measure 18
0100
0001
1000
0200
,  // measure 19
0300
0100
1000
0001
0200
0000
0320
0000
,  // measure 20
1030
1000
0100
1100
,  // measure 21
0001
0100
0101
1000
,  // measure 22
0010
1010
0001
0010
,  // measure 23
0011
2000
3200
0302
,  // measure 24
0203
1300
0001
0100
,  // measure 25
0010
0100
0001
0010
,  // measure 26
0100
1000
0010
0100
,  // measure 27
0001
0001
1000
0010
,  // measure 28
1000
0002
0003
0000
,  // measure 29
0011
0010
0100
1100
,  // measure 30
1000
0010
0110
0100
,  // measure 31
0001
1000
0100
0100
,  // measure 32
0110
0010
0001
0101
,  // measure 33
0100
0010
1010
1000
,  // measure 34
0100
0010
0001
0001
,  // measure 35
0100
0010
0100
0001
,  // measure 36
0001
1000
0100
0010
,  // measure 37
0100
1000
0010
0100
,  // measure 38
0001
0000
0010
0000
0000
0020
0000
0030
0110
0000
0000
0000
1000
0000
0000
0000
,  // measure 39
0001
0110
0001
1000
,  // measure 40
1001
0000
0001
0010
0100
0000
1000
0000
,  // measure 41
0001
0100
0110
0001
,  // measure 42
0010
0110
1000
0010
,  // measure 43
1001
0000
0001
0100
0010
0000
1000
0000
,  // measure 44
0100
0100
0010
0010
;

//---------------dance-single - ----------------
#NOTEDATA:;
#CHARTNAME:;
#STEPSTYPE:dance-single;
#DESCRIPTION:;
#CHARTSTYLE:;
#DIFFICULTY:Easy;
#METER:10;
#RADARVALUES:0.252245,0.329232,0.212540,0.098095,0.008175,108.000000,95.000000,13.000000,6.000000,0.000000,0.000000,0.000000,0.000000,0.000000,0.252245,0.329232,0.212540,0.098095,0.008175,108.000000,95.000000,13.000000,6.000000,0.000000,0.000000,0.000000,0.000000,0.000000;
#CREDIT:;
#NOTES:
// measure 0
0000
0000
0000
0000
,  // measure 1
0000
0000
0000
0000
,  // measure 2
0000
0000
0000
0000
,  // measure 3
0000
0000
0000
0000
,  // measure 4
0000
0000
0000
0000
,  // measure 5
0000
0000
0000
0000
,  // measure 6
0000
0000
0000
0000
,  // measure 7
0000
0000
0000
0000
,  // measure 8
0000
0000
0000
0000
,  // measure 9
0000
0000
0000
0000
,  // measure 10
0000
0000
0000
0000
,  // measure 11
1000
0000
0100
0200
0000
0000
0320
0000
,  // measure 12
0000
0031
0200
0320
,  // measure 13
2030
3000
0000
0000
,  // measure 14
0100
0010
0010
0001
,  // measure 15
0100
0000
0010
0000
,  // measure 16
1000
0100
0010
0100
,  // measure 17
1000
0000
0001
0000
,  // measure 18
0100
0000
0010
0000
,  // measure 19
0000
0010
0000
2010
,  // measure 20
3100
0010
0000
0001
,  // measure 21
0100
0000
0001
1000
,  // measure 22
0000
0010
1000
0000
,  // measure 23
0100
0010
0001
0010
,  // measure 24
0001
1000
0000
0010
,  // measure 25
0100
0010
0000
1000
,  // measure 26
0100
0000
0010
0100
,  // measure 27
1000
0001
1000
0001
,  // measure 28
1000
0001
0000
0000
,  // measure 29
0101
0000
0000
1001
,  // measure 30
0000
0000
1100
1000
,  // measure 31
0001
0100
0001
0000
,  // measure 32
0011
0000
0000
1001
,  // measure 33
0000
0000
1010
0010
,  // measure 34
1000
0001
1000
0100
,  // measure 35
0010
0100
0000
1000
,  // measure 36
0001
1000
0000
0010
,  // measure 37
0100
0100
0001
0000
,  // measure 38
0001
0000
0010
0000
0000
0010
0000
0000
0011
0000
0000
0000
0000
0000
0000
0000
,  // measure 39
0000
1100
0000
0000
,  // measure 40
1001
0001
0100
0010
,  // measure 41
1000
0000
1001
0000
,  // measure 42
0000
0110
0000
0000
,  // measure 43
1001
0001
0100
0010
,  // measure 44
0100
0001
1000
1000
;
