#VERSION:0.83;
#TITLE:チキチキバンバン;
#SUBTITLE:- YUC'e Remix;
#ARTIST:QUEENDOM;
#TITLETRANSLIT:Ciki Ciki Bam Bam;
#SUBTITLETRANSLIT:- YUC'e Remix;
#ARTISTTRANSLIT:;
#GENRE:;
#ORIGIN:;
#TAGS:;
#CREDIT:;
#BANNER:Ciki Ciki Bam Bam - YUC'e Remix-bn.png;
#BACKGROUND:Ciki Ciki Bam Bam - YUC'e Remix-bg.png;
#PREVIEWVID:;
#JACKET:Ciki Ciki Bam Bam - YUC'e Remix-jk.png;
#CDIMAGE:;
#DISCIMAGE:;
#LYRICSPATH:;
#CDTITLE:;
#MUSIC:Ciki Ciki Bam Bam - YUC'e Remix).ogg;
#OFFSET:0.000000;
#SAMPLESTART:40.234943;
#SAMPLELENGTH:12.387000;
#SELECTABLE:YES;
#BPMS:0.000000=155.000000
;
#STOPS:;
#DELAYS:;
#WARPS:;
#TIMESIGNATURES:0.000000=4=4
;
#TICKCOUNTS:0.000000=4
;
#COMBOS:0.000000=1
;
#SPEEDS:0.000000=1.000000=0.000000=0
;
#SCROLLS:0.000000=1.000000
,100.000000=2.000000
,102.000000=0.000000
,103.000000=1.000000
,132.000000=0.500000
,134.000000=0.000000
,135.000000=1.000000
;
#LABELS:0.000000=Song Start
;
#BGCHANGES:;
#KEYSOUNDS:;
#ATTACKS:
;

//---------------dance-single - ----------------
#NOTEDATA:;
#CHARTNAME:;
#CHARTHASH:3262791110;
#STEPSTYPE:dance-single;
#BANNER:;
#DESCRIPTION:;
#CHARTSTYLE:;
#DIFFICULTY:Hard;
#METER:15;
#METERF:15.000000;
#LASTSECONDHINT:144.000000;
#RADARVALUES:0.000000,0.000000,0.000000,0.000000,0.000000,0.000000,0.000000,0.000000,0.000000,0.000000,0.000000,0.000000,0.000000,0.000000,0.000000,0.000000,0.000000,0.000000,0.000000,0.000000,0.000000,0.000000,0.000000,0.000000,0.000000,0.000000,0.000000,0.000000;
#CREDIT:Embrace;
#NOTES:
0000
0000
0000
0000
,
0000
0000
0000
0000
,
0000
0000
0000
0000
,
0000
0000
0000
0000
,
0000
0000
0000
0000
,
1000
0010
0100
0001
,
0010
0100
0010
0001
,
1000
0010
0100
0010
2000
0000
3100
1000
,
0001
0000
0000
0001
0000
0000
0100
0000
0001
0000
0010
0000
0000
0010
0000
0000
,
2001
0000
3100
0010
0000
1000
0010
0100
,
1000
0001
0001
0100
0010
0100
0001
0000
,
1000
0000
0010
0000
0100
0001
0000
0001
0100
0000
0010
0000
1000
0000
0001
0000
,
0020
0000
0000
0000
0130
0000
1000
0001
1000
0000
0010
0000
1000
0000
0000
0000
,
0012
0000
0000
0000
0103
0002
0010
0013
,
1200
0000
0000
0000
0302
0000
0103
1000
,
0001
0000
0100
0000
0010
1000
0000
1000
0010
0000
0100
0000
0001
0000
1000
0000
,
0100
0010
0002
0000
0000
0000
0103
0010
2000
0000
0000
0000
,
0001
0100
0001
3010
0000
0100
0110
0000
,
0001
0000
0001
0000
1000
0100
0010
0100
,
0000
0000
0010
0001
1000
0000
0010
0000
0100
0000
0010
0000
0100
0000
0001
0000
,
1000
0000
1000
0000
0001
0010
0100
1000
,
2100
3001
0012
1003
2010
3001
0102
1003
,
0001
0000
0220
0330
1000
0010
0001
0010
,
0000
0000
1000
0100
0010
0000
0100
0000
1000
0000
0100
0000
1000
0000
0001
0000
,
0010
0000
0000
0001
0000
0000
0100
0000
0010
0000
0001
0000
0010
0000
1000
0000
,
0002
0000
0000
0003
,
1001
0000
1000
0100
0000
0000
0010
0000
0001
0000
0100
0001
0010
0000
0100
0000
,
1000
0000
1000
0010
0000
0000
0100
0010
1000
0000
0001
0000
0010
0000
0100
0000
,
1000
0000
0010
0000
1000
0000
0100
1000
0001
0000
0100
0000
0001
0000
0010
0000
,
0100
0000
0001
0100
0010
0000
0001
0000
1000
0000
0010
1000
0000
0000
1000
0000
,
0110
0000
0000
0000
0001
0000
1000
0100
1000
0000
0001
0000
0100
0000
0010
0000
,
1000
0000
0100
0000
0010
0000
0001
0100
0001
0000
1000
0000
0010
0000
0001
0000
,
0020
0100
0100
1030
0002
1000
1000
0013
,
0220
0000
0000
0330
,
1100
0000
0000
0001
0010
0000
0001
0000
0100
0000
0000
0010
1000
0000
0100
0000
,
1000
0000
0000
1000
0000
0000
1000
0000
0000
0000
0001
0000
0010
0000
0100
0000
,
1000
0000
0010
0100
0010
0000
1000
0000
0000
0000
1000
0000
0100
0000
0010
0000
,
0001
0000
0100
0000
0010
0000
1000
0000
0000
0000
0001
0010
0001
0000
0000
0000
,
0011
0000
0000
1000
0010
0000
0100
0000
0001
0000
0000
0010
0100
0000
1000
0000
,
0002
0000
2003
0000
3010
0100
0001
1000
,
0010
0000
1000
0100
1000
0000
0001
0000
0000
0000
0001
0000
1000
0000
0010
0000
,
2000
0000
0010
0001
0000
0200
0000
3300
,
0110
0001
1000
0010
,
0100
0000
0000
0100
0000
0000
0100
0000
0001
0000
1000
0000
0010
0000
0100
0000
,
0001
0000
1000
0100
1000
0000
0001
0000
0000
0000
0001
0000
0010
0000
0100
0000
,
1000
0000
0001
0000
0001
0000
1000
0000
0000
0000
0010
0100
0010
0000
0000
0000
,
1001
1000
0100
0010
,
0002
0000
0203
0000
0310
1000
0100
1000
,
0010
0000
0100
0001
0100
0000
0010
0000
0000
0000
0010
0000
0100
0000
0001
0000
,
0022
0000
0033
2002
0000
0000
3003
0000
,
0002
0000
0000
0100
0000
0000
0103
0000
0001
0000
1000
0000
0100
0000
1000
0000
,
2010
0000
0010
0001
0100
0000
3001
0000
,
0002
0000
1000
0000
1000
0000
0000
0010
0000
0010
0000
0000
0103
0000
0000
0000
,
2100
0001
0010
0001
0100
0100
3001
0001
,
0100
0010
1002
0000
1000
0010
0103
0100
,
0020
0000
1000
0000
0100
0000
0000
0000
0001
0000
0000
1030
0000
1000
0001
0000
,
0020
0001
0001
0100
1000
0100
0001
0031
,
1000
0010
1000
0010
0000
0000
1000
0100
0010
0001
0010
0000
,
0001
0100
0000
0001
0000
1000
0000
0000
0100
0000
0100
0000
1000
0001
1000
0001
,
0100
0000
0000
0000
1001
0000
0001
0000
1000
0000
0100
0010
0001
0000
0100
0000
,
0001
0000
0000
0000
0010
0000
0000
0000
0001
0000
0000
0000
0100
0000
0000
0000
0000
0000
0000
0000
0000
0010
0000
0000
0000
0000
0000
1000
0000
0000
0000
0000
0000
1000
0000
0000
0010
0000
0000
0000
0000
0000
0100
0000
0000
0000
0000
0000
,
2001
0000
3100
0010
0100
0000
1000
0010
1000
0000
0001
0010
0100
0000
0100
0000
,
1000
0000
0001
0100
0000
0100
0000
0100
0001
1000
0001
1000
0100
0000
0000
0000
,
0011
0000
1000
0000
0010
0000
0100
0000
1010
0000
0001
0010
0001
0000
0010
0000
,
0100
1000
0010
0000
0100
0000
0010
1000
0100
1000
0000
0001
0010
0000
0010
0000
,
0001
0100
0001
0100
0001
0000
1000
0000
0010
0000
0010
0000
0100
0000
0100
0000
,
0001
0000
0000
0010
0000
0000
0100
0000
0000
1000
0000
0000
0001
0000
0000
0100
0000
0000
0010
0000
0000
1000
0000
0000
0001
0000
0000
0000
0010
0000
0000
0000
0001
0000
0000
0000
1002
0000
0000
0000
0000
0000
0000
0000
0000
0000
0000
0000
,
0103
0000
0100
0000
0010
1000
0001
0010
,
0000
0000
0001
0100
0010
0000
0001
0000
0010
0000
1000
0000
1010
0000
0000
0000
,
0001
0010
1000
0010
0001
0100
1000
0100
,
0210
0301
0120
1030
1200
0310
0021
0130
,
1000
0000
2002
3003
0001
0100
0010
0100
,
0001
0000
0010
0100
1000
0000
0001
0000
0100
0000
0001
0000
0010
0000
0100
0000
,
1000
0100
0001
0100
1000
0010
0001
0010
,
1000
0000
0000
0000
0000
0000
0000
0000
0000
0000
0000
0000
0000
0000
0000
0000
0000
0000
0000
0000
0000
0000
0000
0000
1000
0000
0000
0000
0000
0000
0000
0000
0000
0000
0000
0000
0000
0000
0000
0000
0000
0000
0000
0000
0000
0000
0000
0000
0000
0000
0000
0000
0000
0000
0000
0000
0000
0000
0000
0000
0000
0000
0000
0000
0000
0000
0000
0000
0000
0000
0000
0000
1000
0000
0000
0000
0000
0000
0000
0000
0000
0000
0000
0000
0000
0000
0000
0000
0000
0000
0000
0000
0000
0000
0000
0000
0001
0000
0000
0000
0000
0000
0000
0000
0000
0000
0000
0000
0000
0000
0000
0000
1000
0000
0000
0000
0000
0000
0000
0000
0000
0000
0000
0000
0000
0000
0000
0000
0000
0000
0000
0000
0001
0000
0000
0000
0000
0000
1000
0000
0000
0000
0000
0000
0020
0000
0000
0000
0000
0000
0000
0000
0000
0000
0000
0000
0000
0000
0000
0000
0000
0000
0000
0000
0000
0000
0000
0000
0030
0000
0000
0000
0000
0000
0000
0000
0000
0000
0000
0000
0000
0000
0000
0000
0000
0000
0000
0000
0000
0000
0000
0000
,
1010
0000
1000
0100
0000
0000
0010
0000
0001
0000
1000
0010
0100
0000
1000
0000
,
0100
0000
0100
0001
0000
0000
1000
0000
0100
0000
0010
0000
0001
0000
1000
0000
,
0100
0000
0001
0000
0100
0000
1000
0000
0001
0000
0010
0001
0100
0000
0001
0000
,
1000
0000
0010
0000
0100
0000
0010
0000
0001
0000
0010
1000
0000
0000
1000
0000
,
0101
0000
0001
0010
0000
0000
0100
0000
1000
0000
0001
0010
0100
0000
0001
0000
,
0100
0000
0100
1000
0000
0000
0001
0000
0010
0000
0100
0000
1000
0000
0010
0000
,
1020
0000
0000
0000
0200
0000
0330
0000
1001
0000
0000
0011
0000
0000
1100
0000
,
0110
0000
0011
1010
0000
2002
0000
3003
,
0001
0000
0010
0100
0000
0000
1000
0000
0010
0000
0001
0010
1000
0000
0001
0000
,
0010
0000
0100
1000
0000
0000
0001
0010
0100
0000
0001
0100
1000
0000
0010
0000
,
0100
0000
1000
0100
0000
0000
0001
1000
0100
0000
0010
1000
0010
0000
0001
0000
,
1000
0000
0010
0100
0000
0000
1000
0000
0100
0010
0100
0001
0010
0100
0010
0001
,
1000
0000
0100
0000
0001
0000
0100
0010
0001
0000
0100
0000
1000
0000
0100
0010
,
1000
0000
0100
0000
0001
0000
0100
1000
0010
0000
0100
0000
1000
0000
0100
0000
,
0210
0301
0120
1030
1100
1001
0011
0110
,
2002
0000
0000
3000
,
0000
0000
0000
0000
,
0000
0000
0000
0000
,
0003
0000
0000
0000
;

//---------------dance-single - ----------------
#NOTEDATA:;
#CHARTNAME:;
#CHARTHASH:1418526458;
#STEPSTYPE:dance-single;
#BANNER:;
#DESCRIPTION:;
#CHARTSTYLE:;
#DIFFICULTY:Medium;
#METER:13;
#METERF:13.000000;
#LASTSECONDHINT:23.225807;
#RADARVALUES:0.571334,0.704187,0.371711,0.330410,0.268458,581.000000,527.000000,54.000000,48.000000,0.000000,0.000000,0.000000,0.000000,0.000000,0.571334,0.704187,0.371711,0.330410,0.268458,581.000000,527.000000,54.000000,48.000000,0.000000,0.000000,0.000000,0.000000,0.000000;
#CREDIT:Embrace;
#NOTES:
// measure 0
0000
0000
0000
0000
,  // measure 1
0000
0000
0000
0000
,  // measure 2
0000
0000
0000
0000
,  // measure 3
0000
0000
0000
0000
,  // measure 4
0000
0000
0000
0000
,  // measure 5
0001
0100
0001
1000
,  // measure 6
0100
0010
0001
1000
,  // measure 7
0010
1000
0001
1000
0100
0000
0010
0000
,  // measure 8
0001
0000
0000
1000
0000
0000
0001
0000
0100
0000
0010
0000
0000
0010
0000
0000
,  // measure 9
0120
0000
1030
0001
0000
0001
1000
0000
,  // measure 10
0100
0010
0001
0010
0000
0010
0100
0000
,  // measure 11
1000
0000
0010
0000
0100
0001
0000
0100
0001
0000
1000
0000
0100
0000
0010
0000
,  // measure 12
0001
0100
0000
0002
0000
0000
0000
1003
0100
0000
1000
0000
0010
0000
0000
0000
,  // measure 13
2001
0000
0000
0000
3200
0000
0301
0100
,  // measure 14
2000
0000
0000
0000
3020
0000
0031
0010
,  // measure 15
2000
0000
3200
0000
,  // measure 16
0310
0001
0200
0000
0000
0000
0310
1000
0200
0000
0000
0000
,  // measure 17
0310
0001
0010
0001
0000
1000
2001
0000
,  // measure 18
3010
0000
0100
0000
0001
1000
0100
0010
,  // measure 19
0000
0000
0001
1000
0001
0000
1000
0000
0010
0000
1000
0000
0010
0000
0100
0000
,  // measure 20
0001
0000
1000
0000
0100
1000
0001
0100
,  // measure 21
0110
1010
0011
0101
,  // measure 22
0001
0000
0220
0330
1000
0001
0010
0100
,  // measure 23
0000
0000
1000
0001
1000
0000
0100
0000
0010
0000
0100
0000
1000
0000
0001
0000
,  // measure 24
0010
0000
0000
0100
0000
0000
1000
0000
0001
0000
0100
0000
0001
0000
0100
0000
,  // measure 25
0020
0000
0030
0000
,  // measure 26
1001
0000
0000
1000
0000
0000
0100
0000
0010
0000
0001
0000
0100
0000
0001
0000
,  // measure 27
0010
0000
0000
0010
0000
0000
0001
0000
1000
0000
0100
0000
1000
0000
0001
0000
,  // measure 28
0010
1000
0010
0001
0010
1000
0010
0100
,  // measure 29
1000
0000
0001
0100
0001
0000
0010
0000
0000
0000
2002
0000
0000
0000
3003
0000
,  // measure 30
1010
0000
0000
0010
0000
0000
0100
0000
0001
0000
0010
0000
0001
0000
0100
0000
,  // measure 31
0010
0000
0000
0010
0000
0000
1000
0001
1000
0000
0100
0000
0010
0000
0001
0000
,  // measure 32
0100
1000
0100
0001
0010
1000
0010
0001
,  // measure 33
2002
0000
3003
0000
,  // measure 34
1001
0000
0000
0001
0100
0000
0010
0000
1000
0000
0000
1000
0100
0000
0010
0000
,  // measure 35
0001
0000
1000
0000
0010
0100
1000
0100
,  // measure 36
0001
1000
1000
1000
0000
0001
0010
0100
,  // measure 37
0001
0000
0100
0000
0010
0000
0001
0000
0000
0000
1000
0010
1000
0000
0000
0000
,  // measure 38
0101
0000
0000
0001
0010
0000
0000
0000
1010
0000
0000
1000
0200
0000
0000
0000
,  // measure 39
0320
0000
0032
0000
0103
0001
0010
1000
,  // measure 40
0010
0001
0001
0001
0000
1000
0010
0001
,  // measure 41
0020
0000
2030
0001
0000
0002
0000
3003
,  // measure 42
0011
0000
0000
0001
0000
0000
1000
0000
0000
0001
0000
0000
0010
0000
0010
0000
,  // measure 43
0100
0000
0000
1000
0000
0000
0001
0000
0000
1000
0000
0000
0010
0000
0010
0000
,  // measure 44
0100
0001
1000
0001
0000
0010
0100
1000
,  // measure 45
0001
0100
0001
1000
0000
0020
0000
0030
,  // measure 46
0110
0000
0000
1000
0000
0000
0001
0000
0000
1000
0000
0000
0010
0000
0010
0000
,  // measure 47
0200
0000
2300
0000
3100
0001
1000
0100
,  // measure 48
0010
0001
0001
0001
0000
1000
0010
1000
,  // measure 49
1200
0000
0000
0020
0000
0000
0330
0000
,  // measure 50
0002
0000
0000
0000
1003
0100
0010
0001
,  // measure 51
1002
0000
0000
0000
0100
0100
1003
0000
,  // measure 52
2000
0000
0000
0000
0000
0000
0000
3100
0000
0010
0000
0001
0010
0001
0000
0000
,  // measure 53
2010
0000
0000
0000
0001
0001
3100
1000
,  // measure 54
0001
1000
0012
0000
1003
0102
0000
0003
,  // measure 55
2100
0000
0000
0000
0000
0000
0000
0000
3001
0000
0001
0010
0000
0001
1000
0000
,  // measure 56
0002
0000
0000
0000
0100
0100
1003
0000
,  // measure 57
1000
0010
1000
0001
0000
0000
1000
0100
1000
0001
0010
0000
,  // measure 58
0001
1000
0000
0001
0000
0100
0000
0000
0001
0000
0001
0000
0010
0000
0001
0000
,  // measure 59
1010
0000
0000
0000
1001
0000
0000
0000
0011
0000
0000
1000
0100
0000
0010
0000
,  // measure 60
0110
0000
0000
0000
1100
0000
0000
0001
0000
1000
0000
0001
0100
0000
0000
0000
,  // measure 61
1010
0000
0000
0000
0101
0000
0000
1000
0100
0000
0100
0010
0000
0000
0000
0000
,  // measure 62
0100
0000
0010
0000
0001
0000
0100
0000
0010
1000
0010
1000
0000
0000
0000
0000
,  // measure 63
0001
0000
0010
0000
1001
0000
0000
0000
0001
0000
0100
0010
1000
0000
0000
0000
,  // measure 64
0001
0000
0010
0000
1100
0000
0000
0000
0001
0100
0000
0010
1000
0000
0000
0000
,  // measure 65
0001
0001
0010
0010
0100
0100
1000
1000
,  // measure 66
0002
0000
0000
1000
0000
0000
0103
0001
0010
0200
0000
0000
,  // measure 67
0310
0001
0001
0001
,  // measure 68
1000
1000
1000
0110
,  // measure 69
0001
0100
0001
0010
0001
0100
0001
0010
,  // measure 70
0110
1001
0101
1010
,  // measure 71
0001
0000
0220
0330
1000
0010
0100
0001
,  // measure 72
0000
0000
0010
0001
0010
0000
0100
0000
1000
0000
0100
0000
1000
0000
0010
0000
,  // measure 73
0100
0000
0000
0001
0000
0000
0010
0000
0001
0000
0100
0000
0001
0000
0100
0000
,  // measure 74
0010
0000
0010
0000
0000
0000
1000
0000
0001
0000
0000
0001
0010
0000
0000
0000
,  // measure 75
1100
0000
0000
0001
0000
0000
0100
0000
0010
0000
1000
0000
0100
0000
1000
0000
,  // measure 76
0010
0000
0000
0100
0000
0000
0001
0000
1000
0000
0100
0000
0010
0000
0001
0000
,  // measure 77
0100
1000
0100
0001
0100
1000
0100
0001
,  // measure 78
1000
0100
0010
0100
0000
2002
0000
3003
,  // measure 79
0011
0000
0000
1000
0000
0000
0010
0000
0100
0000
0001
0000
0100
0000
0010
0000
,  // measure 80
1000
0000
0000
0100
0000
0000
0010
0000
0001
0000
0100
0000
0010
0000
1000
0000
,  // measure 81
0200
0000
0000
0000
0310
0000
0000
0000
0110
0000
0000
1001
0000
0000
0001
0000
,  // measure 82
0100
0000
0110
1001
0000
2200
0000
3300
,  // measure 83
0110
0000
0000
0001
0000
0000
1000
0000
0010
0000
0100
0010
0100
0000
0010
0000
,  // measure 84
1010
0000
0000
0001
0000
0000
1000
0000
0100
0000
0010
0001
0010
0000
0100
0000
,  // measure 85
0011
0000
0000
1000
0000
0000
0010
0000
0100
0000
0001
0010
0001
0000
0100
0000
,  // measure 86
1010
0000
0000
0001
0000
0000
1000
0000
0100
1000
0100
0000
0010
0001
0010
0000
,  // measure 87
1001
0000
0001
0000
0100
0000
1000
0000
0100
0000
0010
1000
0010
0000
1000
0000
,  // measure 88
0100
0000
0001
0000
0100
0000
1000
0000
0001
0000
0100
0001
0100
0000
0010
0000
,  // measure 89
1001
0000
1000
0000
1001
0000
0001
0000
0010
0000
0100
1000
0001
0000
0100
0000
,  // measure 90
0220
0000
0000
0300
,  // measure 91
0000
0000
0000
0000
,  // measure 92
0000
0000
0000
0000
,  // measure 93
0030
0000
0000
0000
;
