#VERSION:0.83;
#TITLE:Children Record;
#SUBTITLE:;
#ARTIST:Jin feat. MARiA from GARNiDELiA;
#TITLETRANSLIT:;
#SUBTITLETRANSLIT:;
#ARTISTTRANSLIT:;
#GENRE:;
#ORIGIN:;
#CREDIT:;
#BANNER:Children Record.png;
#BACKGROUND:Children Record-bg.png;
#PREVIEWVID:;
#JACKET:Children Record-jacket.png;
#CDIMAGE:;
#DISCIMAGE:;
#LYRICSPATH:Children Record.lrc;
#CDTITLE:;
#MUSIC:Children Record.ogg;
#OFFSET:-0.577000;
#SAMPLESTART:67.013000;
#SAMPLELENGTH:14.356000;
#SELECTABLE:YES;
#BPMS:0.000=202.000;
#STOPS:;
#DELAYS:;
#WARPS:;
#TIMESIGNATURES:0.000=4=4,
360.000=7=4,
367.000=4=4;
#TICKCOUNTS:0.000=4;
#COMBOS:0.000=1;
#SPEEDS:0.000=1.000=0.000=0;
#SCROLLS:0.000=1.000,
360.000=0.500,
367.000=1.000;
#FAKES:;
#LABELS:0.000=Song Start;
#BGCHANGES:-1.942=Children Record.avi=1.000=1=0=0=StretchNoLoop==CrossFade==,
99999=-nosongbg-=1.000=0=0=0 // don't automatically add -songbackground-
;
#KEYSOUNDS:;
#ATTACKS:
;

//---------------dance-single - ----------------
#NOTEDATA:;
#CHARTNAME:;
#STEPSTYPE:dance-single;
#DESCRIPTION:;
#CHARTSTYLE:;
#DIFFICULTY:Beginner;
#METER:3;
#RADARVALUES:0.112088,0.248654,0.069231,0.000000,0.000000,102.000000,93.000000,9.000000,0.000000,0.000000,0.000000,0.000000,0.000000,0.000000,0.112088,0.248654,0.069231,0.000000,0.000000,102.000000,93.000000,9.000000,0.000000,0.000000,0.000000,0.000000,0.000000,0.000000;
#CREDIT:Kikoia;
#NOTES:
0000
0000
0000
0000
,
0000
0000
0000
0000
,
0000
0000
0000
0000
,
0000
0000
0000
0000
,
0000
0000
0000
0000
,
0000
0000
0000
0000
,
0000
0000
0000
0000
,
0000
0000
0000
0000
,
0001
0000
0000
0000
,
0000
0000
0000
0000
,
0000
0000
0000
0000
,
0000
0000
0000
0000
,
0001
0000
0000
0000
,
0000
0000
0000
0000
,
0000
0000
0000
0000
,
1001
0000
0000
0000
,
1000
0000
1000
0000
,
1000
0000
0000
0000
,
0001
0000
0001
0000
,
0001
0000
0000
0000
,
1000
0000
1000
0000
,
1000
0000
0000
0000
,
1001
0000
0000
0000
,
0000
0000
0000
0000
,
1000
0000
0000
0000
,
1000
0000
0000
0000
,
0001
0000
0000
0000
,
0001
0000
0000
0000
,
1000
0000
0000
0000
,
0001
0000
0000
0000
,
1000
0000
0000
0000
,
0001
0000
0001
0000
,
1000
0000
0000
0000
,
0001
0000
0000
0000
,
0100
0000
0000
0000
,
0100
0000
0100
0000
,
0001
0000
0000
0000
,
1000
0000
0000
0000
,
0100
0000
0000
0000
,
0100
0000
0100
0000
,
0100
0000
0000
0000
,
0000
0000
0000
0000
,
0010
0000
0000
0000
,
0000
0000
0000
0000
,
0001
0000
0000
0000
,
0000
0000
0000
0000
,
1000
0000
0000
0000
,
1000
0000
0000
0000
,
1001
0000
0000
0000
,
0000
0000
0000
0000
,
0010
0000
0000
0000
,
0000
0000
0000
0000
,
0100
0000
0000
0000
,
0000
0000
0000
0000
,
0001
0000
0000
0000
,
0001
0000
0001
0000
,
0001
0000
0000
0000
,
0001
0000
0000
0000
,
1000
0000
0000
0000
,
1000
0000
0000
0000
,
0010
0000
0010
0000
,
0010
0000
0000
0000
,
0100
0000
0100
0000
,
0100
0000
0000
0000
,
1001
0000
0000
0000
,
1000
0000
0000
0000
,
0001
0000
0000
0000
,
0001
0000
0000
0000
,
0100
0000
0100
0000
,
0010
0000
0010
0000
,
0110
0000
0000
0000
,
0000
0000
0000
0000
,
1000
0000
0000
0000
,
0000
0000
0000
0000
,
0001
0000
0000
0000
,
0000
0000
0000
0000
,
0100
0000
0000
0000
,
0000
0010
0010
0010
,
0010
0000
0000
0000
,
0000
0000
0000
0000
,
0000
0000
0000
0000
,
0000
0000
0000
0000
,
1000
0000
0000
0000
,
0000
0000
0000
0000
,
0001
0000
0000
0000
,
0000
0000
0000
0000
,
0110
0000
0000
0000
,
0000
0000
0000
0000
,
0000
0000
0000
0000
,
0000
0000
0000
0000
,
0000
0000
0000
0000
,
0000
0000
0000
1001
,
0000
0000
0000
1000
,
0000
0000
0000
0001
,
0000
0000
0000
0001
,
0000
0000
0000
0100
,
0000
0100
0000
0100
,
0000
0000
0000
0010
,
0000
0010
0000
0010
,
0000
0000
0000
1001
,
0000
0000
0000
0001
,
0000
0000
0000
1000
,
0000
0000
0000
1000
,
0000
0000
0000
0100
,
0000
0000
0000
0010
,
0000
0000
0000
0010
,
0000
0010
0000
0100
,
0000
0100
0000
1001
;

//---------------dance-single - ----------------
#NOTEDATA:;
#CHARTNAME:;
#STEPSTYPE:dance-single;
#DESCRIPTION:;
#CHARTSTYLE:;
#DIFFICULTY:Easy;
#METER:9;
#RADARVALUES:0.298901,0.499615,0.146154,0.476923,0.000000,272.000000,253.000000,19.000000,62.000000,0.000000,0.000000,0.000000,0.000000,0.000000,0.298901,0.499615,0.146154,0.476923,0.000000,272.000000,253.000000,19.000000,62.000000,0.000000,0.000000,0.000000,0.000000,0.000000;
#CREDIT:Kikoia;
#NOTES:
0000
0000
0000
0000
,
0000
0000
0000
0000
,
0000
0000
0000
0000
,
0000
0000
0000
0000
,
0000
0000
0000
0000
,
0000
0000
0000
0000
,
0000
0000
0000
0000
,
0000
0000
0000
0000
,
2001
0000
0000
0000
,
0000
0000
0000
0000
,
0100
0000
0000
0000
,
0000
0000
0000
0000
,
3002
0000
0000
0000
,
0000
0000
0000
0000
,
0100
0000
0000
0000
,
1000
1003
0000
0000
0000
0000
0000
0000
,
1000
0100
0010
0010
,
0001
1000
0010
0010
,
0100
0001
1000
1000
,
0001
1000
2002
3003
,
0001
0010
0100
0100
,
1000
0010
0100
0100
,
0001
1000
0000
0000
0000
0000
0000
0000
,
0000
0000
0000
0000
,
1000
0100
0010
0100
,
1000
0000
0001
1000
0001
0000
0100
0000
,
0010
0100
0001
0010
,
0100
0000
1000
0001
2000
0000
3000
0000
,
0001
0100
0010
1000
,
0100
0010
0110
0000
,
0001
0010
0100
1000
,
2002
3003
0220
0330
,
2000
0000
3200
0000
,
0310
0001
0010
0000
,
0002
0000
0203
0000
,
0310
1000
1001
0000
,
0002
0000
2003
0000
,
3100
0010
0010
0000
,
0002
0000
0203
0000
,
0310
0010
1000
1000
,
0002
0000
0000
0000
,
0003
0000
0000
0000
,
0220
0000
0000
0000
,
0330
0000
0000
0000
,
1001
0000
1000
0000
,
0001
0000
1000
0000
,
0100
0000
0010
0000
,
0100
0000
0110
0000
,
1001
0000
0000
0000
,
0000
0000
0000
0000
,
0110
0000
0000
0000
,
0000
0000
0000
0000
,
0001
0000
0100
0000
,
0010
0010
1000
1000
,
0001
0000
0001
0000
,
2000
0000
3000
0000
,
2000
3002
2003
3000
,
0002
2003
3002
0003
,
0100
0100
0200
0300
,
0010
0010
0020
0030
,
1000
0100
1000
0000
,
0100
0010
0100
0000
,
0010
0001
0010
0000
,
0001
1000
0001
1000
,
0020
0230
0320
0030
,
0200
0320
0230
0300
,
0001
0010
0100
0000
,
1000
0010
0100
0001
,
2000
0000
3001
0001
,
1000
1000
0100
0010
,
0002
0000
1003
0000
,
2000
0000
3001
0000
,
0002
0000
1003
0000
,
1000
0100
0010
0001
,
0200
0000
0310
0000
,
0020
0000
0130
0000
,
0100
0100
0010
0010
,
1001
0000
0000
0000
,
0220
0000
0000
0000
,
0000
0000
0330
0000
,
0000
0000
0000
0000
,
0000
0000
0000
0000
,
1000
0000
0001
1000
0001
0000
0000
0000
,
0001
0000
1000
0001
1000
0000
0000
0000
,
1000
0010
0100
0001
,
0010
0100
2000
3001
,
1001
1001
0110
0000
,
0020
0000
0130
0000
,
0110
0110
1001
0000
,
2000
0000
3002
0000
,
0203
0000
0000
0000
,
0300
0000
0000
0002
,
2003
3002
0003
2000
,
3002
2003
3000
0010
,
0010
0100
0100
0001
,
0001
0010
0100
1000
,
0100
1000
0000
0001
,
1000
0001
0000
1000
,
0010
1000
1000
0001
,
1000
0001
1000
0200
,
0320
0230
0300
0020
,
0230
0320
0030
0001
,
0010
0100
1000
0010
,
0100
0001
1000
0002
,
0000
1003
1000
0001
,
0001
0100
0010
1000
,
1000
0100
0100
0010
,
0001
0000
1000
0000
0001
2000
0000
0000
,
0000
3000
0000
0000
;

//---------------dance-single - ----------------
#NOTEDATA:;
#CHARTNAME:;
#STEPSTYPE:dance-single;
#DESCRIPTION:;
#CHARTSTYLE:;
#DIFFICULTY:Medium;
#METER:13;
#RADARVALUES:0.562637,0.707788,0.438462,0.592308,0.003846,512.000000,455.000000,57.000000,77.000000,0.000000,0.000000,0.000000,0.000000,0.000000,0.562637,0.707788,0.438462,0.592308,0.003846,512.000000,455.000000,57.000000,77.000000,0.000000,0.000000,0.000000,0.000000,0.000000;
#CREDIT:Kikoia;
#NOTES:
0000
0000
0000
0000
,
0000
0000
0000
0000
,
0000
0000
0000
0000
,
0000
0000
0000
0000
,
0000
0000
0000
0000
,
0000
0000
0000
0000
,
0000
0000
0000
0000
,
0000
0000
0000
0000
,
2002
0000
0000
0000
,
0000
0000
0003
0100
,
3200
0000
0000
0000
,
0000
0000
0320
0000
0031
1000
0002
0000
,
0203
0000
0000
0000
,
0000
0000
0000
0302
,
0023
0000
0000
0000
,
0130
0100
0000
0000
0000
0000
0000
0000
,
1001
1000
0100
0000
1000
0001
0100
0000
,
0001
1000
0010
0000
1000
0001
0010
0000
,
0100
1000
0010
0000
0100
0001
0010
0100
,
0000
0110
0000
1001
0000
1000
0020
0000
,
0130
0001
0010
0000
0100
1000
0010
0000
,
0100
0001
1000
0000
0100
0010
0001
2000
,
0001
3001
0000
0000
0000
0000
0000
0000
,
0000
0000
0000
0000
0000
1000
0001
1000
,
0000
0010
0000
0100
0000
0001
0000
2000
,
0000
3100
0010
0001
1000
0000
0001
0100
,
0010
1000
0000
0100
0000
0010
0000
0011
,
0000
1010
0010
0100
0000
0100
0001
1000
,
0000
1000
0000
0010
0000
1000
0000
0100
,
0010
0100
1000
0010
0200
0000
0301
1000
,
0001
0001
0000
0010
0000
0100
0000
0110
,
0000
1001
0000
1000
0100
0010
0001
2000
,
0000
0000
3010
0000
1001
0000
0011
0001
,
1000
0010
1000
0200
0000
0301
0100
1000
,
0000
1000
0001
0100
0001
0100
1000
0100
,
0000
0110
0000
1001
0000
1000
0100
0020
,
0000
0031
0101
0110
,
1010
1000
0001
0020
0000
0130
1000
0020
,
0000
0130
0001
1000
0001
1000
0100
0020
,
0000
0130
1000
0001
1000
0010
0100
0002
,
0000
1003
1001
0000
,
1000
0100
1100
0000
,
0001
0100
0101
0000
,
0001
0010
0011
0000
,
2000
3200
0302
0203
,
2300
3020
0032
0023
,
2030
3002
0023
0230
,
2300
0000
3020
0000
0130
0001
1000
0002
,
0000
1003
1001
0000
,
1000
0100
0110
0000
,
0010
0001
0101
0000
,
1000
0010
1010
0002
,
0103
0000
0100
0010
0000
0010
1000
0001
,
0000
0001
0010
0001
0010
0100
1000
0100
,
2000
0000
0001
0001
,
3001
0000
0100
0000
0001
0000
1000
0001
1000
0000
0000
0000
0000
0000
0000
0000
,
1100
0000
0101
0000
1100
0000
1000
0010
,
0000
0010
0100
0002
0000
1003
0100
0010
,
0001
0000
0011
0000
1010
0000
0001
0020
,
0000
0230
0000
2300
0000
3020
0000
0130
,
0000
0100
0001
1000
0002
0000
1003
2000
,
0000
3100
0010
0001
0200
0000
0310
0020
,
0000
1030
0010
1000
0001
0010
0001
0100
,
0001
0100
0010
1000
0010
1000
0100
0010
,
0001
0110
2001
3100
,
1000
0100
1000
0100
0001
0100
0010
0000
,
0110
1001
0110
1002
,
0103
0010
0100
0010
1000
0010
1000
0001
,
0000
0001
0020
0000
0130
1000
0001
0100
,
0000
0101
0000
0110
0000
1010
0000
1001
,
0000
0000
0000
0000
,
0000
0000
0001
1000
0100
1000
0001
1000
,
0000
0000
1000
0001
0100
0001
1000
0001
,
0000
0001
0010
0100
1000
0010
0100
0001
,
0000
0001
0100
0010
0100
0001
0010
0100
,
0000
0100
1000
0010
1000
0100
0010
0001
,
0000
1000
0010
0100
0001
1000
0001
2002
,
0000
0000
3003
0110
,
1001
0000
0000
0000
,
0000
0000
0000
0000
,
0000
0000
0000
0000
,
0000
0000
0000
0000
,
2000
0100
3100
0000
,
0002
0100
0103
0000
,
2000
0010
0010
3002
,
0013
0010
0100
0100
,
1000
0010
2020
3030
,
0001
0100
0001
0100
0010
0010
0000
0000
,
1000
0100
2200
3300
,
1000
0100
1000
0100
0010
0001
0000
0001
,
2000
0000
0000
0000
,
0000
3000
0110
1001
,
1100
0000
0011
0000
0001
1000
0000
0001
,
0010
0200
0000
0301
0100
1000
0001
0000
,
0101
0000
1010
0000
1000
0200
0000
0320
,
0000
0032
0000
0203
0000
0310
0000
0010
,
1000
0001
2000
0000
3001
0002
0000
1003
,
0100
0010
0200
0000
1300
1000
0000
0001
,
0010
0001
1000
0010
1000
0001
0100
0010
,
0100
0010
1000
0001
0010
0100
1000
0000
,
0110
0000
2001
0000
3100
0010
0001
0100
,
0001
0100
1000
0100
0010
0000
0110
0000
,
1001
0000
0110
0000
2001
0000
3100
0010
,
0100
0001
0100
1000
0001
0020
0000
0130
,
1000
0000
1000
0001
0100
0010
0000
0110
,
0000
1000
0000
2001
0000
3200
0000
0320
,
0000
0032
0000
2003
0000
3020
0000
0130
,
0001
1000
0001
0010
0100
2000
0000
0000
,
0000
3000
0000
0000
;

//---------------dance-single - ----------------
#NOTEDATA:;
#CHARTNAME:;
#STEPSTYPE:dance-single;
#DESCRIPTION:;
#CHARTSTYLE:;
#DIFFICULTY:Hard;
#METER:16;
#RADARVALUES:0.757143,0.874327,0.492308,0.469231,0.157692,689.000000,625.000000,64.000000,61.000000,0.000000,0.000000,0.000000,0.000000,0.000000,0.757143,0.874327,0.492308,0.469231,0.157692,689.000000,625.000000,64.000000,61.000000,0.000000,0.000000,0.000000,0.000000,0.000000;
#CREDIT:Kikoia;
#NOTES:
// measure 0
0000
0000
0000
0000
,  // measure 1
0000
0000
0000
0000
,  // measure 2
0000
0000
0000
0000
,  // measure 3
0000
0000
0000
0000
,  // measure 4
0000
0000
0000
0000
,  // measure 5
0000
0000
0000
0000
,  // measure 6
0000
0000
0000
0000
,  // measure 7
0000
0000
0000
0000
,  // measure 8
2001
0000
0000
0000
0010
0000
0000
0010
,  // measure 9
0000
0010
0000
0000
0010
0000
0100
0000
,  // measure 10
3002
0000
0000
0000
1000
0000
0000
1003
,  // measure 11
0000
1000
0020
0000
1030
0001
0020
0000
,  // measure 12
0230
0000
0000
0000
1000
0000
0000
1000
,  // measure 13
0000
1000
0000
0000
2300
0000
3002
0000
,  // measure 14
0203
0300
0100
0010
,  // measure 15
1001
1001
0000
0000
0000
0000
0000
0000
,  // measure 16
1000
0000
0001
0000
0010
0000
0100
1000
0100
0000
0010
0000
0002
0000
0000
0000
,  // measure 17
1003
0000
0010
0000
0100
0000
0001
0100
0001
0000
1000
0000
0020
0000
0000
0000
,  // measure 18
1030
0000
0100
0000
0010
0000
0001
1000
0001
0000
1000
0000
0010
0000
1010
0000
,  // measure 19
0000
1100
0000
0101
0000
1000
1001
0000
,  // measure 20
0001
0000
0010
0000
0100
0000
1000
0010
1000
0000
0100
0000
0010
0000
0001
0000
,  // measure 21
1000
0000
0010
0000
0100
0000
0001
0010
0001
0000
1000
0000
0001
0000
0100
0000
,  // measure 22
0010
0010
0000
0000
0000
0000
0000
0000
,  // measure 23
0000
0000
0000
0000
0000
1000
0100
0010
,  // measure 24
0001
1000
0000
1010
0000
1100
0000
1002
,  // measure 25
0000
0013
0100
1000
0010
1000
0100
1000
,  // measure 26
0001
0000
0100
0000
0000
0000
0101
0000
0000
0000
1001
0000
0000
0000
0001
0010
,  // measure 27
0001
0000
1000
0010
1000
0000
0001
0100
0002
0000
0013
0100
1000
0001
2000
0000
,  // measure 28
0000
3010
0000
1010
0000
0101
0000
2000
,  // measure 29
0000
3001
0010
0100
1000
0010
0100
0001
,  // measure 30
0100
1000
0000
0110
0000
0101
0001
0010
,  // measure 31
0000
0000
1001
0000
0000
0000
1000
0000
0100
0010
0001
1000
0001
0000
0200
0000
,  // measure 32
0000
0310
1000
0001
0010
0100
1000
0010
,  // measure 33
1000
0100
0010
0001
1000
0010
0100
0101
,  // measure 34
0000
0001
0100
1000
0100
0001
0010
0110
,  // measure 35
0000
0001
1000
1001
0000
1000
0100
0020
,  // measure 36
0000
0031
1000
0010
0001
0010
1000
0001
,  // measure 37
0010
0100
1000
1000
0001
0010
0100
0002
,  // measure 38
0000
0000
0103
1000
0001
0000
0100
0000
0010
0000
1000
0000
0010
0000
0002
0000
,  // measure 39
0000
0000
0013
1000
0001
0000
1000
0000
0100
0000
0010
0000
0001
0000
1000
0000
,  // measure 40
0000
1000
0010
0000
1010
0000
0001
0100
,  // measure 41
0000
0100
0010
2000
0000
3001
0010
0100
,  // measure 42
0000
0100
1000
0000
1001
0000
1000
0010
,  // measure 43
0000
0010
1000
0100
0001
0100
0010
0001
,  // measure 44
1000
1000
0010
0010
,  // measure 45
1000
0100
0000
0100
0010
0000
0001
0000
,  // measure 46
0100
0100
0010
0010
,  // measure 47
1000
0000
0001
0010
0100
0000
1000
0000
0010
0000
0100
0000
0001
0000
1000
0000
,  // measure 48
0000
1000
0100
0000
1100
0000
0001
0010
,  // measure 49
0000
0010
0001
1000
0010
0100
0001
1000
,  // measure 50
0000
1000
0020
0000
0230
0000
0302
0000
,  // measure 51
0023
0000
0000
0130
0000
0100
1000
0000
,  // measure 52
0001
0000
0100
0101
0000
1010
0000
1002
,  // measure 53
0000
0013
0100
1000
0010
0100
1000
0100
,  // measure 54
0001
0010
0001
1000
0001
0100
0001
1000
,  // measure 55
0001
0010
0100
1000
0001
0010
0100
1000
0020
0000
0000
0000
0130
0000
0000
0000
,  // measure 56
1001
0000
0110
0000
2001
3100
0010
0001
,  // measure 57
1000
0001
0100
0102
0000
1003
0100
0010
,  // measure 58
0001
0100
0010
0100
1000
0100
0001
0011
,  // measure 59
0000
0110
0000
1100
0000
0001
0100
2000
,  // measure 60
0000
3100
0001
0010
0100
1000
0100
0002
,  // measure 61
0000
0103
1000
0010
0100
0001
1000
0001
,  // measure 62
0010
0100
1000
0001
0100
0010
1000
0100
,  // measure 63
0010
0000
0010
0000
0001
0000
0001
0000
1000
0000
1000
0000
0001
0010
0100
1000
,  // measure 64
0010
0000
0110
0000
1001
0000
1000
0100
,  // measure 65
0001
0100
1000
0010
0100
0001
0010
0110
,  // measure 66
0000
1000
1001
0000
2010
0000
3001
0010
,  // measure 67
0100
1000
0010
1000
0100
0010
0001
1000
,  // measure 68
0000
1000
0010
0100
0001
0010
0100
1100
,  // measure 69
0000
0011
0000
0101
0000
1010
0000
1001
,  // measure 70
0000
0000
1000
0000
0001
0010
0001
0010
0100
0000
1000
0000
0010
0000
0200
0000
,  // measure 71
0000
0000
0301
0000
1000
0100
1000
0100
0010
0000
0001
0000
1000
0000
0020
0000
,  // measure 72
0000
0000
0130
0000
0001
1000
0001
1000
0010
0000
0100
0000
0001
0000
0020
0000
,  // measure 73
0000
0000
0031
0000
1000
0100
0010
0100
1000
0000
0001
0100
0010
1000
0002
0000
,  // measure 74
0000
0000
1003
0000
0001
0010
0100
1000
0001
0000
1000
0000
0010
0000
0200
0000
,  // measure 75
0000
0000
0301
0000
1000
0100
0010
0001
1000
0000
0001
0000
0100
0000
0020
0000
,  // measure 76
0000
0000
1030
0000
0001
0010
0100
0010
0001
0000
1000
0010
0100
0001
0020
0000
,  // measure 77
0000
0130
0010
0100
0010
0100
0110
0000
,  // measure 78
1001
0000
0000
0000
,  // measure 79
0000
0000
0000
0000
,  // measure 80
0000
0000
0000
0000
,  // measure 81
0000
0000
0000
0000
0000
0000
0000
0002
,  // measure 82
0000
0103
0010
0000
1000
0000
0000
2000
,  // measure 83
0000
3100
0010
0000
0001
0000
0001
2000
,  // measure 84
0000
3010
0100
0001
,  // measure 85
1000
0001
0100
0100
0010
1000
0100
0100
,  // measure 86
0010
0000
0110
0000
1001
0000
0001
1000
,  // measure 87
0100
0001
0100
0010
0001
0001
1000
0020
,  // measure 88
0000
0000
1030
0000
1100
0000
0001
0010
,  // measure 89
1000
0010
0100
1000
0010
0100
0000
0100
,  // measure 90
0002
0000
0000
0000
2003
0000
3200
0320
,  // measure 91
0032
2003
3020
0000
0130
0000
1001
0000
,  // measure 92
0110
0000
1002
0103
0010
1000
0001
0010
,  // measure 93
0100
1000
0010
0100
0001
0010
0110
0000
,  // measure 94
1100
0000
1010
0010
0100
0002
0013
0002
,  // measure 95
1003
0002
0103
0002
1003
2100
0000
3100
,  // measure 96
0001
0100
1000
0001
0100
2000
0000
3100
,  // measure 97
0010
1000
0001
0010
0100
1000
0010
0001
,  // measure 98
0010
1000
0100
0010
0001
1000
0010
0010
,  // measure 99
0100
0000
0100
0000
0001
0000
0001
0000
1000
0010
0100
0001
0010
0000
0000
0000
,  // measure 100
0110
0000
2001
0000
3010
1000
0100
1000
,  // measure 101
0001
0100
0010
1000
0100
0011
0000
1000
,  // measure 102
1100
0000
1001
0000
1000
0100
0001
0100
,  // measure 103
0010
0001
1000
0010
0100
0001
0000
0001
,  // measure 104
1000
0010
0100
0001
1000
0020
1030
0002
,  // measure 105
1003
0200
1300
0020
0130
0101
1000
1100
,  // measure 106
0100
0110
0010
0011
0001
1000
0100
0001
,  // measure 107
1000
0010
0001
1000
0010
0002
0000
0000
,  // measure 108
0000
0003
0000
0000
;
