#TITLE:Chemical Colours;
#SUBTITLE:;
#ARTIST:Blacklolita x BEMANI Sound Team "Expander";
#TITLETRANSLIT:;
#SUBTITLETRANSLIT:;
#ARTISTTRANSLIT:;
#GENRE:;
#CREDIT:;
#MUSIC:Chemical Colours.ogg;
#BANNER:Chemical Colours.png;
#BACKGROUND:Chemical Colours-bg.png;
#CDTITLE:;
#SAMPLESTART:78.624;
#SAMPLELENGTH:10.971;
#SELECTABLE:YES;
#OFFSET:-1.824;
#BPMS:0.000=175.000;
#STOPS:;
#JACKET:Chemical Colours-jacket.png;
#BGCHANGES:;
#FGCHANGES:;

//--------------- dance-single - ----------------
#NOTES:
     dance-single:
     :
     Medium:
     14:
     0,0,0,0,0:
0000
0000
0000
0000
,
0000
0000
0000
0000
,
0000
0000
0000
0000
,
0000
0000
0000
0000
,
1000
0010
1000
0000
0001
0100
0001
0000
,
2000
0000
3100
0020
0000
0130
1000
0000
,
0001
0010
0001
0000
1000
0100
0020
0000
,
0031
0100
0010
0100
0001
0010
0100
1000
,
0020
0000
0000
0000
,
0130
0001
1000
0100
0000
0010
0000
0002
,
0000
0000
0100
0000
1003
0010
0100
0001
,
0000
1000
0000
0010
0000
1000
0000
0100
,
0010
0001
0010
0001
1000
0100
0010
0000
,
0001
0100
0001
0100
0010
1000
0001
0000
,
0010
0100
0010
0100
0010
0100
0010
0100
,
0010
0000
0000
0000
0110
0000
1001
0001
,
0100
0010
1000
0001
0010
0100
1000
0001
,
1000
0100
0000
0000
1000
0100
0000
0000
0001
0000
0010
0000
0100
0000
1000
0000
,
0001
0100
1000
0000
1000
0100
0001
0000
,
1000
0000
0001
0000
0010
0000
0001
0000
0100
0000
0000
0100
0000
0000
0100
0000
,
0010
0000
2001
0000
3100
0010
0001
1000
,
0001
0100
0000
0000
0001
0100
0000
0000
1000
0000
0010
0000
0100
0000
0001
0000
,
0010
1000
0010
0001
1001
0000
0100
0010
,
0110
0000
0000
0000
1001
0000
0000
0000
1000
0000
0000
0001
0000
0000
1000
0000
,
0100
0010
0001
1000
0010
0100
0001
1000
,
0001
0100
0000
0000
0010
1000
0000
0000
0001
0000
0010
0000
0100
0000
1000
0000
,
0010
0001
0010
1000
0100
0001
0100
1000
,
0010
0000
0100
0000
0001
0000
0010
0000
0100
0000
0000
0100
0000
0000
0100
0000
,
1000
0000
1002
0000
0103
0010
1000
0001
,
1000
0100
0000
0000
0010
0001
0000
0000
1000
0000
0010
0000
0100
0000
0001
0000
,
0010
1000
0010
0001
0100
1000
0100
0001
,
2000
0000
0000
0000
0100
0000
3100
0000
0010
0000
0000
0001
0000
0000
1000
0000
,
0001
0100
0001
0100
0001
0100
0010
0000
,
1000
0100
1000
0100
0010
0001
1000
0010
,
0100
0001
1000
0000
0001
0010
0001
0010
,
0001
1000
0100
0001
0100
1000
0001
0010
,
0002
0000
0103
0010
2000
0000
3100
0010
,
0001
1000
0001
1000
0001
0100
0001
0010
,
0100
0000
0000
0100
0000
0000
0100
0000
1000
0000
0001
0000
0200
0000
0000
0000
,
0310
0000
0000
0010
0000
0000
0010
0000
1000
0000
0001
0000
0020
0000
0000
0000
,
0230
0000
1300
0001
1001
0000
1000
0010
,
1000
0010
1000
0010
0100
0001
2000
0000
,
3200
2300
3002
0203
,
0310
0000
0000
0010
1000
0000
0000
1000
0100
0000
0000
0010
0001
0000
1000
0000
,
0020
0000
0001
0000
1030
0000
0001
0010
,
0001
0010
0001
0010
0100
1000
0010
1000
,
0001
0000
0000
1000
0000
0000
1001
0000
1000
0000
0100
0000
0010
0000
0100
0000
,
1000
0000
0000
0001
0000
0000
1001
0000
0001
0000
0100
0000
0020
0000
0000
0000
,
2030
0000
0000
0000
3001
0000
0100
0010
,
1000
0000
0001
0000
1000
0100
0010
0000
,
0001
1000
0010
0000
1000
0000
0001
0010
,
0100
0000
1000
0000
0001
0001
1000
0000
,
0100
0010
0100
0000
1000
0000
0010
0100
,
0010
0000
1000
0001
0010
0000
0100
0000
,
1000
0001
0100
0000
0010
0000
1000
0100
,
0010
0002
2003
3020
,
1030
0001
1000
0000
1000
0010
1000
0000
,
0002
0000
1003
0200
0000
1300
0020
0000
,
0130
0001
0100
0000
0001
1000
0001
0000
,
1000
0001
0100
0002
0000
0013
0100
0000
,
1000
0100
1000
0000
0001
0010
0001
0000
,
2000
0000
3010
0200
0000
0310
1000
0000
,
0001
1000
0001
1000
0100
0010
0100
0010
,
0100
0000
0000
0000
0000
0000
0000
0000
0100
0010
0100
0000
1001
0000
0000
0000
,
0001
0100
0010
1000
0001
0010
0100
1000
,
0001
0100
1000
0100
0001
0010
0001
1000
,
0001
0010
0100
1000
0010
0100
0001
1000
,
0001
0010
1000
0010
0001
1000
0200
0000
,
1300
0010
0100
0001
1000
0100
0010
0001
,
1000
0100
0001
0100
1000
0010
1000
0001
,
0100
0010
1000
0001
0010
0100
1000
0001
,
2000
0000
0100
0000
0100
0000
0000
0001
0000
0000
0010
0000
3010
0000
0000
0000
,
0001
1000
0010
1000
0001
1000
0100
0010
,
1000
0010
0001
0100
0010
1000
0001
0000
,
1000
0001
0100
0001
1000
0001
0100
0010
,
0001
0010
1000
0001
0010
0100
1000
0000
,
0001
0100
0010
0100
0001
0010
0100
1000
,
0001
0100
0010
1000
0100
1000
0010
1000
,
0001
0000
1000
0000
0000
0000
1000
0001
1000
0000
0100
0000
0010
0000
0001
0000
,
1000
0010
0100
0001
1000
0100
0002
0000
,
0103
0000
0000
0101
0000
0000
1000
0000
0010
0000
0000
1010
0000
0000
1000
0000
,
0001
0010
1000
0010
0001
1000
0010
1000
,
0200
0000
0000
0000
,
0300
0000
0000
0000
;

//--------------- dance-single - ----------------
#NOTES:
     dance-single:
     :
     Hard:
     17:
     0,0,0,0,0:
0000
0000
0000
0000
,
0000
0000
0000
0000
,
0000
0000
0000
0000
,
0000
0000
0000
0000
,
0001
1000
0010
0000
1000
0001
0010
0100
,
2000
0000
3100
0002
0000
0103
0020
0000
,
0031
0100
2000
0000
3100
0010
1000
0100
,
0010
0001
0010
0000
0100
1000
0100
0000
1000
0010
1000
0000
0001
0010
0100
1000
,
0002
0000
0000
0003
,
0001
1000
0010
0200
0000
0302
0000
0023
,
0000
0000
0100
0000
0031
0100
0010
2000
,
0000
0001
0000
0010
0000
0100
0000
3001
,
0010
0010
0100
0100
1000
1000
0010
0100
,
0001
0001
1000
1000
0100
0100
0010
0001
,
1000
0001
1000
0001
1000
0001
1000
0001
0100
0010
0100
0010
0100
0010
0100
0010
,
0100
0000
0000
0000
0001
0000
0001
0000
1000
0001
1000
0000
0001
0010
0100
1000
,
0010
0100
0001
1000
0100
0010
0001
1000
,
0001
0100
0001
0000
0100
0001
0100
0000
0001
0010
0001
0010
0001
1000
0010
0100
,
0001
0000
1000
0000
0020
0030
0020
0030
0001
0000
1000
0000
0200
0300
0200
0300
,
0001
0000
1000
0000
0100
0000
0010
0000
0011
0000
0000
0101
0000
0000
0110
0000
,
2001
0000
3010
0100
0001
1000
0100
0010
,
0001
0010
0001
0000
0010
0001
0010
0000
0001
0100
0001
0100
0001
0010
0100
1000
,
0010
1000
0100
0010
1001
0000
0001
0100
,
0110
0000
0000
0000
1000
0000
0001
0000
0010
0000
0100
1000
0000
1000
0001
0000
,
0100
0001
0010
0100
1000
0001
0100
0010
,
1000
0001
0010
0000
0001
1000
0010
0000
0100
0001
0100
0001
1000
0100
0010
0001
,
0100
0000
0001
0000
0020
0030
0020
0030
1000
0000
0001
0000
0200
0300
0200
0300
,
1000
0000
0001
0000
0101
0000
0100
0000
0110
0000
0000
1001
0000
0000
0110
0000
,
2001
0000
0000
0000
3100
0000
0010
0000
0001
1000
0010
1000
0001
0000
1000
0000
,
0001
1000
0100
0000
1000
0001
0100
0000
0010
1000
0010
1000
0001
0010
0100
1000
,
0010
0100
0010
0000
0100
0001
0100
0000
0001
0010
0001
0000
0011
0000
0110
0000
,
1001
0000
0000
0000
0001
0000
1000
0000
0010
0000
0100
0001
0000
0001
1000
0000
,
0100
1000
0100
1000
0001
1000
0001
1000
0001
0100
0001
0100
0010
0000
1000
0000
,
0001
0010
0001
0010
0100
0010
0100
0010
0100
1000
0100
1000
0001
0000
0100
0000
,
0010
0000
1000
0000
0200
0000
0000
0000
1300
0001
1000
0001
0100
0001
0100
0001
,
0010
0001
0010
0001
2000
0000
0000
0000
3020
0000
0230
0000
2300
0000
3200
0000
,
0302
0023
0230
0302
0203
2300
3002
0000
,
1003
0100
1000
0100
0010
0001
0010
0001
1000
0000
0010
0000
0100
0000
0001
0000
,
1000
0000
0001
0100
0000
0010
1000
0000
0100
0000
0010
0000
0100
0000
1000
0001
,
0010
0000
0100
1000
0000
0001
0100
0000
0010
1000
0010
1000
0001
0000
0010
0000
,
0100
0000
0000
0000
1000
0000
0001
0000
0100
0000
0000
0000
0010
1000
0010
1000
,
0001
1000
0001
1000
0001
0100
0001
0100
0001
0010
0001
1000
0010
0100
0001
1000
,
0200
0000
1300
0001
1001
0000
1010
0000
,
0101
0000
0000
0000
0011
0000
0000
1000
0001
0000
0000
0001
0100
0000
0010
0000
,
0200
0000
0000
0000
000M
0000
0300
0000
1100
0000
0000
0000
0001
0010
0001
0010
,
0100
1000
0100
1000
0001
0100
0001
0100
0010
1000
0001
0010
0100
1000
0100
0010
,
0001
0000
0000
0100
0000
0000
0101
0000
0001
0000
0100
0000
0010
0000
1000
0000
,
0001
0000
0000
0011
0000
0000
1100
0000
0001
0010
0100
1000
0010
0000
1000
0000
,
0200
0000
0000
0000
2300
0000
3001
0002
,
0003
0000
1000
0100
0010
0010
0002
0000
,
0103
0100
0001
1000
0010
1000
0001
0001
,
0010
0000
0001
0000
1000
0000
0100
0000
1000
0010
1000
0000
0001
0100
0001
0000
,
0010
0000
0020
0000
0030
0000
0000
0000
0001
0000
1000
0000
0200
0300
0200
0300
,
0001
0000
1000
0000
0020
0030
0020
0030
0001
0000
0010
0000
0100
0000
1000
0000
,
0020
0030
0020
0030
0100
0000
1000
0000
0001
0000
0010
0000
0200
0300
0200
0300
,
0001
1000
0010
0100
0002
0000
2003
0000
,
3100
2000
0010
0000
3100
0010
0001
0200
,
0010
0000
0000
0000
0301
0000
1000
0000
0100
0010
0001
1000
0010
0000
0100
0000
,
0001
0020
0100
0000
0031
0200
0010
0301
,
1000
0000
0100
0000
0010
0000
0100
0000
1000
0000
0010
0100
0000
0100
0001
0000
,
1000
0002
0100
0000
1003
0001
0010
0200
,
1000
0000
0000
0000
0310
0000
0001
0000
1000
0010
0100
0001
2000
0000
0100
0000
,
3001
0010
0001
0010
0100
1000
0100
1000
0010
1000
0010
0100
0001
1000
0100
0010
,
0001
0100
0001
0000
1000
0010
1000
0000
0001
0100
0010
1000
0001
0000
0010
0000
,
0100
0000
1000
0100
0010
0000
0001
1000
0010
0000
0100
0001
0010
0000
0100
0000
,
1000
0000
0020
0030
0020
0030
0001
0000
1000
0000
0200
0300
0200
0300
0010
0000
,
1000
0000
0001
0010
0100
0000
1000
0010
0100
0000
0001
1000
0100
0000
0010
0000
,
0001
1000
0010
0100
0001
0010
0200
0000
,
1300
0000
0001
1000
0010
0000
0100
0001
0010
0000
0100
1000
0010
0000
0100
0001
,
1000
0000
0200
0300
0200
0300
0001
0000
0010
0000
0200
0300
0200
0300
0001
0000
,
0010
0000
0100
1000
0010
0000
0100
0001
0010
0000
0001
1000
0010
0000
0100
0000
,
0002
0000
2003
0000
0010
0000
3001
0010
0100
0000
1000
0010
0000
0100
0001
0000
,
1000
0000
0100
0010
0001
0000
0100
0010
1000
0000
0010
0100
1000
0000
0100
0000
,
0001
0000
0020
0030
0020
0030
1000
0000
0100
0000
0020
0030
0020
0030
1000
0000
,
0001
0000
1000
0100
0010
0000
0001
1000
0010
0000
1000
0100
0001
0000
0100
0000
,
1000
0000
0020
0030
0020
0030
0100
0000
1000
0000
0100
0000
0020
0000
0000
0000
,
0031
0000
1000
0001
0010
0000
0001
0010
1000
0000
1000
0010
0001
0000
1000
0100
,
0010
0000
0001
0000
0020
0030
0020
0030
1000
0000
0001
0000
0200
0300
0200
0300
,
0010
0000
0001
0000
0000
0000
0001
0100
0010
0000
1000
0000
0001
0000
0010
0000
,
1000
0010
0001
1000
0010
0200
1000
0000
,
0301
0100
0000
0101
0000
0000
1000
0000
0100
0010
0000
2001
0000
0000
3010
0000
,
0100
0001
0100
0001
0010
0001
0010
0001
1000
0010
0100
0001
0010
0100
1000
0001
,
0200
0000
0000
0000
,
0300
0000
0000
0000
;
