#VERSION:0.83;
#TITLE:Cheer Train;
#SUBTITLE:;
#ARTIST:Fuzita Blender;
#TITLETRANSLIT:;
#SUBTITLETRANSLIT:;
#ARTISTTRANSLIT:;
#GENRE:;
#CREDIT:;
#MUSIC:Cheer Train.ogg;
#BANNER:;
#BACKGROUND:;
#CDTITLE:;
#SAMPLESTART:33.263;
#SAMPLELENGTH:15.000;
#SELECTABLE:YES;
#OFFSET:-1.263;
#BPMS:0.000=120.000;
#STOPS:;
#BGCHANGES:-1.500=Cheer Train.mp4=1.000=0=0=0=StretchNoLoop====,
99999.000=-nosongbg-=1.000=0=0=0=StretchNoLoop====;
#FGCHANGES:;

//--------------- dance-single - eataninja ----------------
#NOTEDATA:;
#STEPSTYPE:dance-single;
#DESCRIPTION:eataninja;
#DIFFICULTY:Beginner;
#METER:3;
#RADARVALUES:0,0,0,0,0;
#NOTES:
0000
0000
0000
0000
,
0000
0000
0000
0000
,
0000
0000
0000
0000
,
0000
0000
0000
0000
,
0001
0000
0010
0000
,
0200
0000
0300
0000
,
1000
0000
0100
0000
,
0020
0000
0030
0000
,
0001
0000
0001
0000
,
1000
0000
1000
0000
,
0010
0000
0010
0000
,
0100
0000
0100
0000
,
0001
0000
0001
0000
,
1000
0000
1000
0000
,
0100
0000
0100
0000
,
0010
0000
0000
0000
,
0001
0001
1000
0000
,
1001
0000
0000
0000
,
0100
0100
0010
0000
,
0110
0000
0000
0000
,
1000
1000
0001
0000
,
1001
0000
0000
0000
,
0010
0010
0100
0000
,
0110
0000
0000
0000
,
1000
0000
0100
0000
,
0020
0000
0030
0000
,
0001
0000
0010
0000
,
0200
0000
0300
0000
,
2000
0000
0000
3000
,
0002
0000
0000
0003
,
0200
0000
0000
0300
,
0020
0000
0000
0030
,
1001
0000
0000
0000
,
1000
0001
1000
0000
,
1001
0000
0000
0000
,
0100
0010
0100
0000
,
0110
0000
0000
0000
,
0001
1000
0001
0000
,
0110
0000
0000
0000
,
0010
0100
0010
0000
,
1000
1000
0100
0000
,
0000
1000
1001
0000
,
0001
0001
0100
0000
,
0000
0001
1001
0000
,
1000
1000
0010
0000
,
0000
1000
1001
0000
,
0001
0001
0010
0000
,
0000
0001
1001
0000
,
1000
0000
0100
0000
,
0020
0000
0030
0000
,
0001
0000
0100
0000
,
0020
0000
0030
0000
,
1001
0000
0000
0000
;

//--------------- dance-single - eataninja ----------------
#NOTEDATA:;
#STEPSTYPE:dance-single;
#DESCRIPTION:eataninja;
#DIFFICULTY:Easy;
#METER:6;
#RADARVALUES:0,0,0,0,0;
#NOTES:
0000
0000
0000
0000
,
0000
0000
0000
0000
,
0000
0000
0000
0000
,
0000
0000
0000
0000
,
1000
0100
0010
0100
,
0001
0100
0010
0000
,
0001
0100
0010
0100
,
1000
0100
0010
0000
,
1000
0100
0010
0001
,
1000
0010
1000
0010
,
0100
0001
1000
0100
,
0010
0001
0010
0001
,
1000
0010
0100
0001
,
1000
0100
1000
0100
,
0010
0001
1000
0010
,
0100
0001
1000
1000
,
0001
0010
1001
0000
,
0110
0000
0100
0001
,
1000
0100
1001
0000
,
0110
0000
0010
1000
,
0001
0100
1001
0000
,
0110
0000
0100
1000
,
0001
0010
1001
0000
,
0110
0000
0010
0001
,
2000
0000
3020
0000
,
0230
0000
0000
0301
,
2000
0000
3200
0000
,
0320
0000
0000
0031
,
0200
0000
0010
0000
,
0302
0000
0013
0100
,
2000
0000
0001
0000
,
3100
0100
0010
0010
,
1001
0000
0100
0010
,
1000
0001
1001
0101
,
1000
0000
0100
0010
,
0001
1000
1001
1100
,
0001
0000
0010
0100
,
1000
0001
1001
0011
,
1000
0000
0010
0100
,
0001
0000
1000
1000
1000
0000
0000
0000
,
0010
0100
0110
0001
,
1000
0100
0110
1001
,
0010
0100
0110
1000
,
0001
0100
0110
1001
,
0100
1000
1100
0001
,
0100
0010
0110
1001
,
0010
0001
0011
1000
,
0010
0010
0100
0000
,
0001
0100
0010
0100
,
1000
0100
0010
0010
,
1000
0100
0001
0100
,
0010
0100
1000
0001
,
1001
0000
0000
0000
;

//--------------- dance-single - eataninja ----------------
#NOTEDATA:;
#STEPSTYPE:dance-single;
#DESCRIPTION:eataninja;
#DIFFICULTY:Medium;
#METER:10;
#RADARVALUES:0,0,0,0,0;
#NOTES:
0000
0000
0000
0000
,
0000
0000
0000
0000
,
0000
0000
0000
0000
,
0000
0000
0000
0000
,
1000
0100
0010
0000
0001
1000
0010
0000
,
0100
0000
0010
0000
1000
0000
0000
0000
0100
0000
0000
0010
0000
0000
0010
0000
,
0001
0010
0100
0000
1000
0001
0100
0000
,
0010
0000
0000
0000
1001
0000
0000
0000
0001
0000
0000
0010
0000
0000
0010
0000
,
0100
0010
0001
1000
0010
0100
0001
0000
,
1000
0000
0010
0000
1000
0000
0010
0000
0100
0000
0000
0001
0000
0000
0001
0000
,
1000
0100
0010
0001
1000
0010
1000
0000
,
0001
0000
0100
0000
0010
0000
1000
0000
0001
0000
0000
1000
0000
0000
1000
0000
,
0100
0010
0001
0100
0010
1000
0001
0000
,
0100
0000
0001
0000
0100
0000
0001
0000
1000
0000
0000
0100
0000
0000
0100
0000
,
0010
0001
1000
0010
0100
0010
1000
0001
,
0010
0100
1000
0001
0100
0000
0100
0000
,
0010
0000
0000
1000
0000
0000
0001
0000
1001
0000
0000
0000
0000
0000
0000
0000
,
0001
0000
0010
0000
1000
0000
0000
0000
0010
0000
0000
0100
0000
0000
0100
0000
,
0010
0000
0000
0001
0000
0000
1000
0000
1001
0000
0000
0000
0000
0000
0000
0000
,
1000
0000
0010
0000
0001
0000
0000
0000
0010
0000
0000
0100
0000
0000
0100
0000
,
0001
0000
0000
1000
0000
0000
0100
0000
1001
0000
0000
0000
0000
0000
0000
0000
,
0001
0000
0100
0000
1000
0000
0000
0000
0100
0000
0000
0010
0000
0000
0010
0000
,
1000
0000
0000
0001
0000
0000
0010
0000
1001
0000
0000
0000
0000
0000
0000
0000
,
1000
0000
0100
0000
0001
0000
0000
0000
0100
0000
0000
0010
0000
0000
0010
0000
,
0002
1000
0203
1000
,
0302
0000
0000
0000
0000
0000
0000
0000
0013
0000
0000
0100
0000
0000
0100
0000
,
2000
0001
3020
0001
,
2030
0000
0000
0000
0000
0000
0000
0000
3100
0000
0000
0010
0000
0000
0010
0000
,
0002
0000
0100
0000
1003
0100
0010
0000
,
0200
0000
0000
0000
1000
0000
0000
0000
0301
0000
0000
0100
0000
0000
1000
0000
,
0020
0000
0230
0000
1300
0100
0001
0000
,
0010
0000
0000
0000
1001
0000
0000
0000
1000
0000
0000
0010
0000
0000
0010
0000
,
0110
0000
0000
0000
1000
0001
0010
0000
,
0100
0010
0011
0000
1010
0010
0100
0000
,
0001
1000
0001
0000
0010
0100
1000
0000
,
0010
0100
0101
0000
1100
0100
0010
0000
,
0001
1000
0010
0100
0001
0010
0100
0000
,
1000
0001
0011
0000
1100
1000
0001
0000
,
1000
0010
0100
0001
0010
0100
1000
0000
,
0101
0000
0010
0010
1001
0000
0000
0000
,
0001
0000
0000
0010
0000
0000
0100
0000
1100
0000
0000
0000
0001
0000
0000
0000
,
1000
0010
0110
0000
1001
1000
0010
0000
,
1000
0000
0000
0100
0000
0000
0010
0000
0011
0000
0000
0000
1000
0000
0000
0000
,
0001
0100
0110
0000
1001
0001
0010
0000
,
0001
0000
0000
0100
0000
0000
0010
0000
1010
0000
0000
0000
0001
0000
0000
0000
,
1000
0100
0110
0000
1001
1000
0100
0000
,
1000
0000
0000
0010
0000
0000
0100
0000
0101
0000
0000
0000
1000
0000
0000
0000
,
0001
0010
0110
0000
1001
0001
0010
0000
,
0001
1000
0010
0100
0001
0010
0100
1000
,
0010
0000
0100
0000
0001
0000
1000
0000
0100
0000
0000
0010
0000
0000
0010
0000
,
0001
0010
0100
1000
0001
0100
0010
1000
,
0100
0000
0010
0000
0001
0000
1000
0000
0010
0000
0000
0100
0000
0000
0110
0000
,
0001
0000
0000
0000
;

//--------------- dance-single - eataninja ----------------
#NOTEDATA:;
#STEPSTYPE:dance-single;
#DESCRIPTION:eataninja;
#DIFFICULTY:Hard;
#METER:13;
#RADARVALUES:0,0,0,0,0;
#NOTES:
0000
0000
0000
0000
,
0000
0000
0000
0000
,
0000
0000
0000
0000
,
0000
0000
0000
0000
,
1000
0000
0100
0000
0010
0001
1000
0000
0010
0000
0100
0000
1000
0100
0001
0000
,
0010
0000
0100
0000
1000
0001
0100
0000
0010
0000
0000
1010
0000
0000
1010
0000
,
0001
0000
0010
0000
0100
1000
0001
0000
0100
0000
0010
0000
0001
0010
1000
0000
,
0100
0000
0000
0000
0000
0010
0000
0000
0001
0000
0000
0000
0000
0000
0000
0000
1002
0000
0000
0000
0000
0000
0000
0000
0000
0000
0000
0000
0000
1003
0000
0000
0010
0000
0000
0000
0000
0100
0000
0000
0000
0000
0000
0000
0000
0100
0000
0000
0000
0000
0000
0000
0000
0010
0000
0000
1000
0000
0000
0000
0000
0000
0000
0000
,
0001
0010
0000
0100
0010
0000
0001
1000
0000
0010
0100
0000
0001
0100
0000
0010
,
1000
0000
0100
0010
0000
0001
1000
0000
0010
0100
0000
0010
1000
0000
0001
0010
,
0000
0100
0010
0000
0001
1000
0000
0010
1000
0000
0100
0010
0000
0001
0010
0000
,
0001
1000
0000
0010
0100
0000
0010
1000
0000
0001
0010
0000
0100
1000
0000
0000
,
0001
0100
0000
1000
0100
0000
0010
1000
0000
0001
0010
0000
0100
1000
0000
0100
,
0001
0000
0100
0010
0000
0001
1000
0000
0010
0100
0000
0001
1000
0100
0000
0000
,
0010
0001
0000
1000
0010
0000
0001
0010
0000
0100
0010
0000
1000
0001
0000
0010
,
1000
0000
0010
0100
0000
1000
0001
0000
0100
0001
0000
0001
0000
0100
0010
0000
,
1010
0000
0000
0101
0000
0000
0001
0000
2100
0000
0000
0000
3010
0000
0000
0000
,
0001
0000
0010
0000
1000
0000
0001
0000
0021
0000
0000
0100
0000
0000
0130
0000
,
1100
0000
0000
0011
0000
0000
0001
0000
2010
0000
0000
0000
3100
0000
0000
0000
,
0001
0000
0100
0000
1000
0000
0001
0000
0201
0000
0000
0010
0000
0000
0310
0000
,
1010
0000
0000
0101
0000
0000
0011
0000
0120
0000
0000
0000
1000
0000
0000
0000
,
0031
0000
0100
0000
0010
1000
0001
0000
0021
0000
0000
0100
0000
0000
0130
0000
,
1100
0000
0000
0011
0000
0000
0101
0000
0120
0000
0000
0000
0001
0000
0000
0000
,
1030
0000
0000
0000
0000
0001
0000
0000
0100
0000
0000
0000
0000
0000
0000
0000
2001
0000
0000
0000
0000
0000
0000
0000
0000
0000
0000
0000
0000
3010
0000
0000
0100
0000
0000
0000
0000
0100
0000
0000
0000
0000
0000
0000
0000
0001
0000
0000
0000
0000
0000
0000
0000
1000
0000
0000
0010
0000
0000
0000
0000
0000
0000
0000
,
1000
0100
0010
0000
0001
1000
0010
0000
0100
0001
0010
0000
1000
0010
0001
0000
,
1000
0010
0100
0000
0001
1000
0100
0000
0120
0000
0000
0001
0000
0000
0001
0030
,
1000
0010
0100
0000
0001
1000
0100
0000
0010
0001
0100
0000
1000
0100
0001
0000
,
1000
0100
0010
0000
0001
1000
0010
0000
0210
0000
0000
0001
0000
0000
0301
0000
,
2000
0000
0010
0000
0001
0000
3100
0001
,
0200
0000
0000
0000
1000
0000
0000
0000
0001
0000
0000
0010
0000
0000
1300
0000
,
0002
0100
1000
0013
,
0001
0000
0000
0000
0000
0010
0000
0000
0100
0000
0000
0000
0000
0000
0000
0000
2001
0000
0000
0000
0000
0000
0000
0000
0000
0000
0000
0000
0000
3010
0000
0000
0100
0000
0000
0000
0000
0100
0000
0000
0000
0000
0000
0000
0000
0001
0000
0000
0000
0000
0000
0000
0000
1000
0000
0000
0001
0000
0000
0000
0000
0000
0000
0000
,
1100
0000
0100
0000
0010
0001
1000
0000
0010
0000
0100
0000
1000
0100
0001
0000
,
1000
0010
0110
0000
1001
0010
1100
0000
,
0001
0000
0100
0000
0010
1000
0001
0000
0010
0000
0100
0000
0001
0100
1000
0000
,
0001
0100
0110
0000
1001
0100
0101
0000
,
1000
0100
0010
0000
0001
1000
0010
0000
0100
0001
0010
0000
1000
0010
0001
0000
,
1000
0001
0101
0000
0110
0100
1001
0000
,
0001
0100
0010
0000
1000
0001
0010
0000
0100
1000
0010
0000
0001
0010
1000
0000
,
0001
0000
1000
0000
0100
0010
0100
0010
0001
1000
0000
1000
0000
0010
0100
0000
,
0001
0100
0000
0100
0010
1000
0001
0000
0011
0000
0100
0000
1100
0000
0000
0000
,
0001
0010
0100
1000
0010
0000
0000
0000
0210
0000
0000
0001
0000
0000
0301
0000
,
1000
0100
0000
0100
0010
0001
1000
0000
1010
0000
0010
0000
0101
0000
0000
0000
,
1000
0100
0010
0001
0100
0000
0000
0000
0120
0000
0000
1000
0000
0000
1030
0000
,
0001
0100
0000
1000
0100
0010
0100
0000
1001
0000
0001
0000
1010
0000
0000
0000
,
0001
0010
0100
1000
0010
0000
0000
0000
0210
0000
0000
0001
0000
0000
0301
0000
,
1000
0100
0000
0001
0100
0010
0100
0000
1001
0000
1000
0000
0011
0000
0000
0000
,
1000
0000
0000
0000
0000
0100
0000
0000
0010
0000
0000
0000
0000
0000
0000
0000
2001
0000
0000
0000
0000
0000
0000
0000
0000
0000
0000
0000
0000
3100
0000
0000
0010
0000
0000
0000
0000
0010
0000
0000
0000
0000
0000
0000
0000
0001
0000
0000
0000
0000
0000
0000
0000
1000
0000
0000
0010
0000
0000
0000
0000
0000
0000
0000
,
1000
0100
0010
0001
0100
0010
1000
0000
0001
0100
0010
0100
1000
0100
0001
0000
,
1000
0100
0010
0001
1000
0001
0100
0000
0120
0000
0000
1000
0000
0000
1030
0000
,
0001
0010
0100
1000
0010
0100
0001
0000
1000
0010
0100
0010
0001
0010
1000
0000
,
0001
0010
0100
1000
0001
1000
0010
0000
0110
0000
0000
1001
0000
0000
1100
0000
,
0011
0000
0000
0000
;
