#VERSION:0.83;
#TITLE:Cha Cha;
#SUBTITLE:;
#ARTIST:Chelo;
#TITLETRANSLIT:;
#SUBTITLETRANSLIT:;
#ARTISTTRANSLIT:;
#GENRE:;
#ORIGIN:;
#CREDIT:;
#BANNER:Cha Cha.png;
#BACKGROUND:Cha Cha-bg.png;
#PREVIEWVID:;
#JACKET:Cha Cha-jacket.png;
#CDIMAGE:;
#DISCIMAGE:;
#LYRICSPATH:;
#CDTITLE:cdtitle.png;
#MUSIC:Cha Cha.ogg;
#OFFSET:-0.235000;
#SAMPLESTART:59.058529;
#SAMPLELENGTH:9.411762;
#SELECTABLE:YES;
#BPMS:0.000=204.000;
#STOPS:;
#DELAYS:;
#WARPS:;
#TIMESIGNATURES:0.000=4=4;
#TICKCOUNTS:0.000=4;
#COMBOS:0.000=1;
#SPEEDS:0.000=1.000=0.000=0,
320.000=0.250=4.000=0,
324.000=1.000=4.000=0;
#SCROLLS:0.000=1.000,
288.000=0.000,
290.000=1.000;
#FAKES:;
#LABELS:0.000=Song Start;
#BGCHANGES:;
#KEYSOUNDS:;
#ATTACKS:
;

//---------------dance-single - Pilgrimsito----------------
#NOTEDATA:;
#CHARTNAME:;
#STEPSTYPE:dance-single;
#DESCRIPTION:Pilgrimsito;
#CHARTSTYLE:;
#DIFFICULTY:Hard;
#METER:14;
#RADARVALUES:0.632459,0.759625,0.377453,0.802089,0.436431,563.000000,515.000000,48.000000,102.000000,154.000000,0.000000,0.000000,0.000000,0.000000,0.632459,0.759625,0.377453,0.802089,0.436431,563.000000,515.000000,48.000000,102.000000,154.000000,0.000000,0.000000,0.000000,0.000000;
#CREDIT:Pilgrimsito;
#NOTES:
// measure 0
0000
0000
0000
0000
,  // measure 1
0000
0000
0000
0000
,  // measure 2
0101
1000
1100
0001
,  // measure 3
0101
0000
0000
0000
0000
0000
0000
0000
0000
0000
0000
0000
1000
0000
0000
0000
0000
0000
0000
0001
0000
0000
0000
0000
0000
0000
0000
0000
0000
0000
0000
1000
0000
0000
0000
0000
0001
0000
0000
0000
0000
0000
0000
0000
0000
0000
0000
0000
,  // measure 4
0011
1000
1010
0001
,  // measure 5
0011
0000
0000
0000
0000
0000
0000
0000
0000
0000
0000
0000
1000
0000
0000
0000
0000
0000
0000
0001
0000
0000
0000
0000
0000
0000
0000
0000
0000
0000
0000
1000
0000
0000
0000
0000
0001
0000
0000
0000
0000
0000
0000
0000
0000
0000
0000
0000
,  // measure 6
0101
1000
1100
0001
,  // measure 7
0101
0000
0000
0000
0000
0000
0000
0000
0000
0000
0000
0000
1000
0000
0000
0000
0000
0000
0000
0001
0000
0000
0000
0000
0000
0000
0000
0000
0000
0000
0000
1000
0000
0000
0000
0000
0001
0000
0000
0000
0000
0000
0000
0000
0000
0000
0000
0000
,  // measure 8
0011
1000
1010
0001
,  // measure 9
0011
0000
0000
0000
0000
0000
0000
0000
0000
0000
0000
0000
1000
0000
0000
0000
0000
0000
0000
0001
0000
0000
0000
0000
0000
0000
0000
0000
0000
0000
0000
1000
0000
0000
0000
0000
0001
0000
0000
0000
0000
0000
0000
0000
0000
0000
0000
0000
,  // measure 10
2100
0100
0001
0001
,  // measure 11
0010
0010
0001
3001
,  // measure 12
0102
0100
1000
1000
,  // measure 13
0010
0010
1000
1003
,  // measure 14
2001
0001
0010
0010
,  // measure 15
0001
0001
0100
3100
,  // measure 16
1001
0000
0000
0000
M000
0M00
00M0
000M
0M00
00M0
M000
0M00
00M0
000M
0M00
00M0
,  // measure 17
M000
0M00
00M0
000M
00M0
0M00
M000
00M0
0M00
000M
00M0
0M00
M000
00M0
0M00
0000
,  // measure 18
0000
0000
1000
0000
0001
0100
0000
0020
,  // measure 19
0030
0020
0000
0030
0000
0000
0000
0000
,  // measure 20
1000
0100
0010
0100
1000
0010
0200
0000
,  // measure 21
0300
0001
0010
0001
0200
0300
0200
0000
,  // measure 22
0300
0002
0003
0002
0000
1003
0100
0100
,  // measure 23
0000
0020
0030
0020
0030
0001
0100
0010
,  // measure 24
1000
0000
0100
0010
0000
0001
0100
1000
,  // measure 25
0000
1000
0100
0001
0000
0001
0010
0100
,  // measure 26
1000
0000
1000
0000
0001
0010
0000
0200
,  // measure 27
0300
0200
0000
0000
0000
0000
0300
0000
,  // measure 28
1000
0001
0100
0010
1000
0100
0020
0000
,  // measure 29
0130
1000
0010
0100
0002
0000
0013
0000
,  // measure 30
1001
0002
0003
0002
0000
1003
0010
1000
,  // measure 31
0100
2000
3000
0002
0003
1000
0010
0100
,  // measure 32
0000
0001
0010
0100
0000
1000
0010
0001
,  // measure 33
0000
0001
0010
1000
0000
1000
0100
0010
,  // measure 34
0001
0001
0020
0001
,  // measure 35
0230
0000
1000
0000
0310
0000
0001
0100
,  // measure 36
0010
0010
0200
0001
,  // measure 37
0320
0000
1000
0000
0130
0000
0001
0010
,  // measure 38
0200
0300
0000
1000
0001
0000
0001
1000
,  // measure 39
0100
0100
0010
0010
,  // measure 40
0002
0010
1000
0100
,  // measure 41
2003
0010
0001
3100
,  // measure 42
1001
0000
0000
0001
0000
1000
0100
0000
0100
1000
0000
1000
,  // measure 43
0001
0000
0000
0000
0001
0000
1000
0000
0000
0001
0000
0000
0200
0000
0000
0300
0000
0000
0200
0000
0000
0300
0000
0000
,  // measure 44
1001
0000
0000
1000
0000
0001
0100
0000
0100
0001
0000
0001
,  // measure 45
1000
0000
0000
0000
1000
0000
0001
0000
0000
1000
0000
0000
0200
0000
0000
0300
0000
0000
0200
0000
0000
0300
0000
0000
,  // measure 46
1001
1000
0000
0010
0200
0300
0200
0300
,  // measure 47
0001
1000
0100
0010
0200
0300
0200
0300
,  // measure 48
1001
1000
0100
0010
0010
0000
0001
0100
,  // measure 49
0010
0000
0010
0100
0002
0000
1003
0000
,  // measure 50
1001
0000
0000
1000
0000
0001
0100
0000
0100
0010
0000
0010
,  // measure 51
1000
0000
0000
0000
1000
0000
0001
0000
0000
1000
0000
0000
0200
0000
0000
0300
0000
0000
0200
0000
0000
0300
0000
0000
,  // measure 52
1001
0000
0000
0001
0000
1000
0100
0000
0100
0010
0000
0010
,  // measure 53
0001
0000
0000
0000
0001
0000
1000
0000
0000
0001
0000
0000
0200
0000
0000
0300
0000
0000
0200
0000
0000
0300
0000
0000
,  // measure 54
1001
0001
0000
0010
0200
0300
0200
0300
,  // measure 55
1000
0001
0100
0010
0200
0300
0200
0300
,  // measure 56
1001
0001
0010
0100
0100
0000
1000
0010
,  // measure 57
0100
0000
0100
0010
2000
0000
3001
0000
,  // measure 58
200M
00MM
000M
000M
300M
0000
0000
0000
MMM2
00M0
MMM0
M000
MMM3
0000
0000
0000
,  // measure 59
2MMM
0000
0000
000M
0000
0000
0MMM
0000
0000
000M
0000
0000
3MMM
0000
0000
0000
0000
0000
0000
0000
0001
0000
0000
0000
1000
0000
0000
0000
0000
0000
0000
0000
0000
0000
0000
0000
0200
0000
0000
0000
0300
0000
0000
0000
0000
0000
0000
0000
,  // measure 60
200M
00MM
000M
000M
300M
0000
0000
0000
MMM2
00M0
MMM0
M000
MMM3
0000
0000
0000
,  // measure 61
2MMM
0000
0000
000M
0000
0000
0MMM
0000
0000
000M
0000
0000
3MMM
0000
0000
0000
0000
0000
0000
0000
0001
0000
0000
0000
1000
0000
0000
0000
0000
0000
0000
0000
0000
0000
0000
0000
0020
0000
0000
0000
0030
0000
0000
0000
0000
0000
0000
0000
,  // measure 62
200M
00MM
000M
000M
300M
0000
0000
0000
MMM2
00M0
MMM0
M000
MMM3
0000
0000
0000
,  // measure 63
2MMM
0000
0000
000M
0000
0000
0MMM
0000
0000
000M
0000
0000
3MMM
0000
0000
0000
0000
0000
0000
0000
0001
0000
0000
0000
1000
0000
0000
0000
0000
0000
0000
0000
0000
0000
0000
0000
0200
0000
0000
0000
0300
0000
0000
0000
0000
0000
0000
0000
,  // measure 64
2200
3300
0000
2020
3030
0000
0202
0303
,  // measure 65
0000
0022
0033
0000
2002
0000
3003
0000
,  // measure 66
1001
0000
0001
1000
0000
0000
0010
0000
1000
0001
0000
0000
,  // measure 67
0010
0000
0001
1000
0000
0000
0010
0000
1000
0001
0000
0000
,  // measure 68
1001
0000
0001
1000
0000
0000
0100
0000
1000
0001
0000
0000
,  // measure 69
0100
0000
0001
1000
0000
0000
0100
0000
1000
0001
0000
0000
,  // measure 70
1000
0010
1000
0100
0010
0001
0100
0010
,  // measure 71
0100
0001
1000
0100
0010
0100
1000
0001
,  // measure 72
1001
0000
0000
0000
,  // measure 73
1000
0000
0010
0100
0000
0010
0100
0000
0010
0100
0000
0010
,  // measure 74
0100
0000
0000
0001
0000
1000
0010
0000
1000
0001
0000
1000
,  // measure 75
0100
0000
0000
0000
1000
0000
0001
0000
0000
1000
0000
0000
0010
0000
0000
0000
0000
0000
0010
0000
0000
0000
0000
0000
,  // measure 76
1001
0000
0000
1000
0000
0001
0010
0000
0001
1000
0000
0001
,  // measure 77
0100
0000
0000
0000
0001
0000
1000
0000
0000
0001
0000
0000
0010
0000
0000
0000
0000
0000
0010
0000
0000
0000
0000
0000
,  // measure 78
1001
1000
0000
0010
0200
0300
0200
0301
,  // measure 79
0020
0030
0020
0130
2000
3000
2000
3000
,  // measure 80
2MM2
0MM0
0MM0
0MM0
,  // measure 81
0MM0
0000
0MM0
0000
0MM0
0000
0MM0
3003
,  // measure 82
0002
0010
1000
0100
,  // measure 83
1000
0010
1000
0100
,  // measure 84
2003
0010
0001
0100
,  // measure 85
0001
0010
0001
0100
,  // measure 86
3002
0010
1000
0100
,  // measure 87
1000
0010
1000
0100
,  // measure 88
1003
0001
0100
0001
0010
0200
0300
0200
,  // measure 89
0300
1000
0010
1000
0100
0020
0030
0000
,  // measure 90
1001
0000
0000
1000
0000
0001
0010
0000
1000
0010
0000
0001
,  // measure 91
0010
0000
0000
0000
1000
0000
0010
0000
0000
0001
0000
0000
2000
0000
0000
3000
0000
0000
2000
0000
0000
3000
0000
0000
,  // measure 92
1001
0000
0000
0001
0000
1000
0100
0000
0001
0100
0000
1000
,  // measure 93
0100
0000
0000
0000
0001
0000
0100
0000
0000
1000
0000
0000
0002
0000
0000
0003
0000
0000
0002
0000
0000
0003
0000
0000
,  // measure 94
1001
1000
0000
0100
0020
0030
0020
0030
,  // measure 95
0001
1000
0010
0100
0020
0030
0020
0030
,  // measure 96
1001
1000
0100
1000
0010
0200
0300
0200
,  // measure 97
0300
0001
0010
0001
0100
0020
0030
0000
,  // measure 98
1001
0000
0000
0001
0000
1000
0010
0000
0001
0010
0000
1000
,  // measure 99
0010
0000
0000
0000
0001
0000
0010
0000
0000
1000
0000
0000
0002
0000
0000
0003
0000
0000
0002
0000
0000
0003
0000
0000
,  // measure 100
1001
0000
0000
1000
0000
0001
0100
0000
1000
0100
0000
0001
,  // measure 101
0100
0000
0000
0000
1000
0000
0100
0000
0000
0001
0000
0000
2000
0000
0000
3000
0000
0000
2000
0000
0000
3000
0000
0000
,  // measure 102
1001
0001
0000
0100
0020
0030
0020
0030
,  // measure 103
1000
0001
0010
0100
0020
0030
0020
0030
,  // measure 104
1001
0000
0000
0000
M000
0M00
00M0
000M
0M00
00M0
M000
0M00
00M0
000M
0M00
00M0
,  // measure 105
M000
0M00
00M0
000M
00M0
0M00
M000
00M0
0M00
000M
00M0
0M00
M000
00M0
0M00
0000
,  // measure 106
0011
0000
0000
0000
0000
0000
0000
0001
0000
0000
0101
0000
0000
0000
0000
0000
0000
0000
1010
0000
0000
0000
0000
0000
,  // measure 107
0000
1000
0000
0000
2200
0000
0000
0000
3300
0000
0000
0000
0000
0000
0000
0000
0000
0000
0000
0000
0000
0000
0000
0000
;
