#VERSION:0.83;
#TITLE:Celebrate;
#SUBTITLE:;
#ARTIST:TWICE;
#TITLETRANSLIT:;
#SUBTITLETRANSLIT:;
#ARTISTTRANSLIT:;
#GENRE:;
#CREDIT:;
#MUSIC:Celebrate.ogg;
#BANNER:Celebrate-bn.png;
#BACKGROUND:Celebrate-bg.png;
#CDTITLE:;
#SAMPLESTART:42.321;
#SAMPLELENGTH:17.143;
#SELECTABLE:YES;
#OFFSET:2.143;
#BPMS:0.000=112.000;
#STOPS:;
#BGCHANGES:;
#FGCHANGES:;

//--------------- dance-single - ----------------
#NOTEDATA:;
#STEPSTYPE:dance-single;
#DESCRIPTION:;
#DIFFICULTY:Beginner;
#METER:2;
#RADARVALUES:0,0,0,0,0;
#NOTES:
0000
0000
0000
0000
,
0000
0000
0000
0000
,
0000
0000
0000
0000
,
0000
0000
0000
0000
,
0000
0000
0000
0000
,
1000
0000
0000
0000
,
0001
0000
0000
0000
,
1000
0000
0000
0000
,
0001
0000
0000
0000
,
0100
0000
0100
0000
,
0001
0000
0000
0000
,
1000
0000
0000
0000
,
0200
0000
0000
0000
,
0300
0000
0000
0000
,
1000
0000
0000
0000
,
1000
0000
0000
0000
,
1000
0000
0000
0000
,
0001
0000
0001
0000
,
0001
0000
0001
0000
,
1000
0000
1000
0000
,
2000
0000
3000
0000
,
0001
0000
0100
0000
,
1000
0000
0100
0000
,
0001
0000
1000
0000
,
0001
0001
0000
0000
,
1000
0000
0100
0000
,
0001
0000
0100
0000
,
1000
0000
0001
0000
,
1000
1000
1000
0000
,
0001
0000
0001
0000
,
0000
0001
0001
0000
,
1000
0000
1000
0000
,
0000
1000
1000
0000
,
0000
0000
0000
0000
,
0000
0000
0000
0000
,
0000
0000
0000
0000
,
0000
0000
0000
0000
,
0001
0000
0000
0000
,
1000
0000
0000
0000
,
0002
0000
0000
0003
,
0001
0001
0001
0001
,
0000
0000
0000
0000
,
1000
0000
0010
0000
,
0001
0000
0010
0000
,
1000
0000
0001
0000
,
1000
1000
0000
0000
,
0001
0000
0010
0000
,
1000
0000
0010
0000
,
0001
0000
1000
0000
,
0001
0001
0001
0000
,
1000
0000
1000
0000
,
1000
1000
0000
0000
,
0001
0000
0001
0000
,
0001
0001
0000
0000
,
1000
0000
0010
0000
,
0001
0000
0010
0000
,
1000
0000
0001
0000
,
1000
1000
2000
0000
,
0000
0000
3000
0000
;

//--------------- dance-single - ----------------
#NOTEDATA:;
#STEPSTYPE:dance-single;
#DESCRIPTION:;
#DIFFICULTY:Easy;
#METER:5;
#RADARVALUES:0,0,0,0,0;
#NOTES:
0000
0000
0000
0000
,
0000
0000
0000
0000
,
0000
0000
0000
0000
,
0000
0000
0000
0000
,
0000
0000
0000
0000
,
0000
1000
0100
1000
,
0000
0001
0100
0001
,
0000
1000
0100
1000
,
0001
0001
0100
0000
,
0110
0000
1001
0000
,
0001
0010
0001
0000
,
0100
0010
1000
0000
,
0100
0000
0000
0100
0000
0000
0100
0000
,
0000
1000
0000
1000
,
0000
0001
0000
0001
,
0000
1000
0000
1000
,
0000
0001
0000
0001
,
0100
0000
0000
0010
0000
0000
0100
0000
,
0001
0000
0000
1000
0000
0000
0001
0000
,
0010
0000
0000
0100
0000
0000
1000
0000
,
2000
0000
3000
0000
,
0001
0100
1000
0000
,
1000
0100
0001
0000
,
1100
0000
0101
0000
,
0001
0001
0001
0000
,
1000
0100
0001
0000
,
0001
0100
1000
0000
,
0101
0000
1100
0000
,
1000
1000
1000
1000
,
0001
0100
0001
0000
,
1000
0100
0100
0000
,
1000
0010
1000
0000
,
0001
0010
0010
0000
,
0001
0000
0000
0000
,
1000
0000
0000
0000
,
0010
0000
0000
0000
,
0100
0000
0000
0000
,
0001
0000
0001
0000
,
1000
0000
1000
0000
,
0200
0000
0000
0300
,
0010
0010
0010
0010
,
0000
0000
0000
0000
,
0001
0010
1000
0000
,
1000
0010
0001
0000
,
1010
0000
0011
0000
,
0001
0001
0001
0000
,
1000
0010
0001
0000
,
0001
0010
1000
0000
,
0011
0000
1010
0000
,
1000
1000
1000
1000
,
0001
0010
0001
0000
,
1000
0010
0010
0000
,
1000
0100
1000
0000
,
0001
0100
0100
0000
,
0001
0010
1000
0000
,
1000
0010
0001
0000
,
1010
0000
0011
0000
,
0001
0001
0001
0002
,
0000
0000
0003
0000
;

//--------------- dance-single - XO ----------------
#NOTEDATA:;
#STEPSTYPE:dance-single;
#DESCRIPTION:XO;
#DIFFICULTY:Medium;
#METER:8;
#RADARVALUES:0,0,0,0,0;
#NOTES:
0000
0000
0000
0000
,
0000
0000
0000
0000
,
0000
0000
0000
0000
,
0000
0000
0000
0000
,
0000
0000
0000
0000
,
1000
0000
0001
0000
1000
0100
0100
0000
,
1000
0000
0001
0000
0100
0010
0010
0000
,
1000
0000
0001
0000
1000
0100
0100
0000
,
0010
0000
0010
0000
0001
0100
0020
0000
,
0030
1000
0100
1000
0000
0001
0100
0001
,
1000
0000
0100
0000
0010
0100
1000
0000
,
0001
0101
0100
0010
,
0001
0000
0000
0010
0000
0000
1000
0000
0000
0100
0000
0000
0020
0000
0000
0000
,
0031
1000
0100
1000
,
0001
0100
0010
1000
,
0001
0010
0001
1000
,
0010
0100
1000
0100
,
0010
0000
0000
1000
0000
0000
0010
0000
0000
1000
0000
0000
0001
0000
0000
0000
,
0010
0000
0000
0001
0000
0000
0010
0000
0000
0001
0000
0000
1000
0000
0000
0000
,
0100
0000
0000
0010
0000
0000
1000
0000
0000
0010
0000
0000
0001
0000
0002
0000
,
0000
0000
0003
1000
,
0001
0200
1000
0000
0310
0000
1000
0000
,
0001
0200
1000
0000
0310
0000
1000
0000
,
1100
0000
0001
0000
0101
0000
0000
1000
,
0100
1000
0001
0000
0010
0000
0100
0000
,
1000
0200
0001
0000
0310
0000
0001
0000
,
1000
0100
0002
0000
0103
0000
1000
0000
,
1010
0000
0001
0000
0011
0000
0000
0020
,
0100
0001
0100
0031
,
1000
0000
0001
0000
0001
0000
0000
0000
0100
0000
0000
0100
0000
0000
0010
0000
,
1000
1000
0100
0010
0001
0000
0100
0000
,
0001
0000
1000
0000
1000
0000
0000
0000
0100
0000
0000
0100
0000
0000
0010
0000
,
0001
0001
0100
0010
1000
0000
0100
0000
,
0000
1000
0010
1000
,
0000
0001
0010
0001
,
0000
1000
0010
0100
,
0000
0001
0000
1001
,
0000
1000
0100
1000
,
0000
0001
0100
0001
,
2000
0000
0000
3000
,
0100
0010
0001
0000
0100
0010
1000
1000
,
0000
0000
0000
0001
,
1000
0020
0001
0000
0130
0000
0001
0000
,
1000
0020
0001
0000
0130
0000
0001
0000
,
0011
0000
1000
0000
1010
0000
0000
0001
,
0010
0001
1000
0000
0100
0000
0010
0000
,
0001
0020
1000
0000
0130
0000
1000
0000
,
0001
0010
2000
0000
3010
0000
0001
0000
,
0101
0000
1000
0000
1100
0000
0000
0200
,
0010
1000
0010
1300
,
0001
0000
1000
0000
1000
0000
0000
0000
0010
0000
0000
0010
0000
0000
0100
0000
,
0001
0001
0010
0100
1000
0000
0010
0000
,
1000
0000
0001
0000
0001
0000
0000
0000
0010
0000
0000
0010
0000
0000
0100
0000
,
1000
1000
0010
0100
0001
0000
0010
0000
,
0100
0020
1000
0000
0031
0000
1000
0000
,
0100
0010
2000
0000
3010
0000
0001
0000
,
0101
0000
1000
0000
1100
0000
0000
0200
,
0010
1000
0010
1300
,
0002
0000
0003
0000
;

//--------------- dance-single - XO FS DS- ----------------
#NOTEDATA:;
#STEPSTYPE:dance-single;
#DESCRIPTION:XO FS DS-;
#DIFFICULTY:Hard;
#METER:11;
#RADARVALUES:0,0,0,0,0;
#CREDIT:Talkion;
#NOTES:
0000
0000
0000
0000
,
0000
0000
0000
0000
,
0000
0000
0000
0000
,
0000
0000
0000
0000
,
0000
0000
0000
0000
,
0001
0000
1000
0000
0100
0000
1000
0000
0001
0000
0100
00M0
0200
0000
0000
0000
,
1300
0000
0001
0000
0100
0000
0001
0000
1000
0000
0100
00M0
0200
0000
0000
0000
,
0301
0000
1000
0000
0100
0000
1000
0000
0001
0000
0100
00M0
0100
0000
1000
0000
,
0001
0000
0000
0001
0010
0000
0000
0010
0100
0000
0010
0000
1002
0000
0000
0000
,
0103
0010
0100
0001
0010
0100
0010
0001
,
1000
0010
0100
0001
0100
0010
2000
0000
,
3100
0000
0010
0000
1000
0000
0010
0000
0100
0000
0100
1000
0000
0000
0001
0000
,
0101
0000
0000
1100
0000
0000
0011
0000
0000
1010
0000
0000
1002
0000
0000
0000
,
0103
0000
0010
0000
0010
0000
0000
1000
0000
0001
0000
0020
0000
0000
0130
0000
,
1000
0000
0100
0000
1000
0000
0000
0001
0000
0100
0000
0020
0000
0000
0130
0000
,
0000
0000
0001
0000
0001
0000
0000
1000
0000
0100
0000
0020
0000
0000
0031
0000
,
1000
0000
0000
0010
0000
0100
0000
1000
0000
0100
0000
0020
0000
0000
1030
0000
,
1200
0000
0000
0010
0000
0000
0001
0000
0000
0010
0000
0000
1300
0000
0000
0000
,
0201
0000
0000
0010
0000
0000
1000
0000
0000
0010
0000
0000
0301
0000
0000
0000
,
1100
0000
0000
0101
0000
0000
1010
0000
0000
0011
0000
0000
0001
0000
0100
0000
,
0020
0000
0000
0000
0000
0000
0000
0000
1030
0001
0000
0001
1000
0000
0100
0000
,
0020
0000
1000
0000
0130
000M
0100
0002
0000
0000
1003
0000
0001
0000
0100
0000
,
0020
0000
0001
0000
0031
0000
0010
0100
M000
0200
0000
0000
1300
0100
0000
0010
,
0000
0000
1001
0000
0001
0100
0000
0010
0000
0000
1001
0000
0000
0000
1000
0000
,
0100
0000
0100
00M0
0100
0000
0001
0020
0000
0000
0130
0000
1000
0000
0010
0000
,
0200
0000
1000
0000
0310
000M
0010
0002
0000
0000
1003
0000
0001
0000
0010
0000
,
0100
0000
0001
0000
1000
0000
0010
0100
000M
0200
0000
0000
0301
0100
0000
0010
,
0000
0000
1001
0000
1000
0100
0000
0010
0000
0000
1001
0000
0000
0000
0001
0000
,
2000
0000
0010
0000
3002
0000
0010
0000
2003
0000
0010
0000
3001
0000
0100
0020
,
0000
0000
1030
0000
1000
0000
0100
0000
0010
0001
0000
0002
0000
0000
1003
0000
,
0001
0000
0001
0000
0100
0000
0010
0200
0000
0000
1000
0000
0010
0000
0301
0000
,
0000
0000
1000
0000
1000
0000
0010
0000
0100
0001
0000
0002
0000
0000
1003
0000
,
0001
0000
0001
0000
0010
0000
0100
0020
0000
0000
1000
0000
0100
0000
0031
0000
,
0000
0000
1000
0010
0100
0002
0000
2003
,
0000
0000
3100
0010
0100
1000
0000
1000
,
0001
0000
0100
0010
0100
0001
0010
0200
,
0000
1300
0010
0200
0000
0301
0010
0001
,
2000
0000
3001
0100
0010
2000
0000
3002
,
0000
0000
0013
0100
0010
0001
0000
0001
,
2000
0000
0000
0000
0000
0000
0000
3010
,
0100
0001
0010
1000
0001
0100
1000
2000
,
0000
0000
0000
0000
3000
0000
0001
0100
,
0020
0000
0001
0000
0130
M000
0100
2000
0000
0000
3001
0000
1000
0000
0100
0000
,
0020
0000
1000
0000
1030
0000
0010
0100
000M
0200
0000
0000
0301
0100
0000
0010
,
0000
0000
1001
0000
1000
0200
0000
0010
0000
0000
1300
0000
1000
0000
0001
0000
,
0100
0000
0100
00M0
0100
0000
1000
0020
0000
0000
0130
0000
0001
0000
0010
0000
,
0200
0000
0001
0000
0310
M000
0010
2000
0000
0000
3001
0000
1000
0000
0010
0000
,
0100
0000
1000
0000
0001
0000
0010
0100
M000
0200
0000
0000
1300
0100
0000
0010
,
0000
0000
1001
0000
0001
0200
0000
0010
0000
0000
0301
0000
0000
0000
1000
0000
,
0002
0000
0010
0000
2003
0000
0010
0000
3002
0000
0010
0000
1003
0000
0100
0020
,
0000
0000
0031
0000
0001
0000
0100
0000
0010
1000
0000
2000
0000
0000
3001
0000
,
1000
0000
1000
0000
0100
0000
0010
0200
0000
0000
0001
0000
0010
0000
1300
0000
,
0000
0000
0001
0000
0001
0000
0010
0000
0100
1000
0000
2000
0000
0000
3001
0000
,
1000
0000
1000
0000
0010
0000
0100
0020
0000
0000
1030
0000
0001
0000
0100
0000
,
0020
0000
0001
0000
0130
M000
0100
2000
0000
0000
3001
0000
1000
0000
0100
0000
,
0010
0000
1000
0000
0001
0000
0100
0010
M000
0020
0000
0000
1030
0010
0000
0100
,
0001
0000
1000
0000
0001
0010
0000
0100
1000
0000
0001
0000
0100
0000
0001
0000
,
2000
0000
0100
0000
3002
0000
0100
0000
2003
0000
0100
0000
3001
0000
0010
0220
,
0000
0000
0330
0000
;

//--------------- dance-single - DSFS FS Mines XO- ----------------
#NOTEDATA:;
#STEPSTYPE:dance-single;
#DESCRIPTION:DSFS FS Mines XO-;
#DIFFICULTY:Challenge;
#METER:13;
#RADARVALUES:0,0,0,0,0;
#CREDIT:Talkion;
#NOTES:
0000
0000
0000
0000
,
0000
0000
0000
0000
,
0000
0000
0000
0000
,
0000
0000
0000
0000
,
0000
0000
0000
0000
,
1001
0000
1000
0100
1000
0000
0001
0100
0001
0000
0010
0M00
0020
0000
0000
0000
,
1030
0000
0001
0100
0001
0000
1000
0100
1000
0000
0010
000M
0020
0000
0100
0000
,
0031
0000
1000
0010
1000
0000
0001
0010
0001
0000
0100
00M0
0200
0000
0000
0000
,
1300
0000
M000
0100
0001
0000
000M
0100
1000
0100
0010
0000
2001
0000
0000
0000
,
3MMM
1000
0100
0010
MM0M
1000
0010
0100
,
0001
1000
0100
1000
0001
0000
1000
0010
2000
0000
0100
0000
3001
0010
0001
0000
,
1000
0010
0100
0010
0002
0000
0013
0100
0001
0000
0001
0010
0000
0000
0100
0000
,
1100
0000
0000
0101
0000
0000
1010
0000
0000
0011
0000
0000
1002
0000
0000
0000
,
0103
0000
0010
0000
0010
0000
1000
0001
0000
0010
0000
0200
0000
0000
1300
0000
,
0001
0000
0100
0010
0100
0000
0001
1000
0000
0100
0000
0020
0000
0000
0031
0000
,
0000
0000
1000
0100
1000
0000
0001
0100
0000
0010
0000
2000
0000
0000
3001
0010
,
0001
0000
1000
0010
0000
0100
0000
1000
0000
0100
0000
0020
0000
0000
1030
0000
,
1100
0000
0000
0101
0000
0000
1010
0000
0000
0012
0000
0000
0103
0000
0010
0100
,
0001
0000
0000
0011
0000
0000
1100
0000
0000
0102
0000
0000
0013
0000
0100
0010
,
0002
0000
2003
0010
0000
3002
0010
0000
2003
0100
0000
3002
0100
0000
2003
0000
,
0001
0000
3001
0000
0010
0100
0010
0001
1000
0010
0M00
0010
0001
1000
0100
1000
,
0020
0000
0100
0000
1030
0000
M010
0002
0000
0000
0103
0000
0010
0000
1000
0000
,
0200
0000
0010
0000
1300
0000
M100
0001
0000
0002
0000
0000
0013
0100
0000
2001
,
0000
0000
0MMM
0000
3010
0100
0000
1002
0000
0000
MMM0
0000
1003
0000
0001
0000
,
0010
0000
0010
0M00
0010
1000
0100
0020
0000
0000
0031
0000
1000
0000
0010
0000
,
0100
0000
0001
0100
0001
0000
010M
2000
0000
0000
3010
0000
0100
0000
M0MM
0000
,
1000
0000
0100
0000
0001
0000
0100
1000
0000
2000
0000
0000
3010
0100
0000
1002
,
0000
0000
MMM0
0000
0013
0100
0000
2001
0000
0000
0MMM
0000
3001
0000
1000
0000
,
0010
0100
0010
1000
0100
0010
0100
1000
0010
0100
0001
0000
1000
0001
0100
0001
,
0010
0000
0000
0000
0100
0000
M000
0000
0100
0000
0000
0000
0001
0000
1000
0000
0100
00M0
0100
0000
0000
0000
0002
0000
0000
0000
0000
0000
1003
0000
0010
0000
,
0100
000M
0100
0000
1000
0001
0010
0200
0000
0000
0001
0000
0010
0000
1300
0000
,
0010
0000
0000
0000
0100
0000
000M
0000
0100
0000
0000
0000
1000
0000
0001
0000
0100
00M0
0100
0000
0000
0000
2000
0000
0000
0000
0000
0000
3001
0000
0010
0000
,
0100
M000
0100
0000
0001
1000
0010
0200
0000
0000
1000
0000
0010
0000
0301
0000
,
0000
0000
0000
0000
1000
0000
0100
0000
1000
0000
0001
0010
0000
0010
0000
0020
,
0000
0000
0030
0000
0100
0000
1000
0000
0010
0000
0100
0001
0000
0001
0000
0002
,
0000
0003
1000
0100
1000
0001
0100
0020
,
0000
1030
0100
0020
0000
0100
0031
0100
,
0020
0000
0000
0000
1030
0000
0010
0000
1000
0000
0001
0010
0000
0010
0000
0010
,
0100
0000
1000
0000
0001
0000
0010
0000
0001
0000
0100
0010
0000
0010
0000
0010
,
1000
0000
0001
0000
1000
0000
0100
0010
0100
0000
1000
0000
0001
0000
0100
0010
,
0100
0000
1000
0000
0001
0000
0010
0000
1000
0010
0100
0001
0010
0000
0020
0000
,
0000
0030
M000
0000
M000
0000
0001
0100
,
0210
0000
0010
0000
0301
0000
010M
2000
0000
0000
3010
0000
0100
0000
0001
0000
,
0020
0000
0100
0000
0031
0000
001M
1000
0000
2000
0000
0000
3100
0010
0000
1002
,
0000
0000
MMM0
0000
0103
0010
0000
2001
0000
0000
0MMM
0000
3001
0000
1000
0000
,
0100
0000
0100
00M0
0100
0001
0010
0200
0000
0000
1300
0000
0001
0000
0100
0000
,
0010
0000
1000
0010
1000
0000
M010
0002
0000
0000
0103
0000
0010
0000
MM0M
0000
,
0001
0000
0010
0000
1000
0000
0010
0001
0000
0002
0000
0000
0103
0010
0000
2001
,
0000
0000
0MMM
0000
3100
0010
0000
1002
0000
0000
MMM0
0000
1003
0000
0001
0000
,
0100
0010
0100
0001
0010
0100
0010
0001
0100
0010
1000
0000
0001
1000
0010
1000
,
0100
0000
0000
0000
0010
0000
000M
0000
0010
0000
0000
0000
1000
0000
0001
0000
0010
0M00
0010
0000
0000
0000
2000
0000
0000
0000
0000
0000
3001
0000
0100
0000
,
0010
M000
0010
0000
0001
1000
0100
0020
0000
0000
1000
0000
0100
0000
0031
0000
,
0100
0000
0000
0000
0010
0000
M000
0000
0010
0000
0000
0000
0001
0000
1000
0000
0010
0M00
0010
0000
0000
0000
0002
0000
0000
0000
0000
0000
1003
0000
0100
0000
,
0010
000M
0010
0000
1000
0001
0100
0020
0000
0000
0001
0000
0100
0000
1030
0000
,
0001
0000
1000
0100
1000
0000
M100
0002
0000
0000
0013
0000
0100
0000
M0MM
0000
,
0001
0000
0100
0000
1000
0000
0100
0001
0000
0002
0000
0000
1003
0100
0010
0002
,
MMM0
0000
0000
0000
1003
0010
0100
0002
MMM0
0000
0000
0000
1003
0000
0100
0000
,
0010
0100
0010
0001
0100
0010
0100
0001
0010
0100
1000
0000
0010
0M00
0010
0002
,
0000
0000
0003
0000
;
