#VERSION:0.83;
#TITLE:Cat Clap;
#SUBTITLE:;
#ARTIST:Asuka Itoo;
#TITLETRANSLIT:;
#SUBTITLETRANSLIT:;
#ARTISTTRANSLIT:;
#GENRE:;
#ORIGIN:;
#CREDIT:;
#BANNER:Cat Clap-banner.png;
#BACKGROUND:Cat Clap-bg.png;
#PREVIEWVID:;
#JACKET:Cat Clap-jacket.png;
#CDIMAGE:;
#DISCIMAGE:;
#LYRICSPATH:;
#CDTITLE:;
#MUSIC:Cat Clap.ogg;
#OFFSET:-0.540000;
#SAMPLESTART:66.825996;
#SAMPLELENGTH:9.143000;
#SELECTABLE:YES;
#BPMS:0.000=105.000;
#STOPS:;
#DELAYS:;
#WARPS:;
#TIMESIGNATURES:0.000=4=4;
#TICKCOUNTS:0.000=4;
#COMBOS:0.000=1;
#SPEEDS:0.000=1.000=0.000=0;
#SCROLLS:0.000=1.000;
#FAKES:;
#LABELS:0.000=Song Start;
#BGCHANGES:-1.250=Cat Clap.mp4=1.000=1=0=0=StretchNoLoop==CrossFade==,
99999=-nosongbg-=1.000=0=0=0 // don't automatically add -songbackground-
;
#KEYSOUNDS:;
#ATTACKS:
;

//---------------dance-single - this is the bab chart----------------
#NOTEDATA:;
#CHARTNAME:;
#STEPSTYPE:dance-single;
#DESCRIPTION:this is the bab chart;
#CHARTSTYLE:;
#DIFFICULTY:Beginner;
#METER:2;
#RADARVALUES:0.114936,0.187139,0.119595,0.086978,0.000000,74.000000,63.000000,11.000000,8.000000,0.000000,0.000000,0.000000,0.000000,0.000000,0.114936,0.187139,0.119595,0.086978,0.000000,74.000000,63.000000,11.000000,8.000000,0.000000,0.000000,0.000000,0.000000,0.000000;
#CREDIT:djfipu;
#NOTES:
// measure 0
0000
0000
0000
0000
,  // measure 1
0000
0000
0000
0000
,  // measure 2
1000
0000
0000
0000
,  // measure 3
0001
0000
0000
0000
,  // measure 4
1000
0000
0000
0000
,  // measure 5
0000
0000
0000
0000
,  // measure 6
0100
0000
0000
0000
,  // measure 7
0010
0000
0000
0000
,  // measure 8
0100
0000
0000
0000
,  // measure 9
0010
0000
0001
0000
,  // measure 10
1000
0000
0001
0000
,  // measure 11
0100
0000
0010
0000
,  // measure 12
0100
0000
0001
0000
,  // measure 13
2002
0000
3003
0000
,  // measure 14
0001
0000
0000
0000
,  // measure 15
1000
0000
0000
0000
,  // measure 16
0001
0000
0000
0000
,  // measure 17
1001
0000
0000
0000
,  // measure 18
0001
0000
0010
0000
,  // measure 19
0001
0000
0100
0000
,  // measure 20
0001
0000
1000
0000
,  // measure 21
0100
0000
0000
0010
,  // measure 22
0110
0000
1001
0000
,  // measure 23
1001
0000
0110
0000
,  // measure 24
0001
0000
1000
0000
,  // measure 25
0010
0000
0010
0000
,  // measure 26
0100
0000
0100
0000
,  // measure 27
0001
0000
0001
0000
,  // measure 28
0220
0000
0330
1001
,  // measure 29
1000
1000
1000
0000
,  // measure 30
0100
0100
0100
0000
,  // measure 31
0010
0010
0010
0000
,  // measure 32
0001
0000
2002
3003
,  // measure 33
1000
0000
1000
1000
,  // measure 34
0010
0000
0010
0010
,  // measure 35
0100
0000
0100
0100
,  // measure 36
2002
0000
3003
0000
,  // measure 37
0000
0000
0000
0000
,  // measure 38
0000
1001
0000
0000
;

//---------------dance-single - this is the okay chart----------------
#NOTEDATA:;
#CHARTNAME:;
#STEPSTYPE:dance-single;
#DESCRIPTION:this is the okay chart;
#CHARTSTYLE:;
#DIFFICULTY:Easy;
#METER:4;
#RADARVALUES:0.195701,0.207932,0.054361,0.086978,0.043489,126.000000,121.000000,5.000000,8.000000,0.000000,0.000000,0.000000,0.000000,0.000000,0.195701,0.207932,0.054361,0.086978,0.043489,126.000000,121.000000,5.000000,8.000000,0.000000,0.000000,0.000000,0.000000,0.000000;
#CREDIT:djfipu;
#NOTES:
// measure 0
0000
0000
0000
0000
,  // measure 1
0000
0000
0000
0000
,  // measure 2
1000
0000
0000
0010
0000
0000
0000
0000
,  // measure 3
1000
0000
0000
0100
0000
0000
0000
0000
,  // measure 4
1000
0000
0000
0001
0000
0000
0000
0000
,  // measure 5
0100
0000
0000
0000
0000
0000
0100
0000
0000
0000
0000
0000
0020
0000
0000
0000
0000
1030
0000
0000
0000
0000
0000
0000
,  // measure 6
0001
0000
0000
0100
0000
0000
0000
0000
,  // measure 7
0001
0000
0000
0010
0000
0000
0000
0000
,  // measure 8
0001
0000
0000
1000
0000
0000
0000
0000
,  // measure 9
0010
0000
0000
0000
0000
0000
0100
0000
0000
0000
0000
0000
0002
0000
0000
0000
0000
0013
0000
0000
0000
0000
0000
0000
,  // measure 10
0001
0100
0010
0010
,  // measure 11
0100
0001
1000
0100
,  // measure 12
1000
0010
0100
0100
,  // measure 13
0002
0000
0000
0000
0000
0000
0000
0000
0000
0000
0000
0000
1003
0000
0000
0000
0000
1001
0000
0000
0000
0000
0000
0000
,  // measure 14
1000
0000
0000
0100
0000
0000
0010
0000
,  // measure 15
0100
0000
0000
1000
0000
0000
0010
0000
,  // measure 16
1000
0000
0000
0001
0000
0000
1000
0000
,  // measure 17
0010
0000
0000
0100
0000
0000
0000
0000
,  // measure 18
0010
1000
0010
1000
,  // measure 19
0100
1000
0001
0100
,  // measure 20
0010
0100
0010
0100
,  // measure 21
0001
0000
0000
1000
0000
0001
0001
0000
,  // measure 22
0100
0000
0000
0000
0000
0000
0100
0000
0000
0000
0000
0000
0020
0000
0000
0000
0000
0130
0000
0000
0000
0000
0000
0000
,  // measure 23
0010
0000
0000
0000
0000
0000
0010
0000
0000
0000
0000
0000
0200
0000
0000
0000
0000
0310
0000
0000
0000
0000
0000
0000
,  // measure 24
1000
0100
0010
0001
,  // measure 25
1000
0000
0000
0001
0000
0100
0100
0000
,  // measure 26
0001
0000
0000
1000
0000
0100
0100
0000
,  // measure 27
1000
0000
0000
0001
0000
0100
0100
0000
,  // measure 28
0020
0000
0000
0000
0000
0000
0000
0000
0000
0000
0000
0000
0130
0000
0000
0000
0000
0110
0000
0000
0000
0000
0000
0000
,  // measure 29
0001
0010
0100
0100
,  // measure 30
0010
0001
1000
1000
,  // measure 31
0010
0100
0010
0010
,  // measure 32
1000
0000
0000
0000
0000
0000
0001
0000
0000
0000
0000
0000
0200
0000
0000
0000
0000
0310
0000
0000
0000
0000
0000
0000
,  // measure 33
1000
0000
0000
0010
0000
0010
1000
0000
,  // measure 34
0001
0000
0000
0010
0000
0010
0001
0000
,  // measure 35
1000
0000
0000
0001
0000
0001
1000
0000
,  // measure 36
0020
0000
0000
0000
0000
0000
0000
0000
0000
0000
0000
0000
0030
0000
0000
0000
0000
0110
0000
0000
0000
0000
0000
0000
,  // measure 37
0000
0000
0000
0000
,  // measure 38
0000
0110
0110
0000
0000
0000
0000
0000
;

//---------------dance-single - this is the good chart----------------
#NOTEDATA:;
#CHARTNAME:;
#STEPSTYPE:dance-single;
#DESCRIPTION:this is the good chart;
#CHARTSTYLE:;
#DIFFICULTY:Medium;
#METER:9;
#RADARVALUES:0.295105,0.374278,0.065234,0.326169,0.250063,190.000000,184.000000,6.000000,30.000000,0.000000,0.000000,0.000000,0.000000,0.000000,0.295105,0.374278,0.065234,0.326169,0.250063,190.000000,184.000000,6.000000,30.000000,0.000000,0.000000,0.000000,0.000000,0.000000;
#CREDIT:djfipu;
#NOTES:
// measure 0
0000
0000
0000
0000
,  // measure 1
0000
0000
0000
0000
,  // measure 2
0001
0000
0000
0000
0000
0001
0000
0000
0000
0100
0000
0000
0000
0000
0000
0000
0000
0000
0000
0000
0000
0000
0000
0000
,  // measure 3
1000
0000
0000
0000
0000
1000
0000
0000
0000
0100
0000
0000
0000
0000
0000
0000
0000
0000
0000
0000
0000
0000
0000
0000
,  // measure 4
0001
0000
0000
0000
0000
0001
0000
0000
0000
0100
0000
0000
0000
0000
0000
0000
0000
0000
0000
0000
0000
0000
0000
0000
,  // measure 5
0010
0000
0000
0000
0000
0000
1000
0000
0000
0000
0000
0000
0200
0000
0000
0000
0000
1300
0000
0000
0000
0000
0000
0000
,  // measure 6
0100
0000
0000
0000
0000
1000
0000
0000
0000
0100
0000
0000
0000
0000
0000
0000
0000
0000
0000
0000
0000
0000
0000
0000
,  // measure 7
0010
0000
0000
0000
0000
0001
0000
0000
0000
0010
0000
0000
0000
0000
0000
0000
0000
0000
0000
0000
0000
0000
0000
0000
,  // measure 8
0001
0000
0000
0000
0000
0100
0000
0000
0000
0001
0000
0000
0000
0000
0000
0000
0000
0000
0000
0000
0000
0000
0000
0000
,  // measure 9
1000
0000
0000
0100
0000
0000
1000
0000
0000
0010
0000
0000
0200
0000
0000
0000
0000
0310
0000
0000
0000
0000
0000
0000
,  // measure 10
1000
0000
0000
0000
0000
0001
0000
0000
0000
0010
0000
0000
0001
0000
0000
0010
0000
0000
0100
0000
0000
0000
0000
0000
,  // measure 11
0010
0000
0000
0010
0000
0000
0001
0000
0000
0100
0000
0000
0002
0000
0000
0000
0000
1003
0000
0000
0000
0000
0000
0000
,  // measure 12
0001
0000
0000
0000
0000
0100
0000
0000
0000
0010
0000
0000
1000
0000
0000
0100
0000
0000
0100
0000
0000
0000
0000
0000
,  // measure 13
2000
0000
0000
0000
0000
0000
0000
0000
0000
0000
0000
0000
3001
0000
0000
0000
0000
0101
0000
0000
0000
0000
0000
0000
,  // measure 14
1000
0000
0000
0000
0000
0100
0000
0000
0000
0010
0000
0000
0000
0000
0000
1000
0000
0000
1000
0000
0000
0000
0000
0000
,  // measure 15
0010
0000
0000
0000
0000
0100
0000
0000
0000
1000
0000
0000
0000
0000
0000
1000
0000
0000
1000
0000
0000
0000
0000
0000
,  // measure 16
0001
0000
0000
0000
0000
0100
0000
0000
0000
0010
0000
0000
0000
0000
0000
0001
0000
0000
0001
0000
0000
0000
0000
0000
,  // measure 17
0010
0000
0000
0000
0000
0100
0000
0000
0000
0001
0000
0000
0000
0000
0000
0000
0000
0000
0000
0000
0000
0000
0000
0000
,  // measure 18
1000
0000
1000
0001
0000
0000
0001
0000
0001
1000
0000
0000
0200
0000
0000
0000
0000
0310
0000
0000
0000
0000
0000
0000
,  // measure 19
0010
0000
0010
0100
0000
0000
0100
0000
0100
0010
0000
0000
0001
0000
0000
0010
0000
0000
0100
0000
0000
0000
0000
0000
,  // measure 20
0100
0000
0100
1000
0000
0000
1000
0000
1000
0001
0000
0000
0200
0000
0000
0000
0000
0301
0000
0000
0000
0000
0000
0000
,  // measure 21
0001
0000
0000
0000
0000
0100
0000
0000
0000
0010
0000
0000
0000
0000
0000
1000
0000
0000
1000
0000
0000
0000
0000
0000
,  // measure 22
0010
0000
0000
0010
0000
0000
0100
0000
0010
1000
0000
0000
0200
0000
0000
0000
0000
0310
0000
0000
0000
0000
0000
0000
,  // measure 23
0010
0000
0000
0010
0000
0000
0100
0000
0010
0001
0000
0000
0200
0000
0000
0000
0000
0310
0000
0000
0000
0000
0000
0000
,  // measure 24
1000
0100
1000
0010
1000
0001
0010
0100
,  // measure 25
1000
0000
0000
0000
0000
0010
0000
0000
0000
0001
0000
0000
0000
0000
0000
0010
0000
0000
0010
0000
0000
0000
0000
0000
,  // measure 26
1000
0000
0000
0000
0000
0100
0000
0000
0000
0001
0000
0000
0000
0000
0000
0100
0000
0000
0100
0000
0000
0000
0000
0000
,  // measure 27
1000
0000
0000
0000
0000
0010
0000
0000
0000
0001
0000
0000
0000
0000
0000
0010
0000
0000
0010
0000
0000
0000
0000
0000
,  // measure 28
0200
0000
0000
0000
0000
0000
0000
0000
0000
0000
0000
0000
0301
0000
0000
0000
0000
1010
0000
0000
0000
0000
0000
0000
,  // measure 29
2000
0000
0000
0000
0000
3020
0000
0000
0000
0230
0000
0000
0301
0000
0001
1000
0000
0000
1000
0000
1000
0100
0000
0000
,  // measure 30
0020
0000
0000
0000
0000
0230
0000
0000
0000
0320
0000
0000
0000
0000
0000
0031
0000
0001
0100
0000
0000
0100
0000
0000
,  // measure 31
0020
0000
0000
0000
0000
2030
0000
0000
0000
3002
0000
0000
0000
0000
0000
1003
0000
0000
1000
0000
1000
0100
0000
0000
,  // measure 32
0000
0000
0010
0000
0000
0000
0100
0000
0000
1000
0000
0000
0002
0000
0000
0000
0000
0103
0000
0000
0000
0000
0000
0000
,  // measure 33
0020
0000
0030
0000
0000
0020
0000
0030
0000
0020
0000
0030
0000
0000
0000
1000
0000
0000
1000
0000
0000
0000
0000
0000
,  // measure 34
0020
0000
0030
0000
0000
0020
0000
0030
0000
0020
0000
0030
0000
0000
0000
0001
0000
0000
0001
0000
0000
0000
0000
0000
,  // measure 35
0020
0000
0030
0000
0000
0020
0000
0030
0000
0020
0000
0030
0000
0000
0000
0100
0000
0000
0100
0000
0000
0000
0000
0000
,  // measure 36
2002
0000
0000
0000
0000
0000
0000
0000
0000
0000
0000
0000
3003
0000
0000
0000
0000
1100
0000
0000
0000
0000
0000
0000
,  // measure 37
0000
0000
0000
0000
,  // measure 38
0000
1100
0110
0000
0000
0000
0000
0000
;

//---------------dance-single - this is the cool chart----------------
#NOTEDATA:;
#CHARTNAME:;
#STEPSTYPE:dance-single;
#DESCRIPTION:this is the cool chart;
#CHARTSTYLE:;
#DIFFICULTY:Hard;
#METER:14;
#RADARVALUES:0.521870,0.644590,0.173957,0.402274,0.695826,336.000000,320.000000,16.000000,37.000000,0.000000,0.000000,2.000000,0.000000,0.000000,0.521870,0.644590,0.173957,0.402274,0.695826,336.000000,320.000000,16.000000,37.000000,0.000000,0.000000,2.000000,0.000000,0.000000;
#CREDIT:djfipu;
#NOTES:
// measure 0
0000
0000
0000
0000
,  // measure 1
0000
0000
0000
0000
,  // measure 2
2000
0000
0000
0000
0000
3001
0000
0000
0000
0100
0000
0000
0000
0000
0000
0001
0000
0000
0001
0000
0000
0000
0000
0000
,  // measure 3
0002
0000
0000
0000
0000
1003
0000
0000
0000
0010
0000
0000
0000
0000
0000
1000
0000
0000
1000
0000
0000
0000
0000
0000
,  // measure 4
2000
0000
0000
0000
0000
3001
0000
0000
0000
0100
0000
0000
0000
0000
0000
0001
0000
0000
0001
0000
0000
0000
0000
0000
,  // measure 5
0000
0000
0020
0000
0000
0000
0130
0000
0100
1000
0000
0000
0002
0000
0000
0003
0000
0101
0000
0000
0000
0000
0000
0000
,  // measure 6
0002
0000
0000
0000
0000
0013
0000
0000
0000
0001
0000
0000
1000
0000
1000
0010
0000
0000
0100
0000
0100
0010
0000
0000
,  // measure 7
0200
0000
0000
0000
0000
0301
0000
0000
0000
0100
0000
0000
0010
0000
0010
1000
0000
1000
0001
0000
0001
0100
0000
0000
,  // measure 8
0002
0000
0000
0000
0000
0013
0000
0000
0000
0001
0000
0000
1000
0000
1000
0200
0000
0000
0310
0000
0010
0100
0000
0000
,  // measure 9
2000
3000
0000
2000
3000
0000
0001
0100
0001
0100
0000
0100
0020
0000
0000
0000
0030
1001
0000
0000
0000
0000
0000
0000
,  // measure 10
0001
0000
1000
0100
0000
0002
0000
0000
0000
0103
0000
0001
0100
0000
0100
1000
0000
1000
0010
0000
0010
0100
0000
0100
,  // measure 11
0010
0000
0010
1000
0000
0000
0001
0000
0000
1000
0000
0000
0200
0000
0000
0000
0300
1001
0000
0000
0000
0000
0000
0000
,  // measure 12
1000
0000
0001
0010
0000
2000
0000
0000
0000
3010
0000
0010
0001
0000
0001
0200
0000
0000
0301
0000
2000
0000
3000
0001
,  // measure 13
1000
0010
1000
0010
0100
0010
0100
0010
0100
0001
0100
0001
1000
0000
0001
0100
0000
0102
0000
0000
0000
0000
0000
0000
,  // measure 14
0103
0000
0000
0100
0000
0000
0001
0000
0001
0100
0000
0000
0100
0000
0000
0010
0000
0100
0000
0000
1000
0100
0000
0000
,  // measure 15
0010
0000
0000
0010
0000
0000
0010
0000
1000
0010
0000
0000
0010
0000
0000
1000
0000
0100
0000
0000
0001
0100
0000
0000
,  // measure 16
0100
0000
0000
0100
0000
0000
0100
0000
0010
0100
0000
0000
0100
0000
0000
0100
0000
1000
0001
0010
0001
0010
0100
0010
,  // measure 17
0100
0000
0000
0000
0000
0000
0000
0110
,  // measure 18
0010
0000
0010
0001
0000
0001
1000
0000
1000
0010
0000
0010
0200
0000
0000
0000
0000
0310
0000
0000
0000
0110
0000
0000
,  // measure 19
0010
0000
0010
0100
0000
0100
0001
0000
0001
0010
0000
0100
0000
0000
0000
0110
0000
0000
1100
0000
0000
0000
0000
0000
,  // measure 20
1000
0000
1000
0001
0000
0001
1000
0000
1000
0010
0000
0010
0200
0000
0000
0310
0000
0100
0000
0000
0100
0010
0000
0000
,  // measure 21
0110
0000
0000
0000
0000
1010
0000
0000
0000
1100
0000
0000
0000
0000
0000
0100
0000
0000
0100
0000
0000
0000
0000
0000
,  // measure 22
0010
0000
0000
0001
0000
0000
0001
0010
0001
0010
0100
1000
0001
0000
0000
0000
0000
0000
0000
0000
0000
0000
0000
0000
,  // measure 23
0010
0000
0000
0001
0000
0000
0001
0010
0001
0010
0100
1000
0001
0000
0000
0000
0000
0000
0000
0000
0000
0000
0000
0000
,  // measure 24
0100
0000
0100
0000
0000
0100
0000
0000
0010
0100
0000
0000
0002
0000
0000
0000
0000
2003
0000
0000
0000
0000
0000
0000
,  // measure 25
3002
0000
0000
0000
0000
0103
0000
0000
0000
0010
0000
0000
0001
0000
0000
0010
0000
0000
0100
0000
0000
0001
0000
0000
,  // measure 26
2000
0000
0000
0000
0000
3100
0000
0000
0000
0010
0000
0000
1000
0000
0000
0010
0000
0000
0100
0000
0000
1000
0000
0000
,  // measure 27
0020
0000
0000
0000
0000
0031
0000
0000
0000
0010
0000
0000
1000
0000
0000
0001
0000
0000
1000
0000
0000
0100
0000
0000
,  // measure 28
1000
0001
0100
0001
0100
0010
0100
0010
0100
0010
1000
0010
1000
0000
0001
1000
0000
2010
0000
0000
0000
0000
0000
0000
,  // measure 29
3002
0000
0000
0000
0000
2003
0000
0000
0000
3200
0000
0000
1300
0000
0100
0001
0000
1000
0010
0000
0001
1000
0000
1000
,  // measure 30
0002
0000
0000
0000
0000
2003
0000
0000
0000
3020
0000
0000
0000
0000
0000
1030
0000
0010
0001
0000
1000
0100
0000
0001
,  // measure 31
2000
0000
0000
0000
0000
3002
0000
0000
0000
0023
0000
0000
0030
0000
0000
0100
0000
0000
0010
0000
0001
1000
0000
0000
,  // measure 32
1000
0000
0020
0000
0000
0130
0001
0100
0001
1000
0000
0000
0200
0000
0000
0310
0000
0110
0000
0000
0000
0000
0000
0000
,  // measure 33
0100
0000
0000
0100
0000
0000
1000
0000
1000
0100
0000
0000
0100
0000
0000
0010
0000
0100
0000
0000
0001
0100
0000
0000
,  // measure 34
0010
0000
0000
0010
0000
0000
0010
0000
0001
0010
0000
0000
0010
0000
0000
0001
0000
0100
0000
0000
1000
0100
0000
0000
,  // measure 35
0100
0000
0000
0100
0000
0000
0100
0000
0010
0100
0000
0000
0100
0000
0000
0100
0000
0001
1000
0010
1000
0010
0100
0010
,  // measure 36
4000
0040
0000
0000
0000
0000
0000
0000
0000
0000
0000
0000
3030
0000
0000
0000
0000
0011
0000
0000
0000
0000
0000
0000
,  // measure 37
0000
0000
0000
0000
,  // measure 38
0000
0110
1001
0000
0000
0000
0000
0000
;

//---------------dance-single - this is the fun chart----------------
#NOTEDATA:;
#CHARTNAME:DS;
#STEPSTYPE:dance-single;
#DESCRIPTION:this is the fun chart;
#CHARTSTYLE:;
#DIFFICULTY:Challenge;
#METER:8;
#MUSIC:Cat Clap-CSP.ogg;
#RADARVALUES:0.315296,0.332692,0.184829,0.228318,0.212010,203.000000,186.000000,17.000000,21.000000,7.000000,0.000000,0.000000,0.000000,0.000000,0.315296,0.332692,0.184829,0.228318,0.212010,203.000000,186.000000,17.000000,21.000000,7.000000,0.000000,0.000000,0.000000,0.000000;
#CREDIT:djfipu;
#NOTES:
// measure 0
0000
0000
0000
0000
,  // measure 1
0000
0000
0000
0000
,  // measure 2
0001
0000
0000
0000
0000
0100
0000
0000
0000
0010
0000
0000
0000
0000
0000
0100
0000
0000
0100
0000
0000
0000
0000
0000
,  // measure 3
1M00
0000
0000
0000
0000
0100
0000
0000
0000
0010
0000
0000
0000
0000
0000
0100
0000
0000
0100
0000
0000
0000
0000
0000
,  // measure 4
0M01
0000
0000
0000
0000
0100
0000
0000
0000
0010
0000
0000
0000
0000
0000
0100
0000
0000
0100
0000
0000
0000
0000
0000
,  // measure 5
1M00
0000
0000
1000
0000
0000
0001
0000
0000
0001
0000
0000
0020
0000
0000
0000
0030
1001
0000
0000
0000
0000
0000
0000
,  // measure 6
1000
0000
0000
0000
0000
0001
0000
0000
0000
0100
0000
0000
0000
0000
0000
1000
0000
0000
1000
0000
0000
0000
0000
0000
,  // measure 7
M001
0000
0000
0000
0000
1000
0000
0000
0000
0100
0000
0000
0000
0000
0000
0001
0000
0000
0001
0000
0000
0000
0000
0000
,  // measure 8
100M
0000
0000
0000
0000
0001
0000
0000
0000
0100
0000
0000
0000
0000
0000
1000
0000
0000
1000
0000
0000
0000
0000
0000
,  // measure 9
M001
0000
0000
0001
0000
0000
1000
0000
0000
1000
0000
0000
0200
0000
0000
0000
0300
1001
0000
0000
0000
0000
0000
0000
,  // measure 10
0001
0000
0000
0000
0000
1000
0000
0000
0000
0001
0000
0000
0000
0000
0000
0010
0000
0000
0010
0000
0000
0000
0000
0000
,  // measure 11
10M0
0000
0000
0100
0000
0000
0010
0000
0000
0001
0000
0000
2000
0000
0000
0000
3000
0110
0000
0000
0000
0000
0000
0000
,  // measure 12
1000
0000
0000
0000
0000
0001
0000
0000
0000
1000
0000
0000
0000
0000
0000
0010
0000
0000
0010
0000
0000
0000
0000
0000
,  // measure 13
0000
0000
0000
0000
0000
0000
0000
0000
0000
0000
0000
0000
0100
0000
0100
0010
0000
1001
0000
0000
0000
0000
0000
0000
,  // measure 14
1000
0000
0000
0000
0000
0100
0000
0000
0000
0001
0000
0000
0000
0000
0000
1000
0000
0000
1000
0000
0000
0000
0000
0000
,  // measure 15
0001
0000
0000
0000
0000
0100
0000
0000
0000
1000
0000
0000
0000
0000
0000
0001
0000
0000
0001
0000
0000
0000
0000
0000
,  // measure 16
1000
0000
0000
0000
0000
0010
0000
0000
0000
0001
0000
0000
0000
0000
0000
1000
0000
0000
1000
0000
0000
0000
0000
0000
,  // measure 17
0001
0000
0000
0000
0000
0010
0000
0000
0000
1000
0000
0000
0000
0000
0000
0001
0000
0000
0001
0000
0000
0000
0000
0000
,  // measure 18
0100
0000
0000
0010
0000
0000
0100
0000
0000
1000
0000
0000
0200
0000
0000
0000
0300
1010
0000
0000
0000
0000
0000
0000
,  // measure 19
0010
0000
0000
0000
0000
1000
0000
0000
0000
0001
0000
0000
0000
0000
0000
0010
0000
0000
0010
0000
0000
0000
0000
0000
,  // measure 20
0100
0000
0000
0010
0000
0000
1000
0000
0000
0010
0000
0000
0200
0000
0000
0000
0300
0011
0000
0000
0000
0000
0000
0000
,  // measure 21
1000
0000
0000
0000
0000
0001
0000
0000
0000
0100
0000
0000
0000
0000
0000
0010
0000
0000
0010
0000
0000
0000
0000
0000
,  // measure 22
1000
0000
0000
0010
0000
0000
1000
0000
0000
0100
0000
0000
2000
0000
0000
0000
3000
0101
0000
0000
0000
0000
0000
0000
,  // measure 23
0001
0000
0000
0100
0000
0000
0001
0000
0000
0010
0000
0000
0002
0000
0000
0000
0003
1010
0000
0000
0000
0000
0000
0000
,  // measure 24
0001
0000
0000
0010
0000
0000
0100
0000
0000
1000
0000
0000
0002
0000
0000
0000
0003
1100
0000
0000
0000
0000
0000
0000
,  // measure 25
0200
0000
0300
0000
0000
0002
0000
0003
0000
0020
0000
0030
0000
0000
0000
1000
0000
0000
1000
0000
0000
0000
0000
0000
,  // measure 26
0020
0000
0030
0000
0000
0002
0000
0003
0000
0200
0000
0300
0000
0000
0000
1000
0000
0000
1000
0000
0000
0000
0000
0000
,  // measure 27
0200
0000
0300
0000
0000
0002
0000
0003
0000
0020
0000
0030
0000
0000
0000
1000
0000
0000
1000
0000
0000
0000
0000
0000
,  // measure 28
0000
0000
0000
0000
0000
0000
0000
0000
0000
0000
0000
0000
0001
0000
0001
1000
0000
0110
0000
0000
0000
0000
0000
0000
,  // measure 29
2010
0000
0000
0000
0000
0001
0000
0000
0000
3100
0000
0000
0000
0000
0000
0010
0000
0000
0010
0000
0000
0000
0000
0000
,  // measure 30
0012
0000
0000
0000
0000
1000
0000
0000
0000
0103
0000
0000
0000
0000
0000
0010
0000
0000
0010
0000
0000
0000
0000
0000
,  // measure 31
0210
0000
0000
0000
0000
1000
0000
0000
0000
0301
0000
0000
0000
0000
0000
1000
0000
0000
1000
0000
0000
0000
0000
0000
,  // measure 32
0001
0000
0000
0100
0000
0000
0010
0000
0000
1000
0000
0000
0002
0000
0000
0000
0003
0110
0000
0000
0000
0000
0000
0000
,  // measure 33
1000
0000
0000
0000
0000
1000
0000
0000
0000
0001
0000
0000
0000
0000
0000
0010
0000
0000
0010
0000
0000
0000
0000
0000
,  // measure 34
0001
0000
0000
0000
0000
0001
0000
0000
0000
1000
0000
0000
0000
0000
0000
0010
0000
0000
0010
0000
0000
0000
0000
0000
,  // measure 35
1000
0000
0000
0000
0000
1000
0000
0000
0000
0001
0000
0000
0000
0000
0000
0100
0000
0000
0100
0000
0000
0000
0000
0000
,  // measure 36
0000
0000
0000
0000
0000
0000
0000
0000
0000
0000
0000
0000
0001
0000
1000
0100
0000
0110
0000
0000
0000
0000
0000
0000
,  // measure 37
0000
0000
0000
0000
0000
0000
0000
0000
0000
0000
0000
0000
0001
0000
0000
0000
0000
1000
0000
0000
0000
0100
0000
0000
,  // measure 38
0000
1010
0011
0000
0000
0000
0000
0000
;
