#VERSION:0.83;
#TITLE:Cassius;
#SUBTITLE:;
#ARTIST:Foals;
#TITLETRANSLIT:;
#SUBTITLETRANSLIT:;
#ARTISTTRANSLIT:;
#GENRE:;
#CREDIT:;
#MUSIC:Cassius.ogg;
#BANNER:;
#BACKGROUND:;
#CDTITLE:;
#SAMPLESTART:25.989;
#SAMPLELENGTH:15.000;
#SELECTABLE:YES;
#OFFSET:-0.559;
#BPMS:0.000=151.000;
#STOPS:;
#BGCHANGES:;
#FGCHANGES:;

//--------------- dance-single - eataninja ----------------
#NOTEDATA:;
#STEPSTYPE:dance-single;
#DESCRIPTION:eataninja;
#DIFFICULTY:Beginner;
#METER:4;
#RADARVALUES:0,0,0,0,0;
#NOTES:
0000
0000
0000
0000
,
0000
0000
0000
0000
,
0000
0000
0000
0000
,
0000
0000
0000
0000
,
0001
0000
1000
1000
,
1000
0000
0010
0000
,
1001
0000
0100
0000
,
1001
0000
0100
0000
,
0001
0000
1000
1000
,
1000
0000
0100
0000
,
0010
0000
0001
0001
,
0001
0000
1000
0000
,
0010
0000
0100
0100
,
0100
0000
0001
0000
,
1001
0000
0100
0000
,
1001
0000
0100
0000
,
0010
1000
0010
1000
,
0010
0000
0000
0000
,
1000
0001
1000
0001
,
1000
0000
0000
0000
,
0001
0010
0001
0010
,
0001
0000
1000
0000
,
1001
0000
0001
0000
,
1001
0000
0000
0000
,
0100
0001
0100
0001
,
0100
0000
0000
0000
,
0001
1000
0001
1000
,
0001
0000
0000
0000
,
1000
0100
1000
0100
,
1000
0000
0001
0000
,
1001
0000
1000
0000
,
1001
0000
0000
0000
,
0010
0000
0000
1001
,
0000
0000
0010
0000
,
0100
0000
0000
1001
,
0000
0000
0100
0000
,
0010
0000
0000
1001
,
0000
0000
0010
0000
,
0100
0000
0000
1001
,
0000
0000
0100
0000
,
0001
0000
1000
0000
,
0100
0000
0000
0000
,
1000
0000
0001
0000
,
0100
0000
0000
0000
,
0001
0000
1000
0000
,
0100
0000
0000
0000
,
1000
1000
1000
0000
,
0001
0001
0001
0000
,
1000
0000
0100
0000
,
0001
0000
0100
0000
,
1000
0000
0010
0000
,
0001
0000
0010
0000
,
1000
0000
0100
0000
,
0001
0000
0100
0000
,
0010
0010
0010
0000
,
0001
0001
0001
0000
,
0010
0001
1000
0001
,
0010
0000
0000
0000
,
0001
1000
0001
1000
,
0010
0000
0000
0000
,
0010
1000
0001
1000
,
0010
0000
1000
0000
,
1001
0000
0001
0000
,
1001
0000
0000
0000
,
0100
0001
1000
0001
,
0100
0000
0000
0000
,
0001
1000
0001
1000
,
0100
0000
0000
0000
,
0100
1000
0001
1000
,
0100
0000
1000
0000
,
1001
0000
0001
0000
,
1001
0000
0100
0100
;

//--------------- dance-single - eataninja ----------------
#NOTEDATA:;
#STEPSTYPE:dance-single;
#DESCRIPTION:eataninja;
#DIFFICULTY:Easy;
#METER:7;
#RADARVALUES:0,0,0,0,0;
#NOTES:
0000
0000
0000
0000
,
0000
0000
0000
0000
,
0000
0000
0000
0000
,
0000
0000
0000
0000
,
1000
0100
1100
0000
,
0001
0100
0101
0000
,
1001
0100
1001
0000
,
1001
0100
1001
0000
,
0001
0010
0011
0000
,
1000
0001
0100
0000
,
0010
1000
1010
0000
,
0001
0100
1000
0100
,
0001
0100
0101
0000
,
1000
0100
1100
0000
,
1001
0010
1001
0000
,
1001
0010
1001
0000
,
1000
0010
0001
0010
,
0100
0000
0100
0000
0001
1000
0001
0000
,
0010
0010
0100
0100
,
1000
0001
0110
1001
,
0001
0100
1000
0100
,
0001
0000
0000
0000
0010
0100
0010
0000
,
0001
0000
0000
0000
0100
0010
0100
0000
,
0001
1000
0000
1000
0100
0000
0010
0000
,
0001
0010
1000
0010
,
0100
0000
0100
0000
1000
0001
1000
0000
,
0010
0010
0100
0100
,
0001
1000
0110
1001
,
1000
0100
0001
0100
,
1000
0000
0000
0000
0100
0010
0100
0000
,
1000
0000
0000
0000
0010
0100
0010
0000
,
1000
0001
0000
0001
0010
0000
0100
0000
,
2001
0100
0100
0000
,
0001
0001
3001
0000
,
1002
0100
0100
0000
,
1000
1000
1003
0000
,
2001
0010
0010
0000
,
0001
0001
3001
0000
,
1002
0010
0010
0000
,
1000
1000
1003
0000
,
0001
0001
0100
1000
,
0100
0100
0010
0000
,
1000
1000
0100
0001
,
0100
0100
0010
0000
,
0001
0001
0100
1000
,
0100
0100
0010
0000
,
1001
0010
1001
0000
,
1001
0100
1001
0000
,
1000
0100
1000
0100
,
0001
0100
0001
0100
,
1000
0010
1000
0010
,
0001
0010
0001
0010
,
1000
0100
0001
0100
,
1000
0010
0001
0010
,
0100
0000
0100
0000
0001
0001
0001
0000
,
0010
0000
0001
0000
1000
0010
1000
0000
,
0001
0101
1000
1100
,
0001
0000
0100
0000
0001
1000
0001
0000
,
0010
0010
0100
0100
,
1000
0001
0110
1001
,
1000
1010
0001
0011
,
1000
0000
0000
0000
0100
0010
0001
0000
,
1000
0000
0000
0000
0010
0100
0001
0000
,
1000
0001
0000
0001
0010
0000
0100
0000
,
1000
1100
0001
0011
,
1000
0000
0010
0000
1000
1000
1000
0000
,
0100
0100
0010
0010
,
0001
1000
0110
1001
,
0001
0101
1000
1010
,
0001
0000
0000
0000
0010
0100
1000
0000
,
0001
0000
0000
0000
0100
0010
1000
0000
,
0001
1000
0000
1000
0100
0000
0010
0000
;

//--------------- dance-single - eataninja ----------------
#NOTEDATA:;
#STEPSTYPE:dance-single;
#DESCRIPTION:eataninja;
#DIFFICULTY:Medium;
#METER:11;
#RADARVALUES:0,0,0,0,0;
#NOTES:
0000
0000
0000
0000
,
0000
0000
0000
0000
,
0000
0000
0000
0000
,
0000
0000
0000
0000
,
0001
0000
0000
0000
0001
0000
0000
0000
0010
0000
0000
0100
0000
0000
1000
0000
,
0010
0000
0100
0000
0100
0000
0000
0000
0010
0000
0000
1000
0000
0000
0001
0000
,
0010
0100
1000
0000
0010
0100
1000
0000
,
0010
0100
0001
0000
0010
0100
0001
0000
,
0010
0000
0000
0000
0100
0000
0000
0000
0010
0000
0000
0001
0000
0000
1000
0000
,
0020
0000
0000
0000
0130
0000
0000
0000
0001
0000
0000
1000
0000
0000
0100
0000
,
0010
0000
0000
0000
0001
0000
0000
0000
1000
0000
0000
0001
0000
0000
0100
0000
,
0010
0000
0000
1000
0000
0000
1000
0000
0001
0000
0000
1000
0000
0000
1000
0000
,
0010
0000
1000
0000
0001
1000
0100
0000
,
0010
0100
0100
0000
1000
0001
0100
0000
,
0010
0100
0001
0000
0010
0100
0001
0000
,
0010
0100
0100
0000
1000
0001
0001
0000
,
1000
0010
0001
0000
1000
0010
0100
0010
,
1000
0000
0001
0000
0010
0100
1000
0000
,
0001
0100
1000
0000
1000
0100
0010
0100
,
0001
1000
0000
0100
0110
0000
0011
0000
,
0001
0010
1000
0000
0001
0010
0100
0010
,
0001
0000
1000
0000
0010
0100
0001
1000
,
0100
0000
0010
0000
0001
1000
0010
0100
,
0001
1000
0000
1000
1100
0000
0101
0000
,
0001
0100
1000
0000
0001
0100
0010
0100
,
0001
0000
1000
0100
0010
0001
0100
0010
,
1000
0010
0001
0000
0001
0010
0100
0010
,
1000
0001
0000
0010
0110
0000
1100
0000
,
1000
0100
0001
0000
1000
0100
0010
0100
,
1000
0000
0010
0100
0001
1000
0100
0010
,
0001
0000
0100
0010
0100
0001
1000
0100
,
0010
0001
0000
0001
0011
0000
1100
0000
,
2000
0010
3001
1001
,
0002
0000
0100
0000
1003
0010
0000
0010
,
2000
0100
3001
1001
,
0002
0000
0010
0000
1003
0100
0000
0100
,
2000
0001
0001
0000
0010
3010
1001
0000
,
0002
0100
0100
0000
1003
0010
0000
0010
,
2000
0001
0001
0000
0100
3100
1001
0000
,
0002
0010
0010
0000
1003
0100
0000
0100
,
0010
0000
0000
0010
0000
0000
0001
0000
2000
0000
0000
0000
3020
0000
0000
0000
,
0130
0000
0000
0100
0000
0000
0001
0000
0010
0000
0100
0000
1000
0000
0000
0000
,
0100
0000
0000
0100
0000
0000
1000
0000
0002
0000
0000
0000
0203
0000
0000
0000
,
0310
0000
0000
0010
0000
0000
1000
0000
0100
0000
0010
0000
0001
0000
0000
0000
,
0010
0000
0000
0010
0000
0000
0001
0000
2000
0000
0000
0000
3020
0000
0000
0000
,
0130
0000
0000
0100
0000
0000
0001
0000
1000
0000
0100
0000
0010
0000
0000
0000
,
1000
0100
0010
0000
1000
0100
0010
0000
,
0001
0100
0010
0000
0001
0100
0010
0000
,
1000
0010
0001
0010
1000
0010
0001
0020
,
0000
0100
0000
0001
0000
0100
0000
1030
,
0001
0010
1000
0010
0001
0010
1000
0020
,
0000
0100
0000
1000
0000
0100
0000
0031
,
1000
0010
0001
0010
1000
0100
0001
0200
,
0000
0010
0000
0001
0000
0010
0000
1300
,
0001
0100
0100
0000
0010
0100
0100
0000
,
0001
1000
0100
0010
0001
1000
0010
0100
,
0001
1000
0010
0000
0001
1000
0010
0001
,
0010
0000
0100
0000
0001
0010
0100
0000
,
1000
0001
0100
0000
0100
1000
0100
0001
,
0010
0100
0000
1000
1010
0000
0110
0000
,
0010
1000
0001
0000
0010
1000
0100
0001
,
0100
0000
0010
0000
0001
1000
0010
0100
,
0001
0000
0010
0000
0100
0010
0001
1000
,
0010
0100
0000
0100
0101
0000
1100
0000
,
0100
1000
0001
0000
0100
1000
0001
0100
,
1000
0000
0100
0010
1000
0001
0010
0100
,
1000
0001
0010
0000
0010
1000
0010
0001
,
1000
0010
0000
1000
1100
0000
0110
0000
,
0010
0001
1000
0000
0010
0001
0100
1000
,
0100
0000
0010
1000
0001
0010
0100
0010
,
0001
0000
1000
0001
0100
0010
0100
0001
,
1000
0100
0000
0100
1100
0000
0101
0000
;

//--------------- dance-single - eataninja ----------------
#NOTEDATA:;
#STEPSTYPE:dance-single;
#DESCRIPTION:eataninja;
#DIFFICULTY:Hard;
#METER:14;
#RADARVALUES:0,0,0,0,0;
#NOTES:
0000
0000
0000
0000
,
0000
0000
0000
0000
,
0000
0000
0000
0000
,
0000
0000
0000
0000
,
0001
0000
0000
0000
0100
0000
0000
0000
0010
0000
0100
0010
0000
0000
1000
0000
,
0100
0000
0010
0000
0001
0000
0000
0000
1000
0000
0010
1000
0000
0000
0001
0000
,
0010
0100
1100
0000
0010
0100
1100
0000
,
0010
0000
0100
0000
1100
0000
0000
0000
1000
0010
1000
0010
0000
0000
1000
0000
,
0001
0000
0000
0001
0010
0000
0000
0001
0100
0000
0100
0010
0000
0000
1000
0000
,
0010
0000
0000
0010
0100
0000
0000
0001
1000
0000
1000
0100
0000
0000
0010
0000
,
0100
0000
0000
0100
1000
0000
0000
0001
1000
0000
1000
0010
0000
0000
0100
0000
,
0001
0000
0000
1000
0000
0000
0100
0000
1000
0000
0000
0010
0000
0000
0100
0000
,
0100
0000
0000
0010
1000
0000
0000
0001
0010
0000
0010
0100
0000
0000
1000
0000
,
0001
0000
0100
0000
0010
0000
0000
0100
0001
0000
0001
1000
0000
0000
1000
0000
,
0100
0010
0011
0000
0100
0010
0011
0000
,
0001
1000
1000
0010
0100
0001
0001
0000
,
1000
0010
0001
0010
0100
0010
0001
0010
,
1000
0000
0001
0000
0000
0000
0010
0000
0100
0000
1000
0000
0001
0100
0001
0100
,
0001
1000
0100
0010
0001
1000
0010
0100
,
1000
0000
0100
0000
0000
0000
0001
0000
1000
0100
1000
0000
0001
0010
0001
0000
,
1000
0100
0001
0100
0010
0100
0001
0100
,
1000
0000
0001
0000
0000
0000
0100
0000
0010
0000
1000
0000
0001
0010
0001
0010
,
0001
1000
0000
0010
0100
0001
1000
0100
,
0010
0000
0001
1000
0001
0000
0100
0000
0010
1000
0000
0000
1000
0001
0000
0000
,
0001
0100
1000
0100
0010
0100
1000
0100
,
0001
0000
1000
0000
0100
0000
0010
0000
0001
0000
1000
0000
0001
0100
0001
0100
,
0001
1000
0100
0010
0001
1000
0010
0100
,
1000
0000
0100
0000
0001
0000
1000
0000
0001
0010
0001
0000
1000
0100
1000
0000
,
0001
0010
1000
0010
0100
0010
0001
1000
,
0010
0000
0100
0000
0001
0000
1000
0000
0100
0000
0001
0000
0100
0010
0100
0010
,
0100
1000
0001
0100
1000
0100
0010
1000
,
0001
0000
0010
0001
0010
0000
0001
0000
1000
0010
0000
0000
0010
0100
0000
0000
,
0001
0000
1000
0100
1000
0000
0001
0100
0010
0000
0000
0000
1001
0000
0000
0000
,
0001
0000
1000
0010
1000
0000
0001
0010
0100
0000
1100
0000
0000
0000
1100
0000
,
1000
0000
0001
0010
0001
0000
1000
0010
0100
0000
0000
0000
1001
0000
0000
0000
,
1000
0000
0001
0100
0001
0000
1000
0100
0010
0000
0011
0000
0000
0000
0011
0000
,
0001
0000
1000
0010
1000
0010
1000
0010
0100
0000
0000
0000
1001
0000
0000
0000
,
0001
0000
1000
0100
1000
0100
0010
0001
1000
0000
1100
0000
0000
0000
1100
0000
,
1000
0000
0001
0100
0001
0100
0001
0100
0010
0000
0000
0000
1001
0000
0000
0000
,
1000
0000
0001
0010
0001
0010
0100
1000
0001
0000
0011
0000
0000
0000
0011
0000
,
1000
0001
1000
0001
0000
0000
0010
0000
2000
0000
0000
0000
3020
0000
0000
0000
,
0130
0000
0100
1000
0000
0000
0001
0000
0100
0000
0010
0000
1000
0000
0000
0000
,
0001
1000
0001
1000
0000
0000
0100
0000
0002
0000
0000
0000
0203
0000
0000
0000
,
0310
0000
0010
0001
0000
0000
1000
0000
0010
0000
0100
0000
0001
0000
0000
0000
,
1000
0001
1000
0001
0000
0000
0100
0000
2000
0000
0000
0000
3200
0000
0000
0000
,
0310
0000
0010
1000
0000
0000
0001
0000
0010
0000
0100
0000
1200
0000
0000
0000
,
0310
0100
2100
0000
3010
0100
0102
0000
,
0013
0000
0100
0000
2100
0000
0000
0000
3010
0000
0100
0000
0001
1000
0001
1000
,
0010
0001
0010
1000
0010
0001
0010
1000
,
0010
0100
0001
1000
0100
0010
0001
0001
,
0100
1000
0100
0001
0100
1000
0100
0001
,
0100
0010
1000
0001
0010
0100
1000
1000
,
0010
0001
0010
1000
0100
0001
0100
1000
,
0010
0000
0001
0000
0010
0000
1000
0000
0001
0000
0010
0000
0100
0010
0100
0010
,
0001
0000
1000
0000
0010
0100
0001
0000
1000
0000
0100
0010
0001
0000
1000
0000
,
0010
0100
0010
0000
1000
0000
0001
0000
0010
0100
0010
0000
0100
1000
0100
0000
,
1000
0000
0001
0100
0010
0000
0100
0000
0001
0000
1000
0100
0010
0000
0100
0000
,
0001
0000
0100
0000
0000
0000
1000
0000
0001
0000
0100
0000
0010
1000
0010
1000
,
0001
0000
0010
0100
1000
0000
0001
0000
1000
0000
0010
0100
0001
0000
1000
0000
,
0010
0000
0001
0000
0000
0000
0010
0000
0100
0000
0001
0000
1000
0100
1000
0100
,
1000
0000
0001
0010
0100
0000
0010
0000
0001
0000
1000
0010
0100
0000
0001
0000
,
0010
0000
1000
0000
0000
0000
0010
0000
0100
0000
1000
0000
0001
0100
0001
0100
,
0010
1000
0000
0001
0100
0001
1000
0100
,
0010
0000
0001
0010
0001
0000
1000
0000
0010
0100
0000
0000
0100
0001
0000
0000
,
1000
0000
0100
0010
0001
0000
1000
0000
0010
0000
0100
0001
1000
0000
0010
0000
,
0100
0000
1000
0000
0100
0000
0001
0000
1000
0000
0100
0000
0010
0001
0010
0001
,
1000
0000
0010
0100
0001
0000
0100
0000
0010
0000
1000
0001
0010
0000
0100
0000
,
0001
0000
0100
0000
1000
0000
0001
0000
0100
0000
0010
0000
1000
0001
1000
0001
,
0010
0000
0100
0010
0001
0000
1000
0000
0010
0000
0100
0010
1000
0000
0001
0000
,
0010
0000
1000
0000
0010
0000
0001
0000
1000
0000
0010
0000
0100
0010
0100
0010
,
1000
0001
0010
0100
0010
0001
1000
0010
,
0100
0000
0001
1000
0001
0000
0010
0000
0100
1000
0000
0000
1000
0001
0000
0000
;
