#VERSION:0.83;
#TITLE:Carrot Car;
#SUBTITLE:;
#ARTIST:Naked Flames;
#TITLETRANSLIT:;
#SUBTITLETRANSLIT:;
#ARTISTTRANSLIT:;
#GENRE:;
#ORIGIN:;
#TAGS:;
#CREDIT:;
#BANNER:Carrot Car-bn.png;
#BACKGROUND:Carrot Car-bg.png;
#PREVIEWVID:;
#JACKET:Carrot Car-jk.png;
#CDIMAGE:;
#DISCIMAGE:;
#LYRICSPATH:;
#CDTITLE:;
#MUSIC:Carrot Car.ogg;
#OFFSET:0.000000;
#SAMPLESTART:55.284946;
#SAMPLELENGTH:13.710000;
#SELECTABLE:YES;
#BPMS:0.000000=140.000000
;
#STOPS:;
#DELAYS:;
#WARPS:;
#TIMESIGNATURES:0.000000=1=4
,1.000000=4=4
;
#TICKCOUNTS:0.000000=4
;
#COMBOS:0.000000=1
;
#SPEEDS:0.000000=1.000000=0.000000=0
;
#SCROLLS:0.000000=1.000000
;
#LABELS:0.000000=Song Start
;
#BGCHANGES:;
#KEYSOUNDS:;
#ATTACKS:
;

//---------------dance-single - ----------------
#NOTEDATA:;
#CHARTNAME:;
#CHARTHASH:4291615437;
#STEPSTYPE:dance-single;
#BANNER:;
#DESCRIPTION:;
#CHARTSTYLE:;
#DIFFICULTY:Beginner;
#METER:3;
#METERF:3.000000;
#LASTSECONDHINT:139.714294;
#RADARVALUES:0.000000,0.000000,0.000000,0.000000,0.000000,0.000000,0.000000,0.000000,0.000000,0.000000,0.000000,0.000000,0.000000,0.000000,0.000000,0.000000,0.000000,0.000000,0.000000,0.000000,0.000000,0.000000,0.000000,0.000000,0.000000,0.000000,0.000000,0.000000;
#CREDIT:Embrace;
#NOTES:
0000
0000
0000
0000
,
0000
0000
0000
0000
,
0000
0000
0000
0000
,
0000
0000
0000
0000
,
0000
0000
0000
0000
,
0000
0000
0000
0000
,
0000
0000
0000
0000
,
0000
0000
0000
0000
,
0000
1000
0000
0000
,
0000
0001
0000
0000
,
0000
0100
0000
0000
,
0000
0010
0000
0010
,
0000
1000
0000
0000
,
0000
0100
0000
0000
,
0000
0010
0000
0010
,
0000
0001
0000
0000
,
0000
0000
1000
2000
,
3000
0000
0001
0002
,
0003
0000
0010
0020
,
0030
0000
0100
0200
,
0300
0000
0010
0020
,
0030
0000
0001
0002
,
0003
0000
1000
0000
,
0010
0010
0000
0020
,
0030
0010
0000
0000
,
0001
0001
0000
0000
,
1000
1000
0000
0000
,
0010
0020
0000
0030
,
0000
0200
0000
0300
,
0000
2000
0000
3000
,
0000
0020
0000
0030
,
0000
0100
0000
0100
,
0000
1001
0000
0001
,
0000
1000
0000
1000
,
0000
0100
0000
0010
,
0000
0001
0000
0010
,
0000
0020
0000
0030
,
0000
0200
0000
0300
,
0000
2000
0000
3000
,
0000
0001
0000
0001
,
0000
0000
0100
0100
,
0000
0010
0000
1000
,
0000
0000
0100
0100
,
0000
0010
0000
0001
,
0000
1000
0000
0010
,
0000
0001
0000
0010
,
0000
1000
0000
0001
,
0000
0020
0000
0030
,
0000
0200
0300
0000
,
0100
0200
0300
0000
,
0000
0020
0030
0000
,
0010
0020
0030
0000
,
0000
0002
0000
0003
,
0000
2000
0000
3000
,
0000
0020
0000
0030
,
0000
0200
0000
0000
,
0000
0300
0000
0000
,
0000
0001
0000
0000
,
0000
1000
0000
0000
,
0000
0100
0000
0000
,
0000
0010
0020
0030
,
0000
0001
0002
0003
,
0000
1000
1000
0000
,
0010
0020
0000
0030
,
0000
1001
0000
0001
,
0000
0010
0000
0100
,
0100
0000
1000
0000
,
0001
0001
0000
0100
,
0000
0010
0000
0100
,
0000
0001
0000
0010
,
0000
0100
0000
1000
,
0000
0002
0000
0003
,
0000
0000
1000
1000
,
0000
0001
0000
2000
,
3000
0000
0010
0010
,
0000
0100
0000
0001
,
0000
0020
0000
0030
,
0000
0200
0000
0300
,
0000
1000
0000
1000
,
0000
0002
0000
0000
,
0000
0000
0000
0000
,
0000
0000
0003
0000
;

//---------------dance-single - ----------------
#NOTEDATA:;
#CHARTNAME:;
#CHARTHASH:4148505852;
#STEPSTYPE:dance-single;
#BANNER:;
#DESCRIPTION:;
#CHARTSTYLE:;
#DIFFICULTY:Easy;
#METER:5;
#METERF:5.000000;
#LASTSECONDHINT:137.571426;
#RADARVALUES:0.000000,0.000000,0.000000,0.000000,0.000000,0.000000,0.000000,0.000000,0.000000,0.000000,0.000000,0.000000,0.000000,0.000000,0.000000,0.000000,0.000000,0.000000,0.000000,0.000000,0.000000,0.000000,0.000000,0.000000,0.000000,0.000000,0.000000,0.000000;
#CREDIT:Embrace;
#NOTES:
0000
0000
0000
0000
,
0000
0000
0000
0000
,
0000
0000
0000
0000
,
0000
0000
0000
0000
,
0000
0000
0000
0000
,
0000
0000
0000
0000
,
0000
0000
0000
0000
,
0000
0000
0000
0000
,
0000
0000
1000
0001
,
0000
0010
0100
0010
,
0000
0000
0001
1000
,
0000
0010
0100
0001
,
0000
1000
0000
0100
,
0010
0001
0000
0100
,
0010
1000
0000
0001
,
0000
0200
0000
0300
,
0000
0000
0001
1000
,
0100
0000
0010
0100
,
0010
0000
0100
1000
,
0001
0000
0100
0010
,
0100
0000
0001
0000
,
1000
0000
0100
0010
,
0001
0000
1000
0000
,
0010
0020
0030
1000
,
1000
0001
0010
0001
,
0100
0000
0010
1000
,
0010
0000
0100
0001
,
1000
0000
0100
0010
,
0001
2000
0000
0000
,
3000
0002
0000
0000
,
0003
0200
0000
0000
,
0300
0010
0000
0000
,
1000
1001
0001
0010
,
0100
1000
1000
1000
,
0001
0000
0100
0001
,
0010
0100
0100
1000
,
0001
0100
0000
0010
,
1000
0100
0000
0010
,
0010
0001
0000
0100
,
0010
2000
0000
3000
,
0000
0001
0000
0100
,
0000
0010
1000
0100
,
0000
1000
0000
0010
,
0000
0100
0001
1001
,
0000
1000
0010
0100
,
0001
1000
0010
0100
,
0001
1000
0100
0100
,
1000
0002
0000
0003
,
0000
2002
0000
3003
,
1000
2000
0000
3000
,
0000
2020
0000
3030
,
0010
0020
0000
0030
,
0000
0100
0000
0001
,
0010
0010
0000
0100
,
0010
0010
0000
0001
,
0100
0202
0303
0000
,
1000
0002
0003
0000
,
0000
0010
0000
0100
,
0010
0002
0003
0000
,
1000
0020
0030
0000
,
0000
1000
2000
0000
,
3000
0001
0002
0000
,
0003
0100
0200
0000
,
0310
0220
0000
0000
,
0330
1001
0001
0100
,
0010
1000
1000
0001
,
0010
0001
0100
0010
,
1000
0100
0100
0010
,
0110
1001
0001
0100
,
0001
0010
0100
1000
,
1000
0010
1000
0100
,
0010
0002
0003
0000
,
1000
2000
0000
3000
,
0000
0020
0000
0030
,
0000
0200
0000
0300
,
0000
0001
1000
0002
,
0003
0010
0100
1000
,
0100
0010
0001
1000
,
0010
0100
0010
0010
,
1000
0002
0000
0000
,
0000
0003
0000
0000
;

//---------------dance-single - ----------------
#NOTEDATA:;
#CHARTNAME:;
#CHARTHASH:1689446842;
#STEPSTYPE:dance-single;
#BANNER:;
#DESCRIPTION:;
#CHARTSTYLE:;
#DIFFICULTY:Medium;
#METER:11;
#METERF:11.000000;
#LASTSECONDHINT:137.571426;
#RADARVALUES:0.000000,0.000000,0.000000,0.000000,0.000000,0.000000,0.000000,0.000000,0.000000,0.000000,0.000000,0.000000,0.000000,0.000000,0.000000,0.000000,0.000000,0.000000,0.000000,0.000000,0.000000,0.000000,0.000000,0.000000,0.000000,0.000000,0.000000,0.000000;
#CREDIT:Embrace;
#NOTES:
0000
0000
0000
0000
,
0000
0000
0000
0000
,
0000
0000
0000
0000
,
0000
0000
0000
0000
,
0000
0000
0000
0000
,
0000
0000
0000
0000
,
0000
0000
0000
0000
,
0000
0000
0000
0000
,
0000
0001
0010
0200
,
0300
0000
0000
0000
1000
0000
0000
0001
0000
0000
1000
0000
0020
0000
0000
0000
,
0030
0000
0000
0000
0100
0000
0000
0000
0001
0000
0000
0000
0010
0000
0000
0001
,
0000
0010
0100
0000
1000
0000
2002
0000
,
3003
0000
0000
0000
0001
0000
0000
0000
0100
0000
0000
0100
0010
0000
1000
0000
,
0010
0000
1000
0000
0001
0000
0000
0000
0010
0000
0000
0010
0100
0000
1000
0000
,
0100
1000
0001
0000
0100
0010
0100
0000
,
0100
0001
0020
0000
0000
0200
0000
0000
,
0330
0000
1000
0000
0100
0000
0010
0001
,
0100
0001
0000
0000
0010
0000
0100
1000
,
0010
0100
0000
0000
0010
0000
1000
0001
,
0100
0010
0000
0000
0100
0000
0001
0010
,
0100
1000
0000
0000
1000
0000
1000
0001
,
0100
0000
0001
0000
0000
0000
0010
0000
0100
0000
0000
0100
1000
0000
0000
1000
,
0001
0000
0001
0000
0100
0000
0010
0000
1000
0000
0000
1000
0001
0000
0100
0000
,
0010
1000
0200
0000
0310
0000
0001
1000
,
0001
1000
0001
0000
0000
0000
0000
0000
1000
0000
0000
0000
0100
0000
0010
0000
,
0001
0200
0000
0000
0310
0000
0100
0001
,
0010
0200
0000
0000
1300
0000
0010
0100
,
0010
2000
0000
0000
3100
0010
0100
1000
,
0010
0000
0100
0000
0001
0000
0000
0001
0000
0000
0001
0000
0000
0000
0001
0000
,
0000
0001
0000
0000
1000
0000
0000
1000
0000
0000
1000
0000
0000
0000
1000
0000
,
0000
1000
0000
0000
0100
0000
0000
0100
0000
0000
0100
0000
0000
0000
0010
0000
,
0000
0010
0000
0000
0002
0000
0000
0000
0000
0000
0000
0000
1003
0000
0001
0000
,
1000
0001
1000
0000
0010
0000
0000
0000
0100
0000
0000
0000
0001
0000
0000
0000
,
0010
0000
0000
0000
0100
0000
0000
0000
0100
0000
0000
0100
1000
0000
0001
0000
,
0100
0000
0010
0000
0000
0000
1000
0000
0000
0001
0000
0000
0010
0000
0000
0000
,
0100
0000
0000
0000
1000
0000
0000
0000
0001
0000
0000
0001
0010
0000
0001
0000
,
1000
0000
0100
0000
1000
0000
0000
0000
0010
0000
0000
0010
0100
0000
0001
0000
,
1000
0100
0010
0000
0001
0000
0100
0010
,
0100
0000
0000
0000
0001
0000
0000
0000
1000
0000
0000
1000
0100
0000
0010
0000
,
0001
0000
2000
0000
0000
0002
0000
0000
,
3003
0000
0000
1000
0010
0100
0001
0000
,
1000
0000
0000
0000
0100
0000
0000
0010
0000
0000
0100
0000
1000
0000
0000
0000
,
0001
0000
0000
0000
0100
0000
0010
0000
1000
0000
0001
0000
0010
0001
0000
0001
,
0000
0100
0010
0000
1010
0000
2002
0000
,
3003
0000
0000
0000
1100
0000
0000
0000
0100
0000
0000
0100
0010
0000
0001
0000
,
0100
0000
0001
0000
0010
0000
0000
0000
0100
0000
0000
0100
1000
0000
0010
0000
,
1000
0100
0010
0000
0001
0100
0010
0000
,
1000
0000
0001
1000
0002
0000
0000
0000
0000
0000
0020
0000
0000
0000
0000
0000
,
0033
1002
0103
0100
,
0010
2000
0001
0000
3001
0000
0010
0000
,
0100
2000
3100
0100
,
0010
0002
1000
0000
1003
0000
1000
0000
,
1000
0010
0200
0000
0301
0010
0100
0000
,
0010
0000
0002
0000
0103
0010
1000
0000
,
0100
0000
0020
0000
0031
1000
0010
0000
,
0100
0000
0002
0000
1003
0000
0000
0001
,
1000
0001
1000
0000
0020
0000
0000
0000
0130
0000
0000
0000
0000
0000
0000
0000
,
0100
0002
0000
0000
1003
0000
0200
0000
,
0320
0032
1003
0000
,
0010
1000
0020
0000
0130
0000
0000
0000
,
0001
0000
0000
0000
1000
0000
0100
1000
0200
0000
0000
0000
0000
0000
0000
0000
,
0300
0000
0100
0000
0010
0000
0001
0010
0002
0000
0000
0000
0000
0000
0000
0000
,
0003
0000
0000
0000
1000
0000
0010
1000
0020
0000
0000
0000
0030
0000
1000
0000
,
0001
1000
0002
0000
0000
0023
0000
0000
,
0130
1000
0100
0000
1000
0000
0000
0000
0001
0000
1000
0000
0010
0000
0100
0000
,
0001
0000
1000
0000
0100
0000
0000
0000
0100
0000
0000
0100
1000
0000
1000
0000
,
0001
0000
0100
0000
0010
0000
1000
0000
0000
0100
0000
0000
0010
0000
0001
0000
,
1000
0000
0010
0000
0100
0000
0000
0000
0100
0000
0000
0100
0001
0000
1000
0000
,
0100
0000
0010
0000
0001
0000
0010
0000
0100
0000
0000
0100
1000
0000
0001
0000
,
1000
0010
0100
0010
1000
0000
0100
0010
,
0100
0000
0000
0000
1000
0000
0001
0000
0100
0000
0010
1000
0010
0000
0100
0000
,
0001
0010
0002
0000
1003
0000
0000
0010
,
0100
0010
0100
0010
0000
0000
1000
0000
0001
0000
1000
0000
0200
0000
0000
0000
,
0000
0000
0310
0000
0001
0000
0000
0100
0000
0000
0001
0000
2000
0000
0000
0000
,
0000
0000
3100
0000
0000
0000
0010
0000
0001
0000
1000
0000
0100
1000
0000
0001
,
0000
1000
0020
0000
0230
0000
0302
0000
,
0003
0000
0000
0000
2000
0000
0000
0000
3100
0000
0000
0100
0010
0000
0001
0000
,
0100
0000
0001
0000
0020
0000
0000
0000
0130
0000
0000
0100
1000
0000
0010
0000
,
1000
0100
0010
0000
0001
0100
0010
0000
,
1000
0000
0001
1000
0002
0000
0000
0000
0000
0000
2000
0000
0000
0000
0000
0000
,
0000
3003
0000
0000
;

//---------------dance-single - ----------------
#NOTEDATA:;
#CHARTNAME:;
#CHARTHASH:1983921072;
#STEPSTYPE:dance-single;
#BANNER:;
#DESCRIPTION:;
#CHARTSTYLE:;
#DIFFICULTY:Hard;
#METER:14;
#METERF:14.000000;
#LASTSECONDHINT:137.357147;
#RADARVALUES:0.547731,0.655454,0.128041,0.689999,0.391236,539.000000,521.000000,18.000000,97.000000,0.000000,0.000000,0.000000,0.000000,0.000000,0.547731,0.655454,0.128041,0.689999,0.391236,539.000000,521.000000,18.000000,97.000000,0.000000,0.000000,0.000000,0.000000,0.000000;
#CREDIT:Embrace;
#NOTES:
// measure 0
0000
0000
0000
0000
,  // measure 1
0000
0000
0000
0000
,  // measure 2
0000
0000
0000
0000
,  // measure 3
0000
0000
0000
0000
,  // measure 4
0000
0000
0000
0000
,  // measure 5
0000
0000
0000
0000
,  // measure 6
0000
0000
0000
0000
,  // measure 7
0000
0000
0000
0000
0000
0000
0000
0000
0000
0000
0000
0000
0000
0000
1000
0100
,  // measure 8
0020
0030
0000
0002
0023
0032
2003
0000
,  // measure 9
0000
0000
3000
0000
0002
0000
0003
0020
0000
0030
0002
0000
0203
0000
0010
0010
,  // measure 10
0000
0310
0000
0000
1000
0000
0100
0000
0020
0000
0130
0000
1000
0001
0000
0001
,  // measure 11
0010
0000
0001
0000
2000
0000
3000
0000
0020
0000
0030
0000
0200
0000
0301
1000
,  // measure 12
0001
0000
0000
1000
0000
0000
0200
0000
0000
0300
0000
0000
0020
0000
0000
0030
0000
0010
0002
0000
0000
0203
0000
0000
,  // measure 13
0320
0000
0000
2030
0000
0000
3020
0000
0000
0030
0000
0000
2000
0000
0000
3000
0000
1000
0200
0000
0000
0320
0000
0000
,  // measure 14
0230
2300
3002
0003
0200
0320
2030
3000
,  // measure 15
0001
0010
0001
1000
0002
0000
0000
0000
0003
0000
2000
0000
0000
0000
0000
0000
,  // measure 16
3001
0000
0000
0000
0010
0000
0001
0000
1000
0000
0001
0000
0100
0010
1000
0010
,  // measure 17
0100
0000
0001
0000
0000
0000
1000
0000
0100
0000
0010
0000
0001
0000
0010
0100
,  // measure 18
0000
0100
1000
0000
0000
0000
0001
0000
1000
0000
0001
0100
0010
0100
0001
1000
,  // measure 19
0010
0000
0100
0000
0000
0000
0010
0000
1000
0000
0001
1000
0100
1000
0001
0010
,  // measure 20
0100
1000
0000
0000
0000
0000
0001
0000
0100
0000
0010
0100
0001
0000
1000
0000
,  // measure 21
0100
0000
0010
0100
0000
0000
1000
0000
0001
0000
0100
0010
0100
0000
0001
1000
,  // measure 22
0100
0000
0010
0000
0001
0000
0001
0000
1000
0000
0010
0100
0010
0000
1000
0000
,  // measure 23
0001
0000
0010
0000
0200
0000
0000
0000
2300
0000
0000
0000
3001
0010
0001
0100
,  // measure 24
0001
1000
0100
0000
0000
0000
0010
0000
0001
0000
1000
0000
0100
1000
0001
1000
,  // measure 25
0010
0000
0200
0000
0000
0000
0310
0000
1000
0000
0100
0000
1000
0000
0010
0100
,  // measure 26
0000
0100
0002
0000
0000
0000
0013
0000
0001
0000
0100
0010
1000
0010
0100
0001
,  // measure 27
1000
0000
0002
0000
0000
0000
0013
0000
0100
0000
1000
0001
0100
0010
0100
0001
,  // measure 28
1000
0020
0000
0000
0230
0000
0000
0001
0000
0000
0001
0000
0000
0000
0010
0000
,  // measure 29
0000
0310
0000
0000
2000
0000
0000
0100
0000
0000
0100
0000
0000
0000
0001
0000
,  // measure 30
0000
3001
0000
0000
0002
0000
0000
0100
0000
0000
0100
0000
0000
0000
1000
0000
,  // measure 31
0000
1003
0000
0000
0020
0000
0000
0000
2030
0000
0000
0000
3100
0010
0100
1000
,  // measure 32
0010
1000
0010
1000
0001
0000
0000
0000
0100
0000
0001
0000
1000
0000
0100
1000
,  // measure 33
0001
0000
0000
1000
0000
0000
0100
0000
0000
0010
0000
0000
0100
0000
0000
0000
0000
1000
0001
0000
0000
0001
0000
0010
,  // measure 34
0001
0000
0001
0000
1000
0000
0100
0000
0010
0100
1000
0000
0001
0000
1000
0000
,  // measure 35
0010
0000
0100
0000
0010
0000
1000
0000
0001
0000
0000
1000
0100
0000
0010
0000
,  // measure 36
0011
0000
0000
0000
0000
0000
0011
0000
0000
0001
0000
0000
0100
0000
0000
0000
0000
0010
1000
0000
0000
1000
0000
0000
,  // measure 37
0001
0010
0011
0001
0100
0000
0001
1000
,  // measure 38
0001
0000
0000
0000
0000
0000
1100
0000
0000
1000
0000
0000
0010
0000
0000
0000
0000
0100
0001
0000
0000
0001
0000
0000
,  // measure 39
0010
0000
0000
0000
2001
0000
0000
0000
0100
0000
0000
0000
3001
0010
0001
1000
,  // measure 40
0010
0100
0010
0000
1000
0000
0001
0000
0010
0000
0001
0000
0100
0000
0010
1000
,  // measure 41
0001
0000
0100
0000
0010
0000
0100
0001
0000
0010
0100
0000
1000
0000
0001
0100
,  // measure 42
0000
0001
0010
0000
0100
0000
1000
0000
1001
0000
0001
0000
0100
0010
0000
0010
,  // measure 43
1000
0001
0022
0033
2002
3003
0202
0303
,  // measure 44
0100
0000
0000
0100
0000
0000
0110
0000
0000
0001
0000
0000
1000
0000
0000
0000
0000
1000
0100
0000
0000
0010
0000
0000
,  // measure 45
0001
0000
0000
0100
0000
0000
0110
0000
0000
0001
0000
0000
1000
0000
0000
0000
0000
1000
0100
0000
0000
0010
0000
0000
,  // measure 46
0001
0100
0000
0001
2000
0000
0000
0000
3100
0000
0010
0000
0200
0000
0000
0000
,  // measure 47
1300
0010
1000
0001
0020
0000
0000
0000
0030
0000
0200
0000
0000
0000
0000
0000
,  // measure 48
0310
0100
0010
0100
2000
0000
0000
0000
0100
0000
0000
0000
0100
0000
0000
0000
,  // measure 49
3001
0020
0001
0000
0001
0000
0100
0000
,  // measure 50
0130
0100
0200
0000
0010
0000
1000
0000
,  // measure 51
1300
0002
0010
0000
0010
0000
1000
0000
,  // measure 52
1003
0000
0001
1000
0020
0000
0000
0000
0130
0000
0020
0000
1000
0000
0000
0000
,  // measure 53
0130
0000
0002
0000
1003
0002
0010
0000
,  // measure 54
1003
0001
0000
0001
0020
0000
0000
0000
0130
0000
0020
0000
0001
0000
0000
0000
,  // measure 55
0130
2000
0001
3001
,  // measure 56
1000
0001
1000
0000
0020
0000
0030
0000
0100
0000
0000
0000
0000
0000
0000
0000
,  // measure 57
0001
0000
1000
0020
,  // measure 58
0230
0302
1000
0000
,  // measure 59
0013
0100
2000
0000
0001
0000
0000
0000
,  // measure 60
3010
0000
0000
0000
1000
0001
1000
0001
2000
0000
0000
0000
0000
0000
0000
0000
,  // measure 61
3100
0000
0010
0000
0001
0010
0001
0010
0002
0000
0000
0000
0000
0000
0000
0000
,  // measure 62
1003
0000
0000
0000
0010
0100
0010
0100
0020
0000
0000
0000
0030
0000
1000
0000
,  // measure 63
1000
0001
0020
0000
0000
0230
0000
1300
,  // measure 64
0010
1000
0010
0000
1001
0000
1000
0000
0100
0000
0010
0000
0100
1000
0001
0010
,  // measure 65
0001
0000
0000
1000
0000
0000
0010
0000
0000
0100
0000
0000
0001
0000
0000
0010
0000
0001
1000
0000
0000
1000
0000
0100
,  // measure 66
1000
0000
0001
0000
0100
0000
0001
0000
0010
0001
0100
0000
0010
0000
0100
0001
,  // measure 67
0010
0000
0001
0000
1001
0000
1000
0000
0100
0000
0010
0001
0100
0000
0010
0000
,  // measure 68
1001
0000
0000
0000
0101
0000
0100
0000
0010
0000
1000
0010
0100
0000
0001
0000
,  // measure 69
0010
0000
0100
0000
0110
0000
0001
0000
1000
0000
0010
0000
0100
0000
0010
1000
,  // measure 70
0001
0100
0000
0001
0010
0000
0100
0000
1000
0000
0100
0010
0001
0000
1000
0000
,  // measure 71
1010
0001
2001
0000
3200
0000
0300
1000
,  // measure 72
0010
1000
0100
1000
0001
0000
1000
0000
0200
0000
0310
0000
0002
0000
0000
0000
,  // measure 73
0000
0000
2003
0000
0200
0000
0300
0002
0000
0003
3200
0000
0320
0000
0000
0000
,  // measure 74
0030
0000
0001
0000
0000
0000
1000
0000
0020
0000
0130
0000
0001
0010
0000
0010
,  // measure 75
0001
1000
0020
0030
0200
0300
0002
0000
,  // measure 76
0000
0000
0003
0000
0020
0000
0030
0000
0200
0000
0300
1000
0001
0000
0100
0000
,  // measure 77
0010
0000
1000
0000
0200
0000
0300
0000
0020
0000
0030
0001
1000
0000
0001
0000
,  // measure 78
0100
0010
2000
3000
0002
0203
0320
0030
,  // measure 79
1000
0001
0010
0100
0020
0000
0000
0000
0030
0000
0002
0000
0000
0000
0000
0000
,  // measure 80
0000
0003
0000
0000
0000
0000
0000
0000
;
