#TITLE:Carnival;
#SUBTITLE:;
#ARTIST:Quintino;
#TITLETRANSLIT:;
#SUBTITLETRANSLIT:;
#ARTISTTRANSLIT:;
#GENRE:;
#CREDIT:darkanine;
#BANNER:Carnival.png;
#BACKGROUND:Carnival-bg.png;
#LYRICSPATH:;
#CDTITLE:;
#MUSIC:Carnival.ogg;
#OFFSET:0.000000;
#SAMPLESTART:51.200001;
#SAMPLELENGTH:25.600000;
#SELECTABLE:YES;
#BPMS:0.000000=75.000000
,32.000000=150.000000
,96.000000=75.000000
,128.000000=150.000000
,224.000000=75.000000
;
#STOPS:
;
#BGCHANGES:0.000=Carnival.mp4=1.000=0=0=0=StretchNoLoop====,
240.000=Carnival-bg.png=1.000=0=0=1=====
;
#KEYSOUNDS:;
#ATTACKS:;

//---------------dance-single - 6 staircases----------------
#NOTES:
     dance-single:
     :
     Beginner:
     6:
     0.223263,0.383196,0.007514,0.022541,0.000000,208.000000,207.000000,1.000000,3.000000,0.000000,0.000000,0.223263,0.383196,0.007514,0.022541,0.000000,208.000000,207.000000,1.000000,3.000000,0.000000,0.000000:
// measure 0
0000
0000
0000
0000
,  // measure 1
0000
0000
0000
0000
,  // measure 2
1000
0100
0010
0001
0001
0010
0100
1000
,  // measure 3
0001
0001
0100
0100
0010
0010
1000
2000
,  // measure 4
3001
0000
0001
0001
,  // measure 5
0000
0100
0100
0010
,  // measure 6
0000
1000
1000
0100
,  // measure 7
0000
0010
0001
0001
,  // measure 8
0000
1000
0100
0100
,  // measure 9
1000
0010
1000
0001
,  // measure 10
0000
0001
0100
0100
,  // measure 11
0001
0010
0001
1000
,  // measure 12
0000
1000
0100
0100
,  // measure 13
0010
1000
0010
0001
,  // measure 14
0000
0001
0100
0100
,  // measure 15
0010
1000
0001
0000
,  // measure 16
0001
0001
0001
0000
,  // measure 17
0100
0100
0100
0000
,  // measure 18
0010
0010
0010
0000
,  // measure 19
1000
1000
1000
0000
,  // measure 20
0100
1000
0100
1000
,  // measure 21
0001
0010
0001
0010
,  // measure 22
0002
0000
2000
0000
,  // measure 23
3003
0000
0000
0000
,  // measure 24
0100
0000
1000
0010
0100
0001
1000
0001
,  // measure 25
0000
0000
1000
0100
0010
0001
1000
0000
,  // measure 26
0000
0000
0001
0100
0010
1000
0001
1000
,  // measure 27
0000
0000
0001
0010
0100
0000
1000
0000
,  // measure 28
0000
0001
1000
1000
,  // measure 29
0010
0100
0001
0001
,  // measure 30
1000
0000
0100
0000
0010
0010
0010
0000
,  // measure 31
0001
0000
1000
0000
0100
0100
0100
0000
,  // measure 32
0000
1000
0000
1000
,  // measure 33
0000
0001
0000
0001
,  // measure 34
0000
0100
0000
0100
,  // measure 35
0000
0010
0000
0010
,  // measure 36
0000
1000
0000
0100
,  // measure 37
0000
0001
0000
0100
,  // measure 38
0000
0010
0000
1000
,  // measure 39
0000
0010
0000
0001
,  // measure 40
0001
0001
0001
0000
,  // measure 41
1000
1000
1000
0000
,  // measure 42
0010
0010
0010
0000
,  // measure 43
0100
0100
0100
0000
,  // measure 44
0001
0010
0001
0010
,  // measure 45
0100
1000
0100
1000
,  // measure 46
0010
0010
0100
0100
,  // measure 47
0000
0000
0000
0000
,  // measure 48
0001
0001
0001
0001
,  // measure 49
0001
0001
0001
0000
,  // measure 50
1000
1000
1000
1000
,  // measure 51
1000
1000
1000
0000
,  // measure 52
0010
0010
0010
0010
,  // measure 53
0010
0010
0010
0000
,  // measure 54
0100
0100
0100
0100
,  // measure 55
0010
0000
0100
0000
,  // measure 56
1001
0000
0001
0000
0001
0010
0100
1000
,  // measure 57
0000
0000
0001
0000
1000
0100
0010
0001
,  // measure 58
0001
0000
1000
0010
0100
0001
1000
0001
,  // measure 59
0000
0000
1000
0100
0010
0010
0010
0000
,  // measure 60
0001
0000
0000
0000
;

//---------------dance-single - 17 staircases----------------
#NOTES:
     dance-single:
     :
     Easy:
     10:
     0.340261,0.383196,0.015027,0.015027,0.003757,317.000000,315.000000,2.000000,2.000000,0.000000,0.000000,0.340261,0.383196,0.015027,0.015027,0.003757,317.000000,315.000000,2.000000,2.000000,0.000000,0.000000:
0000
0000
0000
0000
,
0000
0000
0000
0000
,
0001
0010
0100
1000
1000
0010
0100
0001
,
1000
1000
0001
0001
0100
0100
0100
0200
,
0310
0000
1000
0000
0001
0010
0100
1000
,
0000
0000
0010
0000
1000
0100
0010
0001
,
0000
0000
0100
0000
0001
0100
0010
1000
,
0000
0000
0001
0000
1000
0010
0100
0001
,
0001
0010
0100
0100
,
1000
0100
0010
0000
0001
0000
1000
0000
,
0100
0010
0100
0100
,
1000
0001
0100
0000
0010
0000
1000
0000
,
1000
0100
0010
0010
,
0001
0010
0100
0000
1000
0000
0001
0000
,
0010
0100
0010
0010
,
0001
1000
0010
0000
0100
0000
0001
0000
,
1000
0000
1000
0100
1000
0000
1000
0000
,
0001
0000
0001
0100
0001
0000
1000
0000
,
0010
0000
0010
1000
0010
0000
0010
0000
,
0100
0000
0100
0001
0100
0000
0001
0000
,
1000
0100
1000
0000
0001
0100
0001
0000
,
1000
0010
1000
0000
0001
0010
0001
0000
,
1000
0000
1000
0000
0001
0001
0001
0000
,
0000
0000
0000
0000
,
0001
0000
0100
0100
0100
0100
0100
0010
,
1000
0000
0100
0100
0100
0100
0100
0000
,
1000
0100
0010
0010
0010
0010
0010
0100
,
1000
0001
0100
0100
0001
0010
0100
1000
,
0000
1000
0010
0010
1000
0100
0010
0001
,
0000
0000
0001
0000
1000
0000
1000
0000
0010
0000
0010
0000
0100
0000
0001
0001
,
0001
0000
0001
1000
0001
0010
0100
1000
,
0000
1000
0001
0001
0100
0100
0100
0200
,
0310
1000
0100
0000
0010
0001
0100
0000
,
0010
1000
0100
0000
0010
0001
1000
0000
,
0100
1000
0010
0000
0100
0001
0010
0000
,
0100
1000
0010
0000
0100
0000
0100
0000
,
0001
0010
0100
0000
1000
0100
0010
0000
,
0001
0010
0100
0000
1000
0100
0010
0000
,
0001
0100
0010
0000
1000
0010
0100
0000
,
0001
0100
0010
0000
1000
0000
1000
0000
,
0001
0000
0001
0100
0001
1000
0001
0000
,
1000
0000
1000
0100
1000
0001
1000
0000
,
0010
0000
0010
0100
0010
1000
0010
0000
,
0100
0000
0100
0010
0100
0001
0100
0000
,
0001
0100
0001
0000
1000
0100
1000
0000
,
0001
0010
0001
0000
1000
0010
1000
0000
,
0001
0000
0001
0000
1000
1000
1000
0000
,
0000
0000
0000
0000
,
0000
0001
0000
0100
0000
0010
0000
1000
,
0000
0001
0000
0100
0000
0000
0010
0010
,
0000
1000
0000
0100
0000
0010
0000
0001
,
0000
1000
0000
0100
0000
0010
0000
0000
,
0000
0001
0000
0010
0000
0100
0000
1000
,
0000
0001
0000
0010
0000
0000
0100
0100
,
0000
1000
0000
0010
0000
0100
0000
0001
,
0010
0100
1000
0001
,
1001
0000
0001
0001
1000
0100
0010
0001
,
0000
1000
1000
0010
0100
0001
0100
0010
,
0110
0000
1000
0100
0010
0001
1000
0001
,
0000
0001
0100
0010
1000
1000
0001
0001
,
0100
0000
0000
0000
;

//---------------dance-single - 35 staircases----------------
#NOTES:
     dance-single:
     :
     Medium:
     13:
     0.604313,0.903517,0.278005,0.165300,0.582308,563.000000,526.000000,37.000000,22.000000,0.000000,0.000000,0.604313,0.903517,0.278005,0.165300,0.582308,563.000000,526.000000,37.000000,22.000000,0.000000,0.000000:
0000
0000
0000
0000
,
0000
0000
0000
0000
,
1000
0100
0010
0000
0001
0010
0100
0000
1000
0010
0100
0000
0001
0100
0010
0000
,
1000
0000
0000
0001
0000
0000
1000
0000
0000
0001
0000
0000
1000
0000
0000
0100
0000
0000
0010
0000
0000
0001
0000
0000
1001
0000
0000
0000
0000
0000
1001
0000
0000
0000
0000
0000
1001
0000
0000
0000
0000
0000
0001
0000
0010
0000
0100
0000
,
1000
0000
0000
0000
0100
0000
0100
0000
1000
0100
0010
0000
0001
0000
0100
0000
,
0000
0000
0010
1000
0100
0000
0100
0000
1000
0100
0010
0000
0001
0000
0010
0000
,
0000
0000
0010
0001
0100
0000
0100
0000
0001
0100
0010
0000
1000
0000
0100
0000
,
0000
0000
0100
1000
0010
0000
0010
0000
1000
0001
0010
0000
0100
0000
1000
0000
,
1001
0000
0001
0100
2000
3000
2000
3000
,
0100
0010
2000
0000
3020
0000
0230
0000
,
0301
0000
0001
0010
2000
3000
2000
3000
,
0010
0100
2000
0000
3002
0000
0023
0000
,
0130
0000
1000
0100
0002
0003
0002
0003
,
0100
1000
0020
0000
0230
0000
0302
0000
,
1003
0000
1000
0010
0002
0003
0002
0003
,
0010
1000
0001
0000
0001
0000
1001
0000
,
1000
0000
0000
0100
0000
0000
0010
0000
0000
0100
0000
0000
1000
0000
0000
0000
,
1000
0000
0000
0100
0000
0000
0010
0000
0000
0001
0000
0000
0010
0000
0100
1000
,
0001
0000
0000
0100
0000
0000
0010
0000
0000
0100
0000
0000
0001
0000
0000
0000
,
0001
0000
0000
0100
0000
0000
0010
0000
0000
1000
0000
0000
0010
0000
0100
0001
,
1000
0100
1000
0010
0100
0001
0010
0001
,
0100
0010
1000
0100
0010
0001
0100
0010
,
1000
0010
1000
0000
0001
0010
0001
0000
1000
0100
0010
0000
0001
0010
0100
0000
,
2000
0000
0000
0010
0000
0001
0001
3001
,
1001
0000
0100
1001
0001
0010
0100
1000
0001
0010
0100
1000
0001
0010
0001
0000
,
1001
0000
0100
1001
1000
0010
0100
0001
1000
0010
0100
0001
0100
0010
1000
1000
,
1001
0000
0100
1001
0001
0100
0010
1000
0001
0100
0010
1000
0001
0100
0001
0000
,
1001
0000
0000
0000
0000
0000
0100
0000
0000
1001
0000
0000
1000
0000
0000
0100
0000
0000
0010
0000
0000
0001
0000
0000
1000
0000
0100
0000
0010
0000
0100
0000
0010
0000
0001
0000
1000
0000
0100
0000
0010
0000
0001
0000
0000
0000
0000
0000
,
0011
0000
0000
0000
0000
0000
0000
0000
0000
0000
0000
0000
1000
0000
0000
0000
0000
0000
0011
0000
0000
0000
0000
0000
0001
0000
0000
0000
0000
0000
0100
0000
0000
0010
0000
0000
0000
0000
0000
0000
0000
0000
1000
0000
0000
0000
0000
0000
0001
0000
0000
0000
0010
0000
0000
0000
0100
0000
0000
0000
0010
0000
0000
0000
0001
0000
0000
0000
1000
0000
0000
0000
0001
0000
0000
0000
0010
0000
0000
0000
0100
0000
0000
0000
1000
0000
0000
0000
0000
0000
0000
0000
0000
0000
0000
0000
,
1010
0000
0000
0000
0001
0000
1010
0000
1000
0000
0010
0000
0100
0000
0001
0000
1000
0000
0010
0100
0000
0000
0010
0000
1000
0000
0010
0000
0100
0000
0100
0000
,
0101
0000
0000
0000
1000
0000
0101
0000
0001
0000
0010
0100
0000
0000
0010
0000
0001
0000
0010
0000
0100
0000
1000
0000
0100
0000
0010
0000
0100
0000
0000
0000
,
1100
0000
0000
0000
0001
0000
1100
0000
1000
0000
0010
0100
0000
0000
0010
0000
1010
0000
0000
0000
0011
0000
0000
0000
0101
0000
0000
0000
2100
0000
0000
0000
,
3001
0100
0001
0000
0010
0000
0000
0000
0001
0100
0001
0000
0010
0000
0000
0000
,
0001
0100
0001
0000
0010
0000
0000
0000
0001
0100
0001
0000
0010
0000
0100
0000
,
1000
0100
1000
0000
0010
0000
0000
0000
1000
0100
1000
0000
0010
0000
0000
0000
,
1000
0100
1000
0000
0010
0000
0000
0000
1000
0100
0010
0000
0001
0000
0000
0000
,
0001
0010
0001
0000
0100
0000
0000
0000
0001
0010
0001
0000
0100
0000
0000
0000
,
0001
0010
0001
0000
0100
0000
0000
0000
0001
0010
0001
0000
0100
0000
0010
0000
,
1000
0010
1000
0000
0100
0000
0000
0000
1000
0010
1000
0000
0100
0000
0000
0000
,
1000
0010
1000
0000
0100
0000
0000
0000
1000
0010
0100
0000
1001
0000
0000
0000
,
0001
0000
0000
0010
0000
0000
0100
0000
0000
1000
0000
0100
0010
0000
0100
0000
,
1000
0000
0000
0010
0000
0000
0100
0000
0000
0001
0000
0100
0010
0000
0100
0001
,
1000
0000
0000
0100
0000
0000
0010
0000
0000
0001
0000
0010
0100
0000
0010
0000
,
0001
0000
0000
0100
0000
0000
0010
0000
0000
1000
0000
0010
0100
0000
0001
1000
,
0100
1000
0010
1000
0100
1000
0010
0100
,
0001
0010
0001
0100
0001
0010
0100
1000
,
0001
0100
0001
0000
1000
0100
1000
0000
0001
0010
0100
0000
1000
0100
0010
0000
,
0002
0000
0000
0010
0000
1000
1000
1003
,
0001
0010
0100
1000
0001
0010
0100
1000
,
0001
0010
0100
1000
0001
0010
0100
0100
,
1000
0010
0100
0001
1000
0010
0100
0001
,
1000
0010
0100
0001
1000
0010
0000
0000
,
1000
0100
0010
0001
1000
0100
0010
0001
,
1000
0100
0010
0001
1000
0100
0010
0010
,
0001
0100
0010
1000
0001
0100
0010
1000
,
0001
0100
0001
1000
0100
1000
0001
0010
0100
1000
0000
0000
,
1001
0000
0000
0000
0000
0000
0000
0000
0000
0000
0000
0000
0010
0000
0000
0000
0000
0000
0000
0000
0000
0000
0000
0000
1001
0000
0000
0000
0000
0000
0001
0000
0000
0010
0000
0000
0000
0000
0000
0000
0000
0000
0100
0000
0000
0000
0000
0000
1000
0000
0000
0000
0100
0000
0000
0000
0010
0000
0000
0000
0100
0000
0000
0000
1000
0000
0000
0000
0001
0000
0000
0000
1000
0000
0000
0000
0100
0000
0000
0000
0010
0000
0000
0000
0001
0000
0000
0000
0000
0000
0000
0000
0000
0000
0000
0000
,
1001
0000
0000
0000
0100
0000
1001
0000
0001
0000
0010
0000
0100
0000
1000
0000
0001
0000
0010
0100
0000
0000
0010
0000
0001
0000
1000
0000
2100
0000
0000
0000
,
3010
0000
1000
0101
0001
0010
0100
1000
0001
0010
0100
1000
0001
0010
0001
0000
,
1100
0000
0000
0000
0000
0000
0001
0000
0000
1100
0000
0000
1000
0000
0000
0010
0000
0000
0100
0000
0000
0001
0000
0000
0101
0000
0000
0000
0000
0000
0011
0000
0000
0000
0000
0000
1010
0000
0000
0000
0000
0000
1000
0000
0100
0000
0010
0000
,
0002
0003
0000
0000
0000
0000
0000
0000
;

//---------------dance-single - 66 staircases----------------
#NOTES:
     dance-single:
     :
     Hard:
     16:
     0.788934,1.218903,0.187841,0.300546,1.303619,735.000000,710.000000,25.000000,40.000000,21.000000,0.000000,0.788934,1.218903,0.187841,0.300546,1.303619,735.000000,710.000000,25.000000,40.000000,21.000000,0.000000:
0000
0000
0000
0000
0000
0000
0000
0000
0000
0000
0000
0000
0000
0000
0000
0000
0000
0000
000M
00M0
0M00
0000
M000
0000
0000
0000
000M
0M00
00M0
0000
M000
0000
,
0000
0000
0000
0000
0000
0000
0000
0000
0000
0000
0000
0000
0000
0000
0000
0000
0000
0000
M000
0M00
00M0
0000
000M
0000
0000
0000
M000
00M0
0M00
000M
0000
0000
,
1000
0000
0100
0000
1000
0100
0010
0000
0001
0100
0010
0100
0001
0000
1000
0000
0001
0000
0010
0000
0001
0010
0100
0000
1000
0010
0100
0010
1000
0001
1000
0000
,
0100
0000
0000
0010
0000
0000
0001
0000
0000
0010
0000
0000
0100
0000
0000
0010
0000
0000
0001
0000
0000
0010
0000
0000
0100
0000
0000
1000
0000
0000
0001
0000
0000
1000
0000
0000
0100
0000
0000
1000
0000
0000
0001
0000
0000
1000
0000
0000
0100
0000
0000
0000
0000
0000
0010
0000
0000
0001
0000
0000
0100
0000
0000
0000
0000
0000
0010
0000
0000
1000
0000
0000
0100
0000
0000
0000
0000
0000
0010
0000
0000
0000
0000
0000
0001
0000
0000
0000
0010
0000
0000
0000
0100
0000
0000
0000
,
1000
0000
0000
0000
0000
0000
0010
0100
0001
0000
0000
0000
2000
0000
0000
0000
0010
0000
0000
0000
0000
0000
0000
0000
0010
0000
0000
0000
0000
0000
0000
0000
3001
0000
0000
0000
0010
0000
0000
0000
0100
0000
0000
0000
0000
0000
0000
0000
1000
0000
0000
0000
0000
0000
0000
0000
0001
0000
0000
0000
0000
0000
0000
0000
,
0000
0000
0000
0000
0000
0000
0010
0100
1000
0000
0000
0000
0002
0000
0000
0000
0010
0000
0000
0000
0000
0000
0000
0000
0010
0000
0000
0000
0000
0000
0000
0000
1003
0000
0000
0000
0010
0000
0000
0000
0100
0000
0000
0000
0000
0000
0000
0000
0001
0000
0000
0000
0000
0000
0000
0000
1000
0000
0000
0000
0000
0000
0000
0000
,
0000
0000
0000
0000
0000
0000
0100
0010
0001
0000
0000
0000
0200
0000
0000
0000
0010
0000
0000
0000
0000
0000
0000
0000
0310
0000
0000
0000
0000
0000
0000
0000
0001
0000
0000
0000
0010
0000
0000
0000
0100
0000
0000
0000
0000
0000
0000
0000
1000
0000
0000
0000
0000
0000
0000
0000
0001
0000
0000
0000
0000
0000
0000
0000
,
0000
0000
0000
0000
0000
0000
0100
0010
1000
0000
0000
0000
0200
0000
0000
0000
0010
0000
0000
0000
0000
0000
0000
0000
0010
0000
0000
0000
0000
0000
0000
0000
1300
0000
0000
0000
0010
0000
0000
0000
0100
0000
0000
0000
0000
0000
0000
0000
0001
0000
0000
0000
0000
0000
0000
0000
1000
0000
0000
0000
0000
0000
0000
0000
,
0000
0000
0002
0203
2300
3000
2000
0000
,
3200
0320
0032
0000
0023
0000
2030
0000
,
3000
0000
2000
3200
0302
0003
0002
0000
,
0203
0320
2030
0000
3020
0000
0032
0000
,
0003
0000
2000
3020
0032
0003
0002
0000
,
0023
0230
2300
0000
3200
0000
0302
0000
,
0003
0000
0002
0023
2030
3000
2000
0000
,
3010
0001
0010
0000
0100
0000
1000
0000
,
1010
0000
0000
0010
1000
0000
0010
0000
1000
0010
0000
0000
1010
0000
0000
0000
,
0101
0000
0000
0100
0001
0000
0100
0000
0001
0100
0000
0000
0001
0000
0010
0100
,
1000
0000
0000
0100
1000
0000
0100
0000
1000
0100
0000
0000
1100
0000
0000
0000
,
0011
0000
0000
0010
0001
0000
0010
0000
0001
0010
0000
0000
0001
0000
0100
0010
,
1000
0000
0010
1000
0100
0000
0010
0000
0100
0000
0010
0001
0100
0000
0010
0000
,
0100
0000
0010
1000
0100
0000
0010
0000
0100
0000
0010
0001
0100
0000
0010
0000
,
1000
0100
1000
0100
0010
0001
0010
0001
0100
0001
0100
0001
1000
0010
1000
0010
,
0100
0000
0000
0000
0000
0000
0000
0000
0000
0000
0000
0000
0000
0000
0000
0000
0000
0000
0000
0000
0000
0000
0000
0000
0000
0000
0000
0000
0002
0000
0010
0000
0000
0000
0000
0000
0010
0000
0000
0000
0000
0000
0013
0000
0000
0100
0000
0000
,
1000
0000
0000
0000
1001
0000
1000
0000
0001
0100
0010
1000
0001
0010
0100
1000
0001
0100
0010
1000
0001
0010
0100
1000
0001
0100
0010
1000
0010
0000
0000
0000
,
1000
0000
0000
0000
0000
0000
0000
0000
0000
0000
0000
0000
0000
0000
0000
0000
0000
0000
0000
0000
0000
0000
0000
0000
1001
0000
0000
0000
0000
0000
0000
0000
0000
0000
0000
0000
1000
0000
0000
0000
0000
0000
0000
0000
0000
0000
0000
0000
0001
0000
0000
0000
0000
0000
0010
0000
0000
0000
0000
0000
0100
0000
0000
0000
0000
0000
1000
0000
0000
0000
0000
0000
0001
0000
0000
0000
0000
0000
0100
0000
0000
0000
0000
0000
0010
0000
0000
0000
0000
0000
1000
0000
0000
0000
0000
0000
0001
0000
0000
0000
0000
0000
0010
0000
0000
0000
0000
0000
0100
0000
0000
0000
0000
0000
1000
0000
0000
0000
0000
0000
0001
0000
0000
0000
0000
0000
0100
0000
0000
0000
0000
0000
0010
0000
0000
0000
0000
0000
1000
0000
0000
0000
0000
0000
0001
0000
0000
0000
0010
0000
0000
0000
0100
0000
0000
0000
1000
0000
0000
0000
0000
0000
0000
0000
0000
0000
0000
0000
0100
0000
0000
00M0
0000
0000
0100
0000
0000
0000
0000
0000
0001
0000
0000
0000
0000
0000
0000
0000
0000
0000
0000
0000
,
0001
0000
0000
0000
1001
0000
0001
0000
1000
0100
0010
0001
1000
0010
0100
0001
1000
0100
0010
0001
1000
0010
0100
0001
1000
0100
0010
0001
0010
0000
0000
0000
,
0001
0000
0000
0000
0000
0000
0000
0000
0000
0000
0000
0000
1001
0000
0000
0000
0000
0000
0001
0000
0000
0000
0000
0000
1000
0000
0000
0010
0000
0000
0100
0000
0000
0001
0000
0000
1000
0000
0000
0100
0000
0000
0010
0000
0000
0001
0000
0000
1000
0000
0000
0000
0010
0000
0000
0000
0100
0000
0000
0000
0001
0000
0000
0000
0100
0000
0000
0000
0010
0000
0000
0000
1000
0000
0000
0000
0100
0000
0000
0000
0010
0000
0000
0000
0001
0000
0000
0000
0000
0000
0000
0000
0000
0000
0000
0000
,
0001
0000
0000
0000
0000
0000
0000
0000
0000
0000
0000
0000
1001
0000
0000
0000
0000
0000
0001
0000
0000
0000
0000
0000
0010
0000
0000
0000
0000
0000
0100
0000
0000
1000
0000
0000
0000
0000
0000
0000
0000
0000
0001
0000
0000
0000
0000
0000
0100
0000
0000
0000
0010
0000
0000
0000
1000
0000
0000
0000
0001
0000
0000
0000
0010
0000
0000
0000
0100
0000
0000
0000
1000
0000
0000
0000
0001
0000
0000
0000
0100
0000
0000
0000
0010
0000
0000
0000
0000
0000
0000
0000
0000
0000
0000
0000
,
1000
0000
0000
0000
0000
0000
0000
0000
1001
0000
0000
0000
1000
0000
0000
0000
0001
0000
0010
0000
0100
0000
1000
0000
0001
0000
0010
0000
0100
0000
1000
0000
0001
0000
0000
0000
0001
0000
0010
0000
0M00
0000
0000
0000
0010
0000
0000
0000
1000
0000
0010
0000
0100
0000
0001
0000
0100
00M0
0100
0000
1000
0000
0000
0000
,
1001
0000
0000
0000
1001
0000
1000
0000
0010
0000
0100
0001
0000
0000
0001
0000
1000
0100
0010
0001
1000
0010
0100
0001
1000
0100
0010
0001
0010
0000
0000
0000
,
0001
0000
0000
0000
0000
0000
0000
0000
0000
0000
0000
0000
1001
0000
0000
0000
0000
0000
0001
0000
0000
0000
0000
0000
0010
0000
0000
0000
0000
0000
0100
0000
0000
1000
0000
0000
0000
0000
0000
0000
0000
0000
1000
0000
0000
0000
0000
0000
1010
0000
0000
0000
0000
0000
0000
0000
0000
0000
0000
0000
0011
0000
0000
0000
0000
0000
0000
0000
0000
0000
0000
0000
0101
0000
0000
0000
0000
0000
0000
0000
0000
0000
0000
0000
1000
0000
0000
0100
0000
0000
1000
0000
0100
0000
0010
0000
,
0001
0000
0000
0010
0001
0000
1000
0000
0100
0000
0000
0010
0001
0000
1000
0000
,
0100
0000
0000
0010
0001
0000
1000
0000
0100
0000
0000
0010
0001
0000
1000
0000
,
0010
0000
0000
0100
0001
0000
1000
0000
0010
0000
0000
0100
0001
0000
1000
0000
,
0010
0000
0000
0100
0001
0000
1000
0000
0010
0000
0000
0100
0001
0000
0001
0000
,
0010
0000
0000
0100
1000
0000
0001
0000
0010
0000
0000
0100
1000
0000
0001
0000
,
0010
0000
0000
0100
1000
0000
0001
0000
0010
0000
0000
0100
1000
0000
0001
0000
,
0100
0000
0000
0010
1000
0000
0001
0000
0100
0000
0000
0010
1000
0000
0001
0000
,
0100
0000
0000
0010
1000
0000
0001
0000
0100
0000
0000
0010
1000
0000
1000
0000
,
1010
0000
0000
1000
0010
0000
1000
0000
0010
1000
0000
1000
0010
0000
1000
0000
,
1100
0000
0000
0100
1000
0000
0100
0000
1000
0100
0000
0100
1000
0000
0100
0010
,
0001
0000
0000
0001
0010
0000
0001
0000
0010
0001
0000
0001
0010
0000
0001
0000
,
0101
0000
0000
0100
0001
0000
0100
0000
0001
0100
0000
0100
0001
0000
0100
0010
,
1000
0000
0010
1000
0100
0000
0010
0000
0100
0000
0010
0001
0100
0000
0010
0000
,
0100
0000
0010
1000
0100
0000
0010
0000
0100
0000
0010
0001
0100
0000
0010
0000
,
0100
0001
0100
0001
1000
0010
1000
0010
1000
0100
1000
0100
0010
0001
0010
0001
,
0100
0000
0000
0000
0000
0000
0000
0000
0000
0000
0000
0000
0000
0000
0000
0000
0000
0000
0000
0000
0000
0000
0000
0000
0000
0000
0000
0000
0002
0000
0010
0000
0000
0000
0000
0000
0010
0000
0000
0000
0000
0000
0013
0000
0000
0100
0000
0000
,
1000
0100
0010
0001
1000
0100
0010
0001
1000
0100
0010
0001
1000
0100
0010
0001
,
1000
0100
0010
0001
1000
0100
0010
0001
1000
0100
0010
0001
1000
0000
1000
0000
,
0001
0100
0010
1000
0001
0100
0010
1000
0001
0100
0010
1000
0001
0100
0010
1000
,
0001
0100
0010
1000
0001
0100
0010
1000
0001
0100
0010
1000
0000
0000
0000
0000
,
0001
0010
0100
1000
0001
0010
0100
1000
0001
0010
0100
1000
0001
0010
0100
1000
,
0001
0010
0100
1000
0001
0010
0100
1000
0001
0010
0100
1000
0001
0000
0001
0000
,
1000
0010
0100
0001
1000
0010
0100
0001
1000
0010
0100
0001
1000
0010
0100
0001
,
1000
0100
0010
0001
0010
0100
1000
0010
0100
0001
0000
0000
,
0041
0000
0000
0000
0000
0000
0M00
0000
0000
0000
0000
0000
2030
0000
0000
0000
0000
0000
0000
0000
0000
0000
0000
0000
3100
0000
0000
0000
0000
0000
0010
0000
0000
0001
0000
0000
0000
0000
0000
0000
0000
0000
0001
0000
0000
0000
0000
0000
0010
0000
0000
0000
0001
0000
0000
0000
1000
0000
0000
0000
0100
0000
0000
0000
0010
0000
0000
0000
0001
0000
0000
0000
1000
0000
0000
0000
0100
0000
0000
0000
0010
0000
0000
0000
0001
0000
0000
0000
0000
0000
0000
0000
0000
0000
0000
0000
,
1000
0000
0000
0000
1001
0000
1000
0000
0001
0100
0010
1000
0001
0100
0010
1000
0010
0000
1000
0010
0000
0000
0010
0000
1000
0010
0100
0001
1000
0000
0000
0000
,
0200
0000
0000
03M0
0100
0000
0001
0000
1000
0100
0010
0001
1000
0100
0010
0001
1000
0100
0010
0001
1000
0100
0010
0001
1000
0100
0010
0001
0010
0000
0000
0000
,
0001
0000
0000
0000
0000
0000
0000
0000
0000
0000
0000
0000
1001
0000
0000
0000
0000
0000
0001
0000
0000
0000
0000
0000
1000
0000
0000
0010
0000
0000
0100
0000
0000
0001
0000
0000
1000
0000
0000
0010
0000
0000
0100
0000
0000
0001
0000
0000
1000
0000
0000
0000
0000
0000
0000
0000
0000
0000
0000
0000
0011
0000
0000
0000
0000
0000
0000
0000
0000
0000
0000
0000
0101
0000
0000
0000
0000
0000
0000
0000
0000
0000
0000
0000
0001
0000
0000
0000
0010
0000
0000
0000
0100
0000
0000
0000
,
2000
3000
0000
0000
0000
0000
0000
0000
0000
0000
0000
0000
;
