#TITLE:CaptivAte~裁き~(SUBLIME TECHNO MIX);
#SUBTITLE:;
#ARTIST:Remixed by DJ YOSHITAKA;
#TITLETRANSLIT:;
#SUBTITLETRANSLIT:;
#ARTISTTRANSLIT:;
#GENRE:;
#CREDIT:;
#MUSIC:CaptivAte~sabaki~(SUBLIME TECHNO MIX).ogg;
#BANNER:CaptivAte~sabaki~(SUBLIME TECHNO MIX).png;
#BACKGROUND:CaptivAte~sabaki~(SUBLIME TECHNO MIX)-bg.png;
#CDTITLE:;
#SAMPLESTART:83.745;
#SAMPLELENGTH:25.125;
#SELECTABLE:YES;
#OFFSET:1.569;
#BPMS:0.000=180.000;
#STOPS:156.000=0.667
,254.000=0.667
;
#BGCHANGES:;
#FGCHANGES:;

//--------------- dance-single - P1989 ----------------
#NOTES:
     dance-single:
     P1989:
     Beginner:
     4:
     0,0,0,0,0:
0000
0000
0000
0000
,
0000
0000
0000
0000
,
0000
0000
0000
0000
,
0000
0000
0000
0000
,
0000
0000
0000
0000
,
0000
0000
0000
0000
,
0000
0000
0000
0000
,
0000
0000
0000
0000
,
0000
0000
0000
0000
,
0001
0000
0000
0000
,
0001
0000
0000
0000
,
1000
0000
0000
0000
,
1000
0000
0000
0000
,
0020
0000
0000
0000
,
0030
0000
0000
0000
,
1001
0000
0000
0000
,
0000
0000
0000
0000
,
0000
0000
0000
0000
,
0000
0000
0000
0000
,
1000
0000
0000
0000
,
0000
0000
0000
0000
,
0001
0000
0000
0000
,
0000
0000
0000
0000
,
1001
0000
0000
0000
,
0000
0000
0000
0000
,
1000
0000
0010
0000
,
1000
0000
0001
0000
,
0100
0000
0000
0000
,
0000
0000
0000
0000
,
0001
0000
0001
0000
,
0001
0000
0000
0000
,
1001
0000
0000
0000
,
1000
0000
0000
0000
,
0100
0000
0000
0000
,
0010
0000
0010
0000
,
0001
0000
0000
0000
,
0100
0000
0000
0000
,
0010
0000
0010
0000
,
1000
0000
0001
0000
,
1001
0000
0110
0000
,
0000
0000
1000
0000
,
0000
0000
0001
0000
,
0010
0000
0001
0000
,
1000
0000
0100
0000
,
0000
0000
1000
0000
,
0000
0000
0001
0000
,
0000
0000
0100
0000
,
0000
0000
0110
0000
,
0000
0000
0001
0000
,
0000
0000
1000
0000
,
0010
0000
1000
0000
,
0001
0000
0100
0000
,
0000
0000
0010
0000
,
0000
0000
1000
0000
,
1000
0000
1000
0000
,
0001
0000
1001
0000
,
0000
0000
0000
0000
,
0000
0000
1000
0000
,
0000
0000
0000
0000
,
0000
0000
0100
0000
,
0000
0000
0000
0000
,
0000
0000
0010
0000
,
0000
0000
0110
0000
,
0000
0000
1001
0000
,
1000
0000
1000
0000
,
1000
0000
0000
0000
,
0001
0000
0001
0000
,
0001
0000
0000
0000
,
0100
0000
0010
0000
,
0100
0000
0000
0000
,
0100
0000
0010
0000
,
0100
0000
0000
0000
,
0001
0000
0001
0000
,
0001
0000
0000
0000
,
1000
0000
1000
0000
,
1000
0000
0000
0000
,
0100
0000
0010
0000
,
0100
0000
0000
0000
,
0010
0000
0100
0000
,
0010
0000
0000
0000
,
2002
0000
0000
0000
,
0000
0000
3003
0000
,
0001
0000
0000
0001
,
0000
0000
0001
0000
,
1000
0000
0000
1000
,
0000
0000
1000
0000
,
0010
0000
0000
0010
,
0000
0000
0010
0000
,
0100
0000
0000
0100
0000
0000
0100
0000
,
0000
0100
0000
0000
0100
0000
0000
0000
,
0001
0000
0000
0001
0000
0000
0001
0000
,
0000
0001
0000
0000
0001
0000
0000
0000
,
1000
0000
0000
1000
0000
0000
1000
0000
,
0000
1000
0000
0000
1000
0000
0000
0000
,
0010
0000
0000
0010
0000
0000
0010
0000
,
0000
0010
0000
0000
0100
0000
0000
0000
,
2002
0000
0000
0000
,
0000
0000
0000
3003
;

//--------------- dance-single - P1989 ----------------
#NOTES:
     dance-single:
     P1989:
     Easy:
     8:
     0,0,0,0,0:
0000
0000
0000
0000
,
0000
0000
0000
0000
,
0000
0000
0000
0000
,
0000
0000
0000
0000
,
0000
0000
0000
0000
,
0000
0000
0000
0000
,
0000
0000
0000
0000
,
0000
0000
0000
0000
,
0000
0000
0000
0000
,
0001
0000
0000
0001
0000
0000
1000
0000
,
0000
1000
0000
0000
1001
0000
1001
0000
,
0100
0000
0000
0100
0000
0000
0010
0000
,
0000
0010
0000
0000
0110
0000
0110
0000
,
0200
0000
0000
0000
,
0300
0000
0000
0000
,
1001
0000
0000
0000
,
0001
0000
0010
0000
,
0001
0000
1000
0000
,
0010
0100
0010
0100
,
0001
0000
0000
0000
,
1000
0000
0100
0000
,
0010
0000
0001
0000
,
1000
0010
1000
0001
,
1000
0000
0100
0010
,
0001
0010
0100
0000
,
1100
0000
1001
0000
,
1010
0000
1001
0000
,
0110
0000
0001
1000
,
0010
0100
0001
0000
,
0010
0100
0010
0100
,
1000
0001
1000
0000
,
0010
0100
0001
0000
,
0100
0010
1000
0000
,
0001
0010
0100
1000
,
0100
0010
0001
0000
,
1001
0000
1000
0010
,
1001
0000
0001
0010
,
0110
0000
1001
0000
,
1000
0000
0001
0000
1000
0001
1000
0000
,
0200
0300
0000
0000
0000
0000
0000
0000
0110
0000
0000
0000
0000
0000
0000
0000
,
0020
0000
0032
0000
,
2003
0000
3020
0000
,
0230
0000
0302
0000
,
1003
0000
1001
0001
,
0010
0100
0000
1000
,
0100
0010
0001
0001
,
0100
0100
0010
1000
,
0010
1000
1001
0000
,
0002
0000
0023
0000
,
0230
0000
2300
0000
,
3020
0000
0230
0000
,
0301
1000
1001
0000
,
0100
0010
0110
0000
,
0001
1000
0010
0010
,
0100
0100
0001
1000
,
0001
1000
0001
0000
0020
0000
0000
0000
,
0030
0000
0100
0000
,
1000
0000
0001
0100
,
0002
0000
0000
0003
,
1000
0010
1000
0000
,
0001
0000
0010
0000
,
0100
0000
1000
0001
,
1000
0000
0000
0000
0010
0000
0000
0010
,
0000
0010
1001
0000
,
1000
0100
0010
0100
,
1000
0001
0100
0001
,
0010
0100
1000
0001
,
0100
0010
1000
0000
,
1001
0001
0010
0100
,
1000
0010
1000
0100
,
0010
0001
1000
0010
,
0100
0001
0001
0001
,
1001
0000
1000
0100
,
1000
0001
0100
0001
,
1000
0100
0010
0001
,
0000
1001
0000
0000
0100
0000
0000
0000
,
0110
0010
1000
0000
,
0110
0010
0001
0000
,
1001
0000
0110
0000
,
0001
0000
1000
0000
0001
1000
0001
0000
,
0100
0000
0000
0100
0000
0000
0100
0000
,
0000
0100
0000
0000
0100
0000
0100
0000
,
0010
0000
0000
0010
0000
0000
0010
0000
,
0000
0010
0000
0000
0010
0000
0010
0000
,
1000
0000
0000
1000
0000
0000
1000
0000
,
0000
1000
0000
0000
1000
0000
1000
0000
,
0001
0000
0000
0001
0000
0000
0001
0000
,
0000
0001
0000
0000
0001
0000
1000
0000
,
0010
0000
0000
0110
0000
0000
0010
0000
,
0000
0110
0000
0000
0100
0000
0001
0000
,
0010
0000
0000
0110
0000
0000
0010
0000
,
0000
0110
0000
0000
0100
0000
1000
0000
,
0001
0000
0000
1001
0000
0000
1000
0000
,
0000
1001
0000
0000
0100
0000
0010
0000
,
1000
0000
0000
1001
0000
0000
0001
0000
,
0000
1001
0000
0000
0010
0000
0100
0000
,
0220
0000
0000
0000
,
0000
0000
0000
0330
;

//--------------- dance-single - P1989 ----------------
#NOTES:
     dance-single:
     P1989:
     Medium:
     13:
     0,0,0,0,0:
0000
0000
0000
0000
,
0000
0000
0000
0000
,
0000
0000
0000
0000
,
0000
0000
0000
0000
,
0000
0000
0000
0000
,
0000
0000
0000
0000
,
0000
0000
0000
0000
,
0000
0000
0000
0000
,
0000
0000
0000
0000
,
1000
0010
0000
0100
0010
0000
0001
0010
,
0000
0100
0010
0000
0110
0000
1001
0000
,
0001
0010
0000
0100
0010
0000
1000
0010
,
0000
0100
0010
0000
1001
0000
0110
0000
,
0200
0000
0000
0000
,
0300
0000
0000
0000
,
1001
0000
0001
0000
0010
0100
0000
0100
,
0000
1000
0000
0000
0100
0000
0010
0000
,
0001
0000
0000
0001
0000
0000
0100
0000
,
0000
0010
0000
0000
1000
0000
0001
0000
,
0010
0000
0100
0000
1000
0010
0000
0010
,
0000
0100
0000
0000
0001
0000
1000
0000
,
0100
0000
0000
0010
0000
0000
0001
0000
,
1000
0000
0010
0100
0001
0100
0010
0100
,
0001
0000
1000
0010
0100
0000
0010
0000
,
1000
0001
0010
0100
,
1010
0000
0000
0000
0010
0000
0000
0000
0100
0001
0000
0000
0001
0000
0000
0000
,
0001
0010
0000
0000
0010
0000
0000
0000
0100
0000
0100
0000
0000
0000
0000
0000
,
1001
0000
1000
0010
0000
0100
0010
1000
,
0000
0001
0010
0000
0100
0010
0001
0000
,
0001
0100
0001
0100
0010
1000
0010
0000
,
1000
0001
0010
0100
0010
0100
0010
0000
,
0021
0100
0001
0130
,
1200
0010
1000
0310
,
0012
0000
0000
0000
1000
0000
0000
0000
0103
0001
0000
0000
0100
0000
0000
0000
,
0010
1000
0000
0000
0010
0000
0000
0000
0100
0000
0100
0000
0000
0000
0000
0000
,
1001
0000
1000
0100
0010
0001
0100
0000
,
1001
0000
0001
0100
0010
1000
0100
0000
,
0010
0001
0010
0001
0100
0001
0100
0001
,
1000
0010
1000
0001
0010
0100
0010
0100
,
2002
3003
0000
0000
0000
0000
0000
0000
0110
0000
0000
0000
0001
0000
0000
0000
,
2000
0010
3002
0100
,
2003
0000
0000
0000
0100
0000
0000
0000
3001
0010
0000
0000
0001
0000
0000
0000
,
1000
0010
0000
0000
1000
0000
0000
0000
0001
0100
0000
0000
0001
0000
0000
0000
,
0010
0010
0000
0000
0110
0000
0100
1000
,
0000
0001
0000
0010
0000
0001
1000
0001
,
0000
0000
0100
0000
0010
0000
0000
0000
1000
0000
0000
1000
0000
0000
1000
0000
,
0100
0000
0000
0100
0000
0000
0100
0000
0010
0000
0000
0010
0000
0000
0010
0000
,
0001
0000
0000
0001
0000
0000
0100
0000
1001
0000
0000
0000
0000
0000
0000
0000
,
0002
0010
2003
0010
,
3002
0000
0000
0000
0100
0000
0000
0000
1003
0100
0000
0000
0010
0000
0000
0000
,
0001
0100
0000
0000
0010
0000
0000
0000
1000
0001
0000
0000
0010
0000
0000
0000
,
0100
0010
0100
0010
1001
0000
1000
0001
,
0100
0010
1000
0000
1001
0000
0001
1000
,
0100
0010
0001
0000
0100
0001
0100
0001
,
1000
0100
1000
0100
0010
0001
0100
0001
,
0010
0100
0010
0100
2000
0000
0000
0000
,
3000
0000
0010
0000
0200
0000
0000
0302
,
0000
0000
0023
0000
0230
0000
0000
1300
,
0002
0000
0000
0003
,
0101
0000
0100
0010
2000
0000
0000
0000
,
3000
0000
0001
0000
0020
0000
0000
0230
,
0000
0000
2300
0000
3020
0000
0000
0230
,
0000
0000
0301
0000
1001
0000
0000
1001
,
0000
1001
0110
0000
,
1000
0100
0010
0100
1000
0001
0011
0000
,
0001
0100
0010
0100
0001
1000
1010
0000
,
0010
0100
0001
0010
0100
1000
1100
0000
,
0010
0100
1000
0001
0100
0100
0000
0000
,
1001
0000
0001
0100
1000
0100
0001
1000
,
0010
0000
1000
0100
0001
0100
1000
0001
,
0010
0000
0100
0001
0100
1000
0001
0010
,
0001
0000
0000
0100
0000
0000
0010
0000
1000
0000
1000
0000
0001
0000
0001
0000
,
1000
0010
0100
1000
0100
0001
1001
0000
,
0001
0010
0100
0001
0100
1000
1001
0000
,
1000
0100
0010
1000
0010
0001
1001
0000
,
0100
0110
0000
0000
0010
1001
0000
0000
,
0110
0000
0001
0010
0100
1000
0010
0100
,
1100
0000
0100
0001
0010
0100
0001
0100
,
0101
0000
0001
0100
1100
0000
1000
0010
,
1010
0000
0000
0000
0011
0000
0000
0000
1000
0000
0001
1000
0001
0000
1000
0001
,
2000
0000
0000
0100
0000
0000
0001
0000
,
0000
0010
0000
0000
0001
0000
3100
0000
,
1100
0000
0000
0101
0000
0000
0011
0000
,
0000
1010
0000
0000
1001
0000
0110
0000
,
1000
0000
1000
1100
0000
0100
0110
0000
,
0010
0011
0000
0001
1001
0000
0110
0000
,
1001
0000
0001
0101
0000
0100
0110
0000
,
0010
1010
0000
1000
1001
0000
0110
0000
,
1000
0100
0001
1000
0010
0001
1000
0100
,
0001
1000
0010
0001
1000
0100
0001
0100
,
1000
0010
0001
1000
0100
0001
1000
0010
,
0001
1000
0100
0001
1000
0010
0001
0010
,
0100
0001
0010
0100
0001
0100
0010
0001
,
1000
0010
0100
1000
0100
0010
1000
0000
,
0001
0000
0010
0001
0010
0000
0100
0010
0100
0000
1000
0100
1000
0000
0001
1000
,
0001
0000
0010
0000
0001
0000
0100
0000
0001
1000
0001
1000
0001
1000
0001
1000
,
0200
0000
0000
0000
,
0000
0000
0000
0300
;

//--------------- dance-single - P1989 ----------------
#NOTES:
     dance-single:
     P1989:
     Hard:
     16:
     0,0,0,0,0:
0000
0000
0000
0000
,
0000
0000
0000
0000
,
0000
0000
0000
0000
,
0000
0000
0000
0000
,
0000
0000
0000
0000
,
0000
0000
0000
0000
,
0000
0000
0000
0000
,
0000
0000
0000
0000
,
0000
0000
0000
0000
,
1000
0001
1000
0000
0000
0000
0001
1000
0001
0000
0000
0000
1000
0001
1000
0000
,
0000
0000
0001
1000
0001
0000
0000
0000
0110
0000
0000
0000
1001
0000
0000
0000
,
1000
0100
1000
0000
0000
0000
0001
0010
0001
0000
0000
0000
1000
0010
1000
0000
,
0000
0000
0001
0100
0001
0000
0000
0000
0110
0000
0000
0000
1001
0000
0000
0000
,
0020
0000
0000
0000
,
0030
0000
0000
0000
,
1001
0000
0001
0000
1000
0010
0000
0100
,
0000
0100
0010
0000
1000
0000
0001
0000
,
0010
0000
0010
0100
0000
0100
1000
0000
,
1000
0001
0000
0001
0100
0010
0100
0000
,
0010
0000
0010
0000
1000
0001
0000
0001
,
0000
0001
0010
0000
0100
1000
0100
0010
,
0001
0000
0001
0100
0000
0001
0010
0000
,
0100
0000
1000
0000
0001
0000
1000
0000
0010
1000
0010
1000
0010
0100
0010
0100
,
0001
0000
0100
0010
0000
1000
0010
0100
,
0000
0001
0010
0000
0100
1000
0001
0000
,
2010
0000
0000
0000
3100
0000
0000
0000
0002
1000
0000
0000
0013
0000
0000
0000
,
2000
0001
0000
0000
3010
0000
0000
0000
0100
0000
0100
0000
0000
0000
0010
0000
,
1001
0000
1000
0100
0010
0001
0010
0100
,
0000
1000
0001
0100
0001
1000
0010
0000
,
0100
0001
1000
0001
0010
0001
1000
0001
,
0100
0000
0000
0000
0010
0100
0010
0100
0001
0100
0001
0100
0010
1000
0001
1000
,
0020
0000
0130
0001
0010
0100
1000
0001
,
0200
0000
0310
1000
0100
0001
0100
1000
,
1010
0000
0000
0000
0100
0000
0001
0000
0020
0001
0000
0000
0130
0000
0000
0000
,
0200
1000
0000
0000
0310
0000
0000
0000
0100
0000
0100
0000
0000
0000
0010
0000
,
1001
0000
0000
0000
1000
0000
0100
0000
1000
0000
0001
0000
0010
0000
0001
1000
,
0001
0000
0000
0000
0001
0000
0100
0000
0001
0000
1000
0000
0010
0100
0010
0100
,
0001
0000
0001
0000
0001
0000
0010
0100
1000
0000
1000
0000
1000
0000
0010
0100
,
0001
0000
0010
0000
0001
0000
0100
0000
0001
1000
0100
1000
0001
1000
0100
1000
,
0020
0030
0000
0000
0000
0000
0000
0000
1001
0000
0000
0000
0000
0000
0000
0000
,
0102
0013
2100
3010
,
1002
0000
0000
0000
0013
0000
0000
0000
2000
0010
0000
0000
3100
0000
0000
0000
,
0002
0010
0000
0000
0103
0000
0000
0000
0020
1000
0000
0000
0130
0000
0000
0000
,
0010
0010
0000
0100
1001
0000
1000
0010
,
0001
0010
0100
0001
0000
0010
0100
1000
,
0100
0000
0010
0000
0001
0000
1000
0000
0001
0000
0000
0001
0000
0000
0100
0000
,
0010
0000
0000
1000
0000
0000
0001
0000
1000
0000
1000
0000
0100
0000
0100
0000
,
0010
0001
0010
0001
1000
0100
0010
0001
1000
0000
0000
0000
0000
0000
0000
0000
,
0102
0013
2100
3010
,
1002
0000
0000
0000
0013
0000
0000
0000
0200
1000
0000
0000
0310
0000
0000
0000
,
0020
0001
0000
0000
0130
0000
0000
0000
2000
0001
0000
0000
3010
0000
0000
0000
,
0100
0000
0100
0000
0010
0000
0010
0000
1001
0000
0000
0000
0001
0000
0010
0100
,
1000
0000
0100
0000
0010
0000
0100
0000
1001
0000
0000
0000
1000
0000
0010
0100
,
0001
0000
0100
0000
0010
0000
0100
0000
0010
1000
0010
0000
0100
0000
0001
0000
,
0010
0001
0010
0000
0100
0000
1000
0000
0001
0100
0001
0000
1000
0100
1000
0000
,
0010
0100
0001
0100
0010
1000
0001
1000
0020
0000
0000
0000
0000
0000
0000
0000
,
0030
0000
0100
0000
0010
1000
0000
0000
,
0001
0000
0010
0000
0100
0000
1000
0001
,
0200
0000
0010
0000
0000
0310
0100
0000
,
1001
0000
1000
0100
1100
0000
0001
1000
,
0010
0000
0100
0000
0001
0010
0000
0000
,
1100
0000
0011
0000
0101
0000
1000
0001
,
0100
0000
0010
0000
1001
0000
0000
1001
,
0000
1001
0110
0000
,
0001
1000
0001
0000
0100
0000
0001
0000
1000
0000
0010
0100
0000
0010
1000
0000
,
0001
0010
0001
0000
0010
0000
0100
0000
1000
0000
0001
0010
0000
0001
1000
0000
,
0010
1000
0010
0000
0100
0000
0001
0000
0010
0000
0100
1000
0000
0100
0010
0000
,
0001
1000
0001
0000
0100
0000
0010
0000
1000
0000
1010
0000
0000
0000
0100
0000
,
1001
0000
0000
0000
0001
0010
0001
0010
0100
0000
0010
0100
1000
0000
0001
0000
,
1000
0000
0010
0000
1000
0010
1000
0010
0100
0000
0010
0100
0001
0000
1000
0000
,
0001
0000
0100
0000
0001
0100
0001
0100
0010
0000
0100
0010
1000
0000
0001
0000
,
0011
0000
0000
0000
1000
0100
1000
0100
0010
0100
0010
0100
1000
0001
0010
0100
,
2000
0000
0000
0000
0000
0000
3000
0000
0001
0000
0010
0100
0000
0010
0001
0000
,
1000
0010
1000
0000
0010
0000
0100
0000
0001
0000
1000
0010
0000
1000
0001
0000
,
0010
0001
0010
0000
0100
0000
1000
0000
0010
0000
0100
0001
0000
0100
0010
0000
,
1000
0001
1000
0000
0100
0000
0010
0000
0001
0000
0011
0000
0000
0000
0100
0000
,
1001
0000
0000
0000
1000
0010
1000
0010
0100
0000
0010
0100
0001
0000
1000
0000
,
1001
0000
0000
0000
0001
0010
0001
0010
0100
0000
0010
0100
1000
0000
0001
0000
,
0101
0000
0100
0010
1000
0000
1000
0000
1100
0000
0100
0010
0001
0000
0001
0000
,
1001
0000
0000
0000
0110
0000
0000
0000
1000
0001
0100
0001
1000
0001
0100
0001
,
0020
0000
0000
0001
0000
0000
0001
0000
,
0000
0001
0000
0000
0100
0000
0100
0000
,
1030
0010
0001
0100
0010
1000
0001
1000
,
0000
0010
0100
0001
0011
0000
0210
0000
,
0301
0100
1000
0010
0100
0001
0010
0001
,
0000
1000
0100
1000
1010
0000
0201
0000
,
1300
0100
0001
0010
0100
1000
0010
1000
,
0000
0001
0010
0100
0110
0000
1001
0000
,
0001
0010
0001
0000
0010
0000
0100
0010
0100
0000
0010
0000
0100
1000
0100
0000
,
1000
0000
0100
0010
0100
0000
0010
0000
0001
0010
0001
0010
0001
0000
0000
0000
,
1000
0010
1000
0000
0010
0000
0100
0010
0100
0000
0010
0000
0100
0001
0100
0000
,
0001
0000
0100
0010
0100
0000
0010
0000
1000
0010
1000
0010
1000
0000
0000
0000
,
0001
0100
0001
0000
0100
0000
0010
1000
0010
0000
1000
0000
0001
0010
0001
0000
,
0010
0000
0100
1000
0100
0000
1000
0000
0001
1000
0001
1000
0001
0000
0000
0000
,
1000
0100
1000
0100
0010
0100
0010
0100
1000
0001
1000
0001
0010
0001
0010
0001
,
1000
0010
1000
0010
0100
0010
0100
0010
1000
0001
0100
0010
1000
0001
0100
0010
,
2000
0000
0000
0000
,
0000
0000
0000
3000
;

//--------------- dance-double - P1989 ----------------
#NOTES:
     dance-double:
     P1989:
     Easy:
     8:
     0,0,0,0,0:
00000000
00000000
00000000
00000000
,
00000000
00000000
00000000
00000000
,
00000000
00000000
00000000
00000000
,
00000000
00000000
00000000
00000000
,
00000000
00000000
00000000
00000000
,
00000000
00000000
00000000
00000000
,
00000000
00000000
00000000
00000000
,
00000000
00000000
00000000
00000000
,
00000000
00000000
00000000
00000000
,
00010000
00000000
00000000
00010000
00000000
00000000
00001000
00000000
,
00000000
00001000
00000000
00000000
00010000
00000000
00011000
00000000
,
00001000
00000000
00000000
00001000
00000000
00000000
00010000
00000000
,
00000000
00010000
00000000
00000000
00001000
00000000
00011000
00000000
,
00020000
00000000
00000000
00000000
,
00030000
00000000
00000000
00000000
,
00011000
00000000
00000000
00000000
,
00001000
00000000
01000000
00000000
,
00010000
00000000
01000000
00000000
,
00100000
10000000
00100000
10000000
,
00010000
00000000
00000000
00000000
,
00100000
00000000
00001000
00000000
,
00010000
00000000
00000010
00000000
,
00001000
00000001
00001000
00000001
,
00000010
00000000
00000100
00001000
,
00000100
00010000
00001000
00000000
,
00011000
00000000
01001000
00000000
,
01010000
00000000
10010000
00000000
,
01100000
00000000
10000000
00010000
,
00100000
01000000
00100000
00000000
,
00001000
00010000
00001000
00010000
,
00000010
00001000
00000010
00000000
,
00000100
00000001
00001000
00000000
,
00000100
00010000
00001000
00000000
,
01000000
00010000
00100000
01000000
,
10000000
00100000
01000000
00000000
,
01100000
00000000
01000000
00001000
,
00011000
00000000
00010000
00000100
,
00001000
00001000
00000001
00000001
,
00000100
00000000
00000010
00000000
00000100
00000010
00000100
00000000
,
00000020
00000030
00000000
00000000
00000000
00000000
00000000
00000000
00001001
00000000
00000000
00000000
00000000
00000000
00000000
00000000
,
00002000
00000000
00003200
00000000
,
00020300
00000000
00032000
00000000
,
02003000
00000000
03020000
00000000
,
10030000
00000000
10010000
00000000
,
00010000
00100000
00000000
01000000
,
10000000
00010000
01000000
01000000
,
00001000
00001000
00010000
00000100
,
00010000
00000000
00011000
00000000
,
00020000
00000000
00030200
00000000
,
00002300
00000000
00003002
00000000
,
00000203
00000000
00000320
00000000
,
00001030
00000000
00001001
00000000
,
00000100
00000000
00011000
00000000
,
01000000
00000000
00010000
00010000
,
10000000
10000000
01000000
00100000
,
01000000
00100000
01000000
00000000
00200000
00000000
00000000
00000000
,
00300000
00000000
00001000
00000000
,
00010000
00000000
00000010
00000000
,
00002000
00000000
00000000
00003000
,
00000001
00000001
00000001
00000000
,
00000010
00000000
00000100
00000000
,
00010000
00000000
00001000
00000000
,
01000000
00000000
00000000
00000000
00100000
00000000
00000000
00100000
,
00000000
00100000
10010000
00000000
,
10000000
01000000
00100000
01000000
,
00100000
00001000
00010000
00001000
,
01000000
00010000
01000000
00001000
,
00010000
00000100
00001000
00000000
,
00001001
00000001
00000100
00000001
,
00000010
00000100
00001000
00000100
,
00010000
00001000
01000000
00010000
,
00100000
01000000
01000000
01000000
,
10010000
00000000
00010000
01000000
,
00001000
00010000
00000100
00001000
,
00000100
00000010
00000001
00000010
,
00000000
00001001
00000000
00000000
00000100
00000000
00000000
00000000
,
00000110
00000000
00000010
00010000
,
00011000
00000000
00001000
00100000
,
01000000
01000000
00100000
00100000
,
00010000
00000000
10000000
00000000
00010000
10000000
00010000
00000000
,
01000000
00000000
00000000
01000000
00000000
00000000
01000000
00000000
,
00000000
01000000
00000000
00000000
01000000
00000000
01000000
00000000
,
00001000
00000000
00000000
00001000
00000000
00000000
00001000
00000000
,
00000000
00001000
00000000
00000000
00001000
00000000
00001000
00000000
,
00010000
00000000
00000000
00010000
00000000
00000000
00010000
00000000
,
00000000
00010000
00000000
00000000
00010000
00000000
00010000
00000000
,
00000100
00000000
00000000
00000100
00000000
00000000
00000100
00000000
,
00000000
00000100
00000000
00000000
00000100
00000000
00000010
00000000
,
00000001
00000000
00000000
00000100
00000000
00000000
00000010
00000000
,
00000000
00001000
00000000
00000000
00000100
00000000
00010000
00000000
,
00001000
00000000
00000000
01000000
00000000
00000000
00010000
00000000
,
00000000
10000000
00000000
00000000
01000000
00000000
00100000
00000000
,
00010000
00000000
00000000
01000000
00000000
00000000
00001000
00000000
,
00000000
00010000
00000000
00000000
00000100
00000000
00001000
00000000
,
00000001
00000000
00000000
00000100
00000000
00000000
00000001
00000000
,
00000000
00000010
00000000
00000000
00000100
00000000
00010000
00000000
,
00022000
00000000
00000000
00000000
,
00000000
00000000
00000000
00033000
;

//--------------- dance-double - P1989 ----------------
#NOTES:
     dance-double:
     P1989:
     Medium:
     13:
     0,0,0,0,0:
00000000
00000000
00000000
00000000
,
00000000
00000000
00000000
00000000
,
00000000
00000000
00000000
00000000
,
00000000
00000000
00000000
00000000
,
00000000
00000000
00000000
00000000
,
00000000
00000000
00000000
00000000
,
00000000
00000000
00000000
00000000
,
00000000
00000000
00000000
00000000
,
00000000
00000000
00000000
00000000
,
00011000
00000000
00000000
00010100
00000000
00000000
00011000
00000000
,
00000000
00010010
00000000
00000000
00010000
00000000
00001000
00000000
,
00011000
00000000
00000000
01001000
00000000
00000000
00011000
00000000
,
00000000
00101000
00000000
00000000
00001000
00010000
00001000
00010000
,
00000200
00000000
00000000
00000000
,
00000300
00000000
00000000
00000000
,
00000110
00000000
00000010
00000000
00000001
00000100
00000000
00000100
,
00000000
00000010
00000000
00000000
00010000
00000000
00001000
00000000
,
00100000
00000000
00000000
00100000
00000000
00000000
00010000
00000000
,
00000000
10000000
00000000
00000000
00100000
00000000
01000000
00000000
,
00001000
00000000
00010000
00000000
00000100
00001000
00000000
00001000
,
00000000
00000001
00000000
00000000
00000100
00000000
00000010
00000000
,
00001000
00000000
00000000
00000100
00000000
00000000
00010000
00000000
,
00001000
00000000
01000000
00010000
01000000
00010000
01000000
00010000
,
10000000
00000000
01000000
00100000
00010000
00000000
01000000
00000000
,
00001000
00010000
00001000
00100000
,
00110000
00000000
00000000
00000000
00010000
00000000
00000000
00000000
01000000
00001000
00000000
00000000
00001000
00000000
00000000
00000000
,
00001000
00010000
00000000
00000000
00010000
00000000
00000000
00000000
00000100
00000000
00000100
00000000
00000000
00000000
00000000
00000000
,
00000110
00000000
00000010
00000001
00000000
00000100
00000001
00000010
,
00000000
00000100
00001000
00000000
00000100
00010000
00001000
00000000
,
01000000
00010000
01000000
00010000
10000000
00100000
10000000
00000000
,
01000000
00100000
00001000
00010000
00001000
00010000
00001000
00000000
,
01002000
00010000
00100000
00013000
,
00020100
00001000
00000010
00031000
,
00102000
00000000
00000000
00000000
00010000
00000000
00000000
00000000
01003000
00001000
00000000
00000000
00010000
00000000
00000000
00000000
,
00000100
00010000
00000000
00000000
00001000
00000000
00000000
00000000
00100000
00000000
00100000
00000000
00000000
00000000
00000000
00000000
,
10010000
00000000
00010000
01000000
00100000
10000000
00010000
00000000
,
10010000
00000000
10000000
01000000
00100000
00001000
00010000
00000000
,
00000010
00001000
00000010
00001000
00000100
00000010
00000100
00000010
,
00000001
00000100
00000010
00001000
00000100
00010000
00000100
00010000
,
00002000
00003000
00000000
00000000
00000000
00000000
00000000
00000000
00011000
00000000
00000000
00000000
00001000
00000000
00000000
00000000
,
02000000
00010000
03002000
00010000
,
00203000
00000000
00000000
00000000
00010000
00000000
00000000
00000000
01300000
00100000
00000000
00000000
00010000
00000000
00000000
00000000
,
01000000
00100000
00000000
00000000
10000000
00000000
00000000
00000000
00010000
01000000
00000000
00000000
00001000
00000000
00000000
00000000
,
00010000
00010000
00000000
00000000
00011000
00000000
00001000
00000010
,
00000000
00000001
00000000
00000100
00000000
00000010
00001000
00000010
,
00000000
00000000
00010000
00000000
00001000
00000000
00000000
00000000
00100000
00000000
00000000
00100000
00000000
00000000
00100000
00000000
,
00010000
00000000
00000000
00010000
00000000
00000000
00010000
00000000
10000000
00000000
00000000
10000000
00000000
00000000
10000000
00000000
,
00100000
00000000
00000000
00100000
00000000
00000000
01000000
00000000
10010000
00000000
00000000
00000000
00000000
00000000
00000000
00000000
,
00002000
01000000
00203000
01000000
,
00302000
00000000
00000000
00000000
01000000
00000000
00000000
00000000
00103000
00001000
00000000
00000000
00010000
00000000
00000000
00000000
,
00000010
00010000
00000000
00000000
00001000
00000000
00000000
00000000
01000000
00001000
00000000
00000000
00010000
00000000
00000000
00000000
,
00000100
00001000
00000100
00001000
00001001
00000000
00000001
00000100
,
00000010
00001000
00000100
00000000
00011000
00000000
01000000
00010000
,
01000000
00000000
10100000
00000000
01000000
00100000
01000000
00100000
,
00001000
00010000
00001000
00010000
00000100
00001000
00000100
00000010
,
00000001
00000001
00000001
00000001
00000200
00000000
00000000
00000000
,
00000300
00000000
00000010
00000000
00020000
00000000
00000000
00032000
,
00000000
00000000
00203000
00000000
00320000
00000000
00000000
01030000
,
00200000
00000000
00000000
00300000
,
10010000
00000000
10000000
01000000
00020000
00000000
00000000
00000000
,
00030000
00000000
00001000
00000000
00000020
00000000
00000000
00000230
,
00000000
00000000
00002300
00000000
00003002
00000000
00000000
00000203
,
00000000
00000000
00000310
00000000
00001001
00000000
00000000
00001001
,
00000000
00001001
00000110
00000000
,
00001000
00000100
00010000
00001000
01000000
00010000
00100000
00000000
,
01000000
10000000
01000000
00010000
00001000
00100000
00010000
00000000
,
10000000
00100000
01000000
00001000
00010000
00000010
00010000
00000000
,
00000100
00001000
00000100
00000010
00000001
00000001
00000000
00000000
,
00000110
00000000
00001000
00000100
00010000
00001000
01000000
00010000
,
00100000
00000000
01000000
10000000
01000000
00100000
00010000
00100000
,
00001000
00000000
00010000
00000010
00000100
00001000
00000100
00000001
,
00001000
00000000
00000000
00000010
00000000
00000000
00010000
00000000
00001000
00000000
00001000
00000000
00010000
00000000
00010000
00000000
,
00001000
00100000
00010000
01000000
00100000
10000000
00010000
00000000
,
00100000
01000000
00010000
00001000
00100000
00010000
01000000
00000000
,
00001000
00010000
00000010
00001000
00000100
00000010
00000001
00000000
,
00000100
00001001
00000000
00000000
00000010
00000010
00000000
00000000
,
00001001
00000000
00001000
00000100
00010000
00001000
01000000
00010000
,
00100000
00000000
00010000
01000000
00001000
00010000
00000100
00001000
,
00000010
00000000
00000100
00001000
00010000
00000000
00001000
00010000
,
01000000
00000000
01100000
00000000
10000000
10000000
00010000
00010000
,
02000000
00000000
00000000
00100000
00000000
00000000
00010000
00000000
,
00000000
00001000
00000000
00000000
00010000
00000000
03100000
00000000
,
01100000
00000000
00000000
10010000
00000000
00000000
01001000
00000000
,
00000000
00011000
00000000
00000000
00010100
00000000
00001100
00000000
,
00000100
00000000
00000100
00000010
00000000
00000010
00000001
00000000
,
00000001
00000100
00000000
00000100
00001000
00000000
00011000
00000000
,
00010000
00000000
00010000
00100000
00000000
00100000
10000000
00000000
,
10000000
01000000
00000000
01000000
00010000
00000000
00011000
00000000
,
00010000
00001000
00000010
00001000
00010000
00000010
00010000
00001000
,
00000010
00001000
00010000
00000010
00010000
00001000
00000010
00000000
,
00001000
00010000
00100000
00010000
00001000
00100000
00001000
00010000
,
00100000
00010000
00001000
00100000
00001000
00010000
00100000
00000000
,
10000000
01000000
00010000
00001000
00010000
01000000
10000000
00100000
,
00010000
00001000
00010000
00100000
10000000
01000000
00010000
00000000
,
00001000
00000010
00000100
00000010
00000001
00000100
00000010
00000100
,
00001000
00000000
00010000
00000000
00001000
00000000
01000000
00000000
00010000
10000000
00010000
00000000
10000000
00010000
10000000
00000000
,
02000000
00000000
00000000
00000000
,
00000000
00000000
00000000
03000000
;

//--------------- dance-double - P1989 ----------------
#NOTES:
     dance-double:
     P1989:
     Hard:
     16:
     0,0,0,0,0:
00000000
00000000
00000000
00000000
,
00000000
00000000
00000000
00000000
,
00000000
00000000
00000000
00000000
,
00000000
00000000
00000000
00000000
,
00000000
00000000
00000000
00000000
,
00000000
00000000
00000000
00000000
,
00000000
00000000
00000000
00000000
,
00000000
00000000
00000000
00000000
,
00000000
00000000
00000000
00000000
,
00001000
00000000
00010000
00000000
00000000
00000000
00001000
00000000
00100000
00000000
00000000
00000000
00001000
00010000
00001000
00000000
,
00000000
00001000
01000000
00000000
00011000
00000000
00011000
00000000
,
00010000
00000000
00000010
00000000
00000000
00000000
00010000
00000000
00001000
00000000
00000000
00000000
00010000
00001000
00010000
00000000
,
00000000
00010000
00000100
00000000
00011000
00000000
00011000
00000000
,
00200000
00000000
00000000
00000000
,
00300000
00000000
00000000
00000000
,
10010000
00000000
10000000
00000000
00010000
01000000
00000000
00001000
,
00000000
00001000
00010000
00000000
00000100
00000000
00001000
00000000
,
00000100
00000000
00000000
00000010
00000000
00000000
00000001
00000000
,
00000000
00000100
00000000
00000000
00000010
00001000
00000010
00010000
,
00001000
00000000
00001000
00000000
00100000
00010000
00000000
00010000
,
00000000
00010000
10000000
00000000
00000000
00100000
01000000
00010000
,
10000000
00000000
00000000
01000000
00000000
00000000
00010000
00000000
,
00001000
00000000
00010000
00000000
00000100
00000000
00001000
00000000
00000100
00000010
00000100
00000010
00000001
00000010
00000001
00000010
,
00000100
00000000
00001000
00000001
00000000
00000100
00000010
00001000
,
00000000
00000100
00010000
00000000
00001000
01000000
00010000
00000000
,
20010000
00000000
00000000
00000000
30100000
00000000
00000000
00000000
00020000
01000000
00000000
00000000
10030000
00000000
00000000
00000000
,
20000000
01000000
00000000
00000000
30100000
00000000
00000000
00000000
10000000
00000000
10000000
00000000
00000000
00000000
00100000
00000000
,
00010000
00000000
00001000
00010000
00000100
00001000
00000000
00000100
,
00000000
00000010
00000001
00000000
00000100
00000010
00001000
00000000
,
00000100
00010000
00001000
00010000
00000010
00010000
00001000
00010000
,
00000100
00000000
00000000
00000000
00010000
00001000
00010000
00001000
01000000
00001000
01000000
00001000
01000000
00010000
01000000
00100000
,
20000000
00000000
31000000
00100000
00010000
01000000
00001000
00010000
,
00000020
00000000
00001030
00000100
00000010
00000001
00000100
00000010
,
00001010
00000000
00000000
00000000
00010000
00000000
00001000
00000000
00200000
01000000
00000000
00000000
00310000
00000000
00000000
00000000
,
00002000
00010000
00000000
00000000
01003000
00000000
00000000
00000000
00100000
00000000
00100000
00000000
00000000
00000000
00000000
00000000
,
10010000
00000000
10000000
01000000
00010000
00001000
00100000
00001000
,
00011000
00000000
00000000
00000000
00010000
00000000
00001000
00000000
00000010
00000000
00000001
00000000
00000010
00000100
00000010
00000100
,
00001000
00000010
00010000
00001000
00100000
00010000
10000000
00100000
,
10000000
00000000
01000000
00000000
00010000
00000000
01000000
00000000
00010000
00001000
00010000
00000100
00010000
00001000
00010000
00000100
,
00002000
00003000
00000000
00000000
00000000
00000000
00000000
00000000
00000110
00000000
00000000
00000000
00000000
00000000
00000000
00000000
,
00000102
00000013
00002100
00003010
,
00021000
00000000
00000000
00000000
00030100
00000000
00000000
00000000
00002000
00010000
00000000
00000000
01003000
00000000
00000000
00000000
,
00020000
00001000
00000000
00000000
00030100
00000000
00000000
00000000
00002000
00010000
00000000
00000000
00103000
00000000
00000000
00000000
,
00001000
00001000
00000000
00000000
00000110
00000000
00000001
00000010
,
00000100
00001000
00000010
00010000
00000000
00001000
00100000
00010000
,
10000000
00000000
00100000
00000000
01000000
00000000
00010000
00000000
10000000
00000000
00000000
01000000
00000000
00000000
00010000
00000000
,
00001000
00000000
00000000
00010000
00000000
00000000
01000000
00000000
10000000
00000000
10000000
00000000
00100000
00000000
00100000
00000000
,
01000000
00010000
01000000
00001000
00010000
00001000
00100000
00010000
00100000
00000000
00000000
00000000
00000000
00000000
00000000
00000000
,
21000000
30100000
01020000
00130000
,
00012000
00000000
00000000
00000000
01003000
00000000
00000000
00000000
00020000
00001000
00000000
00000000
00030010
00000000
00000000
00000000
,
00002000
00010000
00000000
00000000
00103000
00000000
00000000
00000000
00020000
00001000
00000000
00000000
00030100
00000000
00000000
00000000
,
00010000
00001000
00010000
00001000
01001000
00000000
00001000
00010000
,
00000100
00001000
00000010
00000100
00000110
00000000
00000010
00001000
,
00000001
00000000
00000010
00000000
00000100
00000000
00010000
00000000
00001000
00100000
00001000
00000000
00010000
00000000
00000100
00000000
,
00010000
00001000
00010000
00000000
00000010
00000000
00001000
00000000
00000100
00001000
00000100
00000000
00010000
00001000
00010000
00000000
,
00001000
01000000
00010000
01000000
00001000
01000000
00010000
01000000
00200000
00000000
00000000
00000000
00000000
00000000
00000000
00000000
,
00300000
00000000
10000000
00000000
01000000
00000000
00000000
00010000
,
00000000
00000000
00001000
00000000
00000010
00000000
00000100
00001000
,
00000002
00000000
00000100
00000000
00000000
00000103
00000001
00000000
,
00000010
00000000
00000100
00010000
00001000
00000000
00010000
00000010
,
00001000
00000000
00000001
00000000
00000010
00000000
00000000
00000100
,
00000000
00000000
00010000
00000000
00001000
00000000
01000000
00010000
,
10000000
00000000
01000000
00000000
01100000
00000000
00000000
01100000
,
00000000
01100000
10010000
00000000
,
00010000
10000000
00010000
00000000
01000000
00000000
00001000
00000000
00010000
00000000
00001000
00010000
00000000
00000100
00001000
00000000
,
00000100
00000010
00000100
00000000
00000010
00000000
00000001
00000000
00001000
00000000
00000001
00000100
00000000
00000010
00000100
00000000
,
00000010
00001000
00000010
00000000
00010000
00000000
00001000
00000000
00100000
00000000
00010000
00100000
00000000
01000000
00100000
00000000
,
01000000
10000000
01000000
00000000
10000000
00000000
00010000
00000000
01000000
00000000
01000000
00000000
00000000
00000000
00000000
00000000
,
00011000
00000000
00000000
00000000
00001000
00010000
00000000
00000100
00001000
00000000
00000100
00000010
00000001
00000000
00001000
00000000
,
00000010
00000000
00001000
00000000
00000010
00010000
00000000
00001000
00010000
00000000
00001000
01000000
00010000
00000000
10000000
00000000
,
01000000
00000000
00100000
00000000
00010000
00100000
00000000
00001000
00010000
00000000
00001000
00010000
00000010
00000000
00001000
00000000
,
00000100
00000000
00000000
00000000
00000010
00000001
00000010
00000001
00000010
00000100
00000010
00000100
00001000
00000100
00001000
00000100
,
00000020
00000000
00000000
00000000
00000000
00000000
00000030
00000000
00000001
00000000
00000100
00000001
00000000
00000100
00000010
00000000
,
00001000
00000010
00001000
00000000
00000010
00000000
00010000
00000000
00001000
00000000
00100000
00010000
00000000
00100000
01000000
00000000
,
10000000
01000000
10000000
00000000
00010000
00000000
01000000
00000000
00001000
00000000
00010000
00000100
00000000
00001000
00000100
00000000
,
00000010
00000100
00001000
00000000
00000000
00000000
00000000
00000000
00000010
00000000
00000010
00000000
00000000
00000000
00000000
00000000
,
00001001
00000000
00000000
00000000
00001000
00000100
00000000
00010000
00001000
00000000
01000000
00010000
01000000
00000000
00100000
00000000
,
10010000
00000000
00000000
00000000
00010000
01000000
00000000
00001000
00010000
00000000
00000100
00001000
00000100
00000000
00000010
00000000
,
00000001
00000100
00001000
00000000
00001000
00000100
00000001
00000010
,
00000110
00000000
00000000
00000000
00010100
00000000
00000000
00000000
00010000
00001000
01000000
00001000
00010000
00001000
01000000
00001000
,
00020000
00000000
00000000
00000100
00000000
00000000
00001000
00000000
,
00000000
00000010
00000000
00000000
00001000
00000000
00000100
00000000
,
00031000
00010000
00100000
01000000
00100000
10000000
00010000
10000000
,
00000000
01000000
00010000
00001000
00101000
00000000
00010100
00000000
,
00000100
00001000
00000010
00010000
00001000
00000010
00000100
00000010
,
00000000
00000001
00000100
00000010
00010010
00000000
01001000
00000000
,
01000000
00010000
00100000
01000000
00010000
00001000
01000000
00010000
,
00000000
10000000
00100000
00010000
00110000
00000000
01100000
00000000
,
01000000
00010000
01000000
00000000
00010000
00000000
00100000
00001000
00100000
00000000
00001000
00000000
00010000
00000010
00010000
00000000
,
00000010
00000000
00001000
00000100
00001000
00000000
00000100
00000000
00010000
00001000
00010000
00001000
00010000
00000000
00000000
00000000
,
00000100
00001000
00000100
00000000
00001000
00000000
00000010
00010000
00000010
00000000
00010000
00000000
00001000
00100000
00001000
00000000
,
00100000
00000000
00010000
01000000
00010000
00000000
01000000
00000000
00001000
00010000
00001000
00010000
00001000
00000000
00000000
00000000
,
01000000
00010000
01000000
00000000
00001000
00000000
00010000
00000010
00010000
00000000
00001000
00000000
00100000
00010000
00100000
00000000
,
01000000
00000000
10000000
00010000
10000000
00000000
01000000
00000000
00100000
00010000
00100000
00010000
00100000
00000000
00000000
00000000
,
00001000
00010000
00001000
00010000
00000100
00010000
00000100
00010000
00001000
00010000
00001000
00010000
00001000
01000000
00001000
01000000
,
00010000
10000000
00010000
00100000
00010000
10000000
00010000
00100000
00001000
00010000
00000100
00001000
00000100
00010000
00001000
00010000
,
00000020
00000000
00000000
00000000
,
00000000
00000000
00000000
00000030
;
