#TITLE:Can You Feel the Sunshine?;
#SUBTITLE:;
#ARTIST:Richard Jacques;
#TITLETRANSLIT:;
#SUBTITLETRANSLIT:;
#ARTISTTRANSLIT:;
#GENRE:;
#CREDIT:;
#MUSIC:Can You Feel the Sunshine.ogg;
#BANNER:Can You Feel the Sunshine.png;
#BACKGROUND:Can You Feel the Sunshine-bg.png;
#CDTITLE:;
#SAMPLESTART:39.502;
#SAMPLELENGTH:15.000;
#SELECTABLE:YES;
#OFFSET:1.510;
#BPMS:0.000=158.000;
#STOPS:;
#BGCHANGES:4.000=Can You Feel the Sunshine.mp4=1.000=0=0=0=StretchNoLoop====,
99999.000=-nosongbg-=1.000=0=0=0=StretchNoLoop====
;
#FGCHANGES:;

//--------------- dance-single - Extraordiberry ----------------
#NOTES:
     dance-single:
     Extraordiberry:
     Beginner:
     1:
     0,0,0,0,0:
0000
0000
0000
0000
,
0000
0000
0000
0000
,
0000
0000
0000
0000
,
0000
0000
0000
0000
,
0000
0000
0000
0000
,
1000
0000
0000
0000
,
0000
0000
0000
0000
,
0001
0000
0000
0000
,
0000
0000
0000
0000
,
0000
0000
0000
0000
,
1000
0000
0000
0000
,
0000
0000
0000
0000
,
0001
0000
0000
0000
,
0000
0000
0000
0000
,
0100
0000
0000
0000
,
0000
0000
0000
0000
,
0010
0000
0000
0000
,
0000
0000
0000
0000
,
1000
0000
0000
0000
,
0000
0000
0000
0000
,
0100
0000
0000
0000
,
0000
0000
0000
0000
,
0010
0000
0000
0000
,
0000
0000
0000
0000
,
0001
0000
0000
0000
,
0000
0000
0000
0000
,
1001
0000
0000
0000
,
1000
0000
0000
0000
,
1000
0000
0000
0000
,
0001
0000
0000
0000
,
0001
0000
0000
0000
,
1000
0000
0000
0000
,
0100
0000
0000
0000
,
1000
0000
0000
0000
,
0001
0000
0000
0000
,
0001
0000
0000
0000
,
0001
0000
0000
0000
,
1000
0000
0000
0000
,
1000
0000
0000
0000
,
0001
0000
0000
0000
,
0100
0000
0000
0000
,
0001
0000
0000
0000
,
1000
0000
0000
0000
,
0010
0000
0000
0000
,
0000
0000
0000
0000
,
0100
0000
0000
0000
,
0000
0000
0000
0000
,
0001
0000
0000
0000
,
0000
0000
0000
0000
,
1000
0000
0000
0000
,
0000
0000
0000
0000
,
1000
0000
0000
0000
,
0000
0000
0000
0000
,
0100
0000
0000
0000
,
0000
0000
0000
0000
,
0010
0000
0000
0000
,
0000
0000
0000
0000
,
0001
0000
0000
0000
,
0000
0000
0000
0000
,
0001
0000
0000
0000
,
0000
0000
0000
0000
,
0100
0000
0000
0000
,
0000
0000
0000
0000
,
0010
0000
0000
0000
,
0000
0000
0000
0000
,
1000
0000
0000
0000
,
0000
0000
0000
0000
,
1001
0000
0000
0000
,
1000
0000
0000
0000
,
0100
0000
0000
0000
,
0010
0000
0000
0000
,
0001
0000
0000
0000
,
1000
0000
0000
0000
,
0010
0000
0000
0000
,
0100
0000
0000
0000
,
0001
0000
0000
0000
,
1000
0000
0000
0000
,
1000
0000
0000
0000
,
0001
0000
0000
0000
,
0001
0000
0000
0000
,
1000
0000
0000
0000
,
0100
0000
0000
0000
,
0001
0000
0000
0000
,
0100
0000
0000
0000
,
1001
0000
0000
0000
;

//--------------- dance-single - Extraordiberry ----------------
#NOTES:
     dance-single:
     Extraordiberry:
     Easy:
     6:
     0,0,0,0,0:
0000
0000
0000
0000
,
0000
0000
0000
0000
,
0000
0000
0000
0000
,
0000
0000
0000
0000
,
0000
0000
0000
0000
,
1000
1000
1000
0000
,
0100
0100
0100
0000
,
0010
0010
0010
0000
,
0001
0001
0001
0000
,
0100
0000
0000
0000
,
1001
0000
1000
0100
,
1000
0000
0001
0000
,
1001
0000
0001
0100
,
0001
0000
1000
0000
,
1001
0000
0000
1000
,
0100
0000
0010
0001
,
1000
0000
0001
0000
,
0100
0000
0000
0001
,
1001
0000
0001
0100
,
0010
0000
1000
0000
,
1001
0000
1000
0100
,
0010
0000
0001
0000
,
1001
0000
0000
0001
,
0100
0000
0010
1000
,
0001
0000
1000
0000
,
0001
1000
2001
0000
,
0002
0000
0000
3003
,
1000
0100
0010
0001
,
1000
0010
0000
0100
,
0001
0010
0100
1000
,
0001
0000
1001
0000
,
0001
0100
0010
1000
,
0001
0010
0000
0100
,
1000
0010
0100
0001
,
1000
0000
1001
0000
,
1000
0100
0001
0100
,
1000
0000
0001
0001
,
0001
0100
1000
0100
,
0001
0000
1001
0000
,
1000
0010
0001
0010
,
1000
0000
0001
0001
,
0010
1000
0010
0001
,
1000
0000
0110
0000
,
2000
0000
3000
0000
,
0200
0000
0300
0000
,
0020
0000
0030
0000
,
0002
0000
0003
0000
,
1000
1000
1000
0000
,
0010
0010
0010
0000
,
0100
0100
0100
0000
,
0001
0001
0001
0000
,
1001
0000
1000
0100
,
0010
0100
1000
0000
,
1001
0000
0001
0100
,
0010
0100
0001
0000
,
1001
0000
1000
0000
,
0200
0000
0300
0000
,
0010
0000
0001
0000
,
0200
0000
0300
0000
,
1001
0000
1000
0010
,
0100
0010
1000
0000
,
1001
0000
0001
0010
,
0100
0010
0001
0000
,
1001
0000
0000
1000
,
0020
0000
0030
0000
,
0100
0000
0001
0000
,
0010
0000
0120
0000
,
0200
0000
0000
0330
,
1000
0100
0010
0001
,
0100
0010
0000
0100
,
0010
1000
0100
0010
,
0001
0000
1001
0000
,
0001
0100
0010
1000
,
0100
0010
0000
0001
,
0100
0010
1000
0001
,
1001
0000
1001
0000
,
1000
0100
0001
0100
,
1000
0001
0000
0001
,
0001
0100
1000
0100
,
0001
0000
1001
0000
,
1000
0010
0001
0010
,
1000
1000
0001
0001
,
0010
1000
0010
0001
,
0100
0100
0010
0010
,
0220
0000
0000
0000
,
0000
0000
0000
0000
,
0000
0330
0000
0000
0000
0000
0000
0000
;

//--------------- dance-single - Extraordiberry ----------------
#NOTES:
     dance-single:
     Extraordiberry:
     Medium:
     10:
     0,0,0,0,0:
0000
0000
0000
0000
,
0000
0000
0000
0000
,
0000
0000
0000
0000
,
0000
0000
0000
0000
,
0000
0000
0000
0000
,
2000
0000
3000
0000
,
0200
0000
0300
0000
,
0020
0000
0000
0000
0030
0000
0000
0002
,
0000
0000
0000
0003
0000
0000
0000
0000
,
0000
0000
0000
0000
,
1000
0100
1000
0000
1001
0000
0001
0100
,
0010
0000
1000
0100
0000
0100
1000
0000
,
0001
0100
0001
0000
1001
0000
1000
0100
,
0010
0000
0001
0100
0000
0100
0001
0000
,
0020
0000
0030
0000
0000
0001
0100
0020
,
0000
0000
1000
0000
0030
0000
0001
0010
,
0100
0000
1000
0001
0000
0100
0001
0020
,
0000
0000
0001
0000
0030
0100
0001
0000
,
0110
0000
0001
0010
0001
0000
1000
0100
,
1000
0000
0001
0100
0000
0100
0010
0000
,
0110
0000
1000
0010
1000
0000
0001
0100
,
0001
0000
1000
0000
0100
0000
0010
0002
,
0000
0000
0000
0000
0000
0103
0010
2000
,
0000
0000
0000
0000
0000
0000
0000
3100
,
0020
0000
0031
0200
0000
0320
0000
2030
,
0000
3002
0000
0023
0000
0000
0032
0000
,
2000
0000
0000
3003
,
1001
0000
1010
0000
1001
0000
1000
0100
,
0000
0010
0000
0001
0000
1000
0100
0000
,
0110
0000
1001
0000
0110
0000
1000
0020
,
0000
0100
0100
0130
,
1001
0000
0011
0000
1001
0000
0001
0100
,
0000
0010
0000
1000
0000
0001
0100
0000
,
0110
0110
1001
1001
,
0022
0000
0000
0033
,
1001
0000
1010
0000
0101
0000
0001
0200
,
0000
0010
0000
0001
0000
0310
0100
0000
,
0110
0000
1001
0000
0110
0000
1000
0002
,
0000
1000
1000
1003
,
1001
0000
0011
0000
1100
0000
1000
0200
,
0000
0010
0000
1000
0000
0310
0100
0000
,
0110
0011
1001
1010
,
0220
0000
0000
0330
,
1000
0100
1000
0000
0002
0000
0003
0000
,
0001
0100
0001
0000
2000
0000
3000
0000
,
1000
0100
1000
0000
0001
0000
0001
0000
,
0001
0100
0001
0000
2000
0000
3000
0000
,
1000
0001
0010
0000
0002
0000
0003
0000
,
0001
1000
0010
0000
2000
0000
3000
0000
,
0001
1000
0100
0000
1000
0000
1000
0000
,
1000
0001
0100
0000
0002
0000
0003
0000
,
1000
0100
0010
0000
0110
0000
0001
0100
,
0010
0000
1000
0100
0000
0010
0001
0000
,
0001
0100
0010
0000
0010
1000
0001
0010
,
0000
0001
1000
0010
0000
1000
0100
0000
,
0020
0000
0030
0001
0100
0000
0010
2000
,
0000
0000
0001
0000
3001
0000
0000
1000
,
0100
0000
0010
0001
0000
1000
0000
0020
,
0000
0100
0130
0001
,
1001
0000
0001
0010
0001
1000
0100
0000
,
1000
0010
1000
0001
0000
1000
0010
0000
,
0110
0000
1000
0010
1000
0001
0100
0001
,
0010
0000
0001
0100
0000
0001
0010
0000
,
0020
0000
0000
0000
0000
0130
1000
0002
,
0000
0000
1000
0000
1003
0000
0000
1000
,
0020
0000
1030
0200
0000
0320
0000
0032
,
0000
2003
0000
3020
0000
0000
2030
0000
,
0002
0000
0000
3003
,
0011
0000
1100
0000
0011
0000
1000
0200
,
0000
0010
0000
1000
0000
0310
0001
0000
,
0101
0000
0110
0000
1010
0000
1000
0020
,
0000
0100
0000
0100
0000
0130
0010
0000
,
1010
0000
0101
0000
1010
0000
0001
0200
,
0000
0010
0000
0001
0000
0310
1000
0000
,
1010
0110
0101
0110
,
0020
1000
0100
0031
,
0110
0000
1001
0000
1100
0000
0001
0100
,
0000
0110
0000
0001
0000
1001
0000
1000
,
0100
0000
0110
0000
0010
0001
0010
0002
,
0000
0010
1000
0103
,
0101
0000
1010
0000
1100
0000
0001
0020
,
0000
0100
0000
0001
0000
0130
1000
0000
,
1100
0011
0101
1010
,
0010
1000
0100
0000
0010
0001
0100
0000
,
2002
0000
0000
0000
,
0000
0000
0000
0000
,
0000
3003
0000
0000
0000
0000
0000
0000
;

//--------------- dance-single - Extraordiberry ----------------
#NOTES:
     dance-single:
     Extraordiberry:
     Hard:
     14:
     0,0,0,0,0:
0000
0000
0000
0000
,
0000
0000
0000
0000
,
0000
0000
0000
0000
,
0000
0000
0000
0000
,
0000
0000
0000
0000
,
2000
0000
0000
0000
,
3200
0000
0000
0000
,
0320
0000
0000
0000
0000
0000
0000
0032
,
0000
0000
0000
0000
,
0003
0000
0000
0000
,
1000
0000
0100
0000
0010
0000
0000
0001
0000
0000
0010
0000
0100
0000
1000
0000
,
0001
0010
0001
0100
0000
0010
0100
0000
,
0001
0000
0100
0000
0010
0000
0000
1000
0000
0000
0010
0000
1000
0000
0100
0000
,
0010
0000
0001
0100
0000
0010
1000
0000
,
1010
0000
1000
0100
0000
0100
0010
0002
,
0000
0010
0010
0000
1003
0100
0010
0001
,
0100
0000
0010
1000
0000
0010
1000
0100
,
0000
0010
0001
0000
0010
0000
0011
0000
,
0001
0000
0100
0000
0010
0000
1000
0010
0000
0000
0100
0000
0001
0000
1000
0000
,
0100
0010
0001
1000
0000
1000
0010
0000
,
1000
0000
0100
0000
0010
0000
0001
0010
0000
0000
0010
0000
0001
0000
0100
0000
,
0010
1000
0010
0000
1000
0100
0010
0200
,
0000
1000
1300
0000
0100
0010
0001
0200
,
0000
0001
0001
0000
0310
0100
0001
1000
,
0200
0000
1300
0020
0000
0230
0000
0302
,
0000
0023
0000
0230
0000
0000
2300
0000
,
0002
0000
0000
3003
,
1000
0100
1000
0000
0001
0000
0000
0000
1000
0100
1000
0000
0010
0000
0000
0000
,
1000
0100
1000
0000
0001
0000
0010
0000
0100
0000
1000
0000
0010
0000
0000
0000
,
1000
0010
0001
0000
0001
0010
1000
0000
,
1000
0010
0001
0010
1000
0001
0010
0000
,
0001
0100
0001
0000
1000
0000
0000
0000
0001
0100
0001
0000
0010
0000
0000
0000
,
0001
0100
0001
0000
1000
0000
0010
0000
0100
0000
0001
0000
0010
0000
0000
0000
,
0001
0010
0011
0000
1000
0010
1010
0000
,
0001
0010
0001
0100
0001
1000
1010
0000
,
1000
0100
1000
0000
0001
0000
0000
0000
1000
0100
1000
0000
0001
0000
0010
0000
,
0100
1000
0100
0000
1000
0000
0000
0000
0001
0000
0100
0000
0010
0000
1000
0000
,
0001
0200
0010
0000
0301
1000
0100
0001
,
0000
0001
0100
1000
0100
0010
0001
0000
,
1000
0010
1000
0000
0010
0000
0000
0000
1000
0010
1000
0000
0010
0000
0100
0000
,
0010
1000
0010
0000
0100
0000
0000
0000
0010
0000
1000
0000
0100
0000
0010
0000
,
0001
0010
0001
0000
0010
0000
0000
0000
0100
1000
0100
0000
0010
0000
0000
0000
,
0001
0100
0001
0000
0100
0000
0010
0000
1000
0010
1000
0000
0010
0000
0000
0000
,
1000
0000
0100
0000
2000
0000
0000
0100
0000
0000
3001
0000
0000
0000
0000
0000
,
0001
0000
0100
0000
0002
0000
0000
0100
0000
0000
1003
0000
0000
0000
1000
0000
,
1000
0000
0010
0000
2000
0000
0000
0010
0000
0000
3001
0000
0000
0000
0000
0000
,
0001
0000
0010
0000
0002
0000
0000
0010
0000
0000
1003
0000
0000
0000
0001
0000
,
1000
0010
0100
0000
0001
0010
0100
0000
,
0010
0001
0100
0000
0010
1000
0100
0000
,
1000
0001
0100
0000
0001
1000
0100
0000
,
1000
0010
1000
0000
0001
0000
0011
0000
,
0001
0000
0100
0000
0010
0000
1000
0010
0000
0000
0010
0000
0100
0000
0001
0000
,
1000
0010
1000
0100
0000
0010
0100
0000
,
1000
0000
0100
0000
0010
0000
0001
0010
0000
0000
0010
0000
0001
0000
0100
0000
,
0000
0010
1000
0100
0000
0010
0001
0000
,
0011
0000
0001
0100
0010
0000
1000
2010
,
0000
0010
0010
0000
3001
0100
0010
1000
,
0100
0000
0010
0002
0000
0010
0000
1000
,
0000
0103
0001
0000
0100
0000
0101
0000
,
0001
0000
0010
0000
0100
0000
1000
0100
0000
0000
0100
0000
0010
0000
0001
0000
,
1000
0000
0010
1000
0010
0000
1000
0000
0000
0000
1000
0000
0010
0000
0000
0000
,
1000
0000
0010
0000
0100
0000
0001
0100
0000
0000
0100
0000
0001
0000
0010
0000
,
0100
0000
1000
0100
1000
0000
0001
0000
0000
0000
0001
0000
0100
0000
0001
0000
,
0101
0000
0001
0100
0010
1000
0100
2100
,
0000
0010
0010
0000
3100
0010
0001
1000
,
0020
0000
0130
0002
0000
0203
0000
0320
,
0000
2030
0000
3200
0000
0000
2300
0000
,
0002
0000
0000
3003
,
1000
0100
1000
0000
0001
0000
0010
0000
0100
1000
0100
0000
0010
0000
0001
0000
,
1000
0100
1000
0000
0001
0000
0010
0000
0100
0000
1000
0000
0010
0000
0000
0000
,
1000
0010
0001
0010
0100
0010
1000
0001
,
0010
1000
0010
0100
0010
0001
0010
0010
,
0001
0100
0001
0000
1000
0000
0010
0000
0100
0001
0100
0000
0010
0000
1000
0000
,
0001
0100
0001
0000
1000
0000
0010
0000
0100
0000
0001
0000
0010
0000
0000
0000
,
0100
1000
1020
0000
0130
0001
0021
0000
,
0130
1000
0010
0100
0001
0010
0110
0000
,
1000
0100
1000
0000
0001
0000
0010
0000
0100
1000
0100
0000
0010
0000
0001
0000
,
1000
0100
1000
0000
0001
0010
0001
0000
1000
0000
0010
0000
0100
0000
0000
0000
,
0001
0200
1000
0000
0301
0200
1000
0000
,
0301
1000
0100
0001
0100
1000
0010
0000
,
1000
0010
1000
0000
0001
0000
0100
0000
0010
1000
0010
0000
0100
0000
0001
0000
,
1000
0010
1000
0000
0001
0100
0001
0000
1000
0000
0100
0000
0010
0000
0001
0000
,
0010
0001
0010
0000
0100
0000
1000
0000
0100
1000
0100
0000
0010
0000
0001
0000
,
0100
0001
0100
0000
0010
0000
1000
0000
0010
1000
0010
0000
1000
0000
0100
0000
,
2002
0000
0000
0000
,
0000
0000
0000
0000
,
0000
3003
0000
0000
0000
0000
0000
0000
;

//--------------- dance-single - Extraordiberry ----------------
#NOTES:
     dance-single:
     Extraordiberry:
     Challenge:
     16:
     0,0,0,0,0:
0000
0000
0000
0000
,
0000
0000
0000
0000
,
0000
0000
0000
0000
,
0000
0000
0000
0000
,
0000
0000
0000
0000
,
2000
0000
0000
0000
,
3020
0000
0000
0000
,
0230
0000
0000
0000
0000
0000
0000
0302
,
0000
0000
0000
0000
,
0003
0000
0000
0000
,
1000
0000
0100
0000
0010
0000
0001
0010
0000
0000
0001
0000
0100
0000
0010
0000
,
1000
0001
1000
0100
0000
0010
0001
0000
,
0001
0000
0100
0000
0010
0000
1000
0010
0000
0000
1000
0000
0100
0000
0010
0000
,
0002
0000
0103
0020
0000
0031
0020
0000
,
0230
0000
0010
0010
0000
0301
0010
0200
,
0000
0010
0010
0000
1300
0010
0100
0001
,
0020
0000
1030
0020
0000
0100
0130
2000
,
0000
3020
0000
0000
0000
0130
0001
0000
,
0101
0000
0001
0000
0100
0000
0010
1000
0000
0000
0010
0000
0010
0000
1000
0000
,
0100
0010
0001
0100
1000
0100
0001
0000
,
1100
0000
1000
0000
0100
0000
0010
0001
0000
0000
0010
0000
0010
0000
0001
0000
,
0100
0010
1000
0100
0001
0100
1000
0000
,
0102
0000
0000
0000
0000
0103
0010
2000
,
0000
0001
3002
0000
0013
0100
1000
0001
,
0200
0000
1300
0200
0000
0320
0000
2030
,
0000
3200
0000
0320
0000
0000
0032
0000
,
2000
0000
0000
3003
,
1000
0010
0100
0000
0001
0010
0100
0000
1000
0010
1000
0010
0100
0000
0001
0100
,
0001
0000
1000
0010
1000
0000
0001
0010
0001
0000
1000
0100
1000
0000
0001
0000
,
0100
1000
0200
0000
1300
0100
0001
0001
,
1000
0100
0002
0000
0103
1000
0001
0100
,
0001
0010
0100
0000
1000
0010
0100
0000
0001
0010
0001
0010
0100
0000
1000
0100
,
1000
0000
0001
0010
0001
0000
1000
0010
1000
0000
0001
0100
0001
0000
1000
0000
,
0001
0020
0100
0000
0031
0020
0100
0000
,
1030
0010
0001
0001
1000
0010
0100
0000
,
0010
0100
0001
0000
0010
0100
1000
0000
0010
0100
0001
1000
0100
0000
1000
0001
,
0100
0000
0010
1000
0010
0000
1000
0100
1000
0000
0001
0010
0001
0000
0100
0000
,
0010
1000
2010
0000
3001
0010
0012
0000
,
1003
0010
1010
1000
0100
0010
0001
0001
,
0010
0100
1000
0000
0010
0100
0001
0000
0010
0100
1000
0001
0100
0000
0001
1000
,
0100
0000
0010
0001
0010
0000
0001
0100
0001
0000
1000
0010
1000
0000
0001
0010
,
0001
0000
1000
0100
1000
0000
0001
1000
0100
0000
1000
0001
0010
0000
0001
0100
,
0010
1000
0001
0100
0010
0100
0001
0100
0010
1000
0010
0100
0001
0000
0000
0000
,
1010
0000
1000
0000
1000
0002
0000
0010
0000
0000
1003
0000
0000
0000
0000
0000
,
0011
0000
0001
0000
0001
2000
0000
0010
0000
0000
3001
0000
0000
0000
0000
0000
,
1100
0000
1000
0000
1000
0200
0000
0010
0000
0000
1300
0000
0000
0000
0000
0000
,
0101
0000
0001
0000
0001
0200
0000
0010
0000
0000
0301
0000
0000
0000
1000
0000
,
0100
0000
0010
0000
0001
0000
1000
0100
0000
0100
0010
0000
0001
0000
0000
0000
,
0100
0000
0010
0000
1000
0000
0001
0100
0000
0100
0010
0000
1000
0000
0000
0000
,
0001
0010
0001
0000
0010
0000
0100
1000
0000
1000
0100
0000
0010
0000
0001
0000
,
1000
0010
1000
0000
0010
0000
0100
0001
0000
0001
0100
0000
0010
0000
1000
0000
,
0100
0000
0010
0001
0010
0000
0001
1000
0000
0000
1000
0000
0010
0000
0100
0000
,
0001
1000
0100
0001
0100
0100
1000
0001
,
0100
0000
0010
1000
0010
0000
1000
0001
0000
0000
0001
0000
0010
0000
0100
0000
,
1000
0001
0100
1000
0100
0001
1000
0100
,
0002
0000
0000
0103
2000
0000
3010
0002
,
0000
0000
0010
0000
0013
0000
1000
0010
0000
0000
1000
0000
0100
0000
0001
0000
,
2000
0000
3010
0002
0000
1000
0000
0100
,
0000
0000
1003
0000
0001
0000
0001
0100
0000
0000
0100
0000
0001
0000
0010
0000
,
0011
0000
0001
0010
0001
0000
0010
0100
0000
0100
0000
0000
1000
0000
0001
0000
,
0100
1000
0100
0001
0010
0100
1000
0010
,
1010
0000
1000
0010
1000
0000
0010
0100
0000
0100
0000
0000
0001
0000
1000
0000
,
0100
0001
0100
1000
0010
0100
0001
0010
,
2000
0000
0000
0000
0000
3001
0100
2000
,
0000
0001
3002
0000
0103
1000
0100
0001
,
0020
0000
2030
3020
0000
0032
0000
0203
,
0000
2300
0000
3200
0000
0000
0302
0000
,
2000
0000
0000
3003
,
1000
0001
0010
0000
0001
1000
0010
0000
1000
0001
0010
0100
0001
0000
0100
0010
,
0001
0000
0010
0001
1000
0000
0010
1000
0010
0000
0100
0001
0100
0000
0001
0000
,
1000
0100
0001
0100
1000
1000
0100
0010
,
0001
0100
1000
0100
0001
0001
0100
0100
,
0001
1000
0010
0000
1000
0001
0010
0000
0001
1000
0010
0100
1000
0000
0100
0010
,
1000
0000
0010
1000
0001
0000
0010
0001
0010
0000
0100
1000
0100
0000
1000
0000
,
0001
0100
2000
0000
3100
0001
2000
0000
,
3100
0001
2000
0000
3010
0001
1000
1000
,
1000
0100
0010
0000
0001
0100
0010
0000
1000
0100
0010
0100
0001
0000
0100
0010
,
0001
0000
0010
0001
1000
0000
0001
0100
0001
0100
0010
1000
0010
0000
1000
0000
,
0100
0010
0021
0000
1030
0010
0021
0000
,
1030
0010
0001
0100
1000
0100
0001
1000
,
0001
0100
0010
0000
1000
0100
0010
0000
0001
0100
0010
0100
1000
0000
0100
0010
,
1000
0000
0010
1000
0001
0000
1000
0100
0010
0001
1000
0100
0010
0000
0001
1000
,
0010
0000
0100
0001
1000
0000
0010
0100
0001
0000
1000
0010
0100
0000
0001
0010
,
0100
1000
0001
0010
0100
1000
0001
0010
0100
1000
0100
0001
0100
0010
0001
1000
,
2002
0000
0000
0000
,
0000
0000
0000
0000
,
0000
3003
0000
0000
0000
0000
0000
0000
;
