#TITLE:CODE NAME \: ZERO;
#SUBTITLE:;
#ARTIST:NeLiME;
#TITLETRANSLIT:;
#SUBTITLETRANSLIT:;
#ARTISTTRANSLIT:;
#GENRE:;
#CREDIT:;
#BANNER:CODE NAME ZERO.png;
#BACKGROUND:CODE NAME ZERO-bg.png;
#LYRICSPATH:;
#CDTITLE:cdtitle.png;
#MUSIC:CODE NAME ZERO.ogg;
#OFFSET:-0.021000;
#SAMPLESTART:33.594002;
#SAMPLELENGTH:12.000000;
#SELECTABLE:YES;
#BPMS:0.000000=200.000000
;
#STOPS:
;
#BGCHANGES:0.000=CODE NAME ZERO.mp4=1.000=0=0=0=StretchNoLoop====,
99999=-nosongbg-=1.000=0=0=0 // don't automatically add -songbackground-
;
#KEYSOUNDS:;
#ATTACKS:;

//---------------dance-single - ----------------
#NOTES:
     dance-single:
     :
     Hard:
     14:
     0.743166,0.784939,0.489312,0.489312,0.060091,606.000000,549.000000,57.000000,57.000000,0.000000,0.000000,0.743166,0.784939,0.489312,0.489312,0.060091,606.000000,549.000000,57.000000,57.000000,0.000000,0.000000:
// measure 0
0000
0000
0000
0000
,  // measure 1
0000
0000
0000
0000
,  // measure 2
0000
0000
0000
0000
,  // measure 3
0000
0000
0000
0000
,  // measure 4
1001
1001
1001
1001
,  // measure 5
0001
0010
0200
0000
1300
0000
0000
0000
,  // measure 6
1100
1100
1100
1002
,  // measure 7
1003
0010
0100
0000
0102
0000
2003
0000
,  // measure 8
3100
0010
0000
0100
0020
0000
0031
1000
,  // measure 9
0000
0001
1000
0010
0200
0000
0301
0000
,  // measure 10
0101
0000
1010
0000
0001
0010
0100
1000
,  // measure 11
0001
0000
0000
0110
,  // measure 12
1001
0000
0000
1010
0000
0000
0101
0000
,  // measure 13
0001
1001
0000
1000
0100
0010
0001
0000
,  // measure 14
1000
1010
0000
0110
0000
0011
0000
0110
,  // measure 15
0000
1010
0000
1000
0100
0010
0001
0100
,  // measure 16
0101
0000
0000
1010
0000
0000
1100
0000
,  // measure 17
0001
1001
0000
0001
0010
0100
1000
0000
,  // measure 18
0001
0101
0000
0110
0000
1100
0000
0110
,  // measure 19
0000
0000
0101
0000
0000
0000
0001
0000
1000
0000
0100
0000
1000
0001
1000
0000
,  // measure 20
0001
0000
1000
0010
0000
0010
0100
0000
,  // measure 21
0001
0001
0010
1000
0010
0001
0200
0000
,  // measure 22
0310
0110
0000
1010
0000
1100
0000
0101
,  // measure 23
0000
0011
0000
0001
0010
0100
1000
0000
,  // measure 24
1001
0000
0001
0100
0000
0100
0010
0000
,  // measure 25
1000
1000
0001
0010
0001
1000
1000
0001
,  // measure 26
0010
0000
0010
0000
0100
0000
0100
0000
1000
0001
1000
0000
0001
1000
0001
0000
,  // measure 27
2000
3020
0130
0210
,  // measure 28
0301
0100
2000
0000
3100
0020
0000
1030
,  // measure 29
0100
0010
0100
0002
0000
0103
1000
0010
,  // measure 30
0100
0001
0020
0000
1030
0020
0000
0031
,  // measure 31
0100
0010
0100
2000
0000
3100
0002
0000
,  // measure 32
1003
0010
0002
0000
0013
0200
0000
0301
,  // measure 33
0010
0100
0010
2000
0000
3010
0001
0100
,  // measure 34
0010
1000
0200
0000
0301
0200
0000
1300
,  // measure 35
0010
0100
0001
0010
0100
1000
0002
0000
,  // measure 36
0103
0010
0001
0010
1000
0200
0000
0310
,  // measure 37
1000
0010
0100
2000
0000
3001
1000
0001
,  // measure 38
0001
0100
0010
1000
0001
2000
0000
3100
,  // measure 39
0001
0100
0010
0001
0000
0001
2000
0000
,  // measure 40
3010
0100
1000
0100
0001
0020
0000
0130
,  // measure 41
0001
0100
0010
0002
0000
1003
0001
1000
,  // measure 42
1000
0000
0010
0000
1000
0000
0100
0000
0010
0000
0001
0000
1000
0000
0010
0100
,  // measure 43
0020
1330
2010
3002
,  // measure 44
1003
0100
1000
0100
0010
0000
0001
1000
,  // measure 45
0000
0000
0001
0000
0100
0000
0010
0000
0100
0000
0000
0100
0000
0000
0100
0000
,  // measure 46
0010
0000
0000
0010
0000
0000
0010
0000
1000
0000
0001
0000
0010
0000
0010
0000
,  // measure 47
0000
0001
0100
0010
2020
0000
3330
0000
,  // measure 48
0001
0010
0001
0010
0100
0000
1000
0001
,  // measure 49
0000
0000
1000
0000
0010
0000
0100
0000
0010
0000
0000
0010
0000
0000
0010
0000
,  // measure 50
0100
0000
0100
0000
0001
0000
0001
0000
1000
0000
0100
0010
0200
0000
0000
0000
,  // measure 51
1330
0001
0100
0000
2002
0000
3303
0000
,  // measure 52
0001
0100
0001
0100
0120
0000
0001
0001
,  // measure 53
0000
0000
1030
0000
0001
0000
1000
0000
0100
0000
0000
0001
0000
0000
0100
0000
,  // measure 54
1000
0000
0000
0010
0000
0000
0100
0000
0001
0000
1000
0000
0001
0000
0001
0000
,  // measure 55
0000
1000
0100
0010
0022
0000
0030
0000
,  // measure 56
1003
0010
1000
0010
0210
0000
1000
1000
,  // measure 57
0000
0000
0301
0000
1000
0000
0001
0000
0010
0000
0000
1000
0000
0000
0010
0000
,  // measure 58
0001
0000
0100
0010
0100
0000
0001
0000
0010
0000
0100
0000
1000
0000
1000
0000
,  // measure 59
0010
0100
0110
0000
2002
0000
3003
0000
,  // measure 60
1001
0000
0000
0000
0000
0000
0101
0101
,  // measure 61
0000
0110
0000
1010
0000
0000
0000
0000
,  // measure 62
1001
0000
0000
0000
0000
0000
1100
1100
,  // measure 63
0000
0110
0000
0011
2000
0000
3002
0000
,  // measure 64
0103
0010
1000
0100
0010
0001
0100
0100
,  // measure 65
1000
0100
0010
0100
0002
0000
1003
0000
,  // measure 66
0001
0010
0100
1000
0001
0100
0010
0010
,  // measure 67
0001
0010
0100
0010
2000
0000
3001
0000
,  // measure 68
2002
0000
0000
0000
,  // measure 69
0000
0000
0000
0000
,  // measure 70
0000
0000
0000
0000
,  // measure 71
3003
0000
0000
0000
0110
0000
0000
0000
0000
0000
0001
1000
0001
0000
0100
0000
,  // measure 72
0020
0000
1030
1000
0010
1000
1000
0010
,  // measure 73
1000
1000
0001
1000
1000
0001
0100
0001
,  // measure 74
1000
0100
0010
0001
0100
0010
0010
0100
,  // measure 75
0010
0010
0001
0010
0010
1000
0100
0010
,  // measure 76
0001
1000
0001
0001
0100
0001
0001
0100
,  // measure 77
0001
0001
1000
0001
0001
1000
0010
1000
,  // measure 78
0001
0010
0100
1000
0010
0100
0100
0010
,  // measure 79
0100
0100
1000
0100
0100
0001
0010
0100
,  // measure 80
2000
0000
3001
0100
1000
1000
0100
0001
,  // measure 81
0001
0100
1000
1000
0100
0001
0001
1000
,  // measure 82
0100
0001
1000
0010
0001
0001
0010
1000
,  // measure 83
1000
0010
0001
0001
0010
1000
0001
0100
,  // measure 84
1000
0001
1000
0010
0001
0001
0010
1000
,  // measure 85
1000
0010
0001
0001
0010
1000
0001
0010
,  // measure 86
0100
1000
0010
0100
0001
0001
0100
1000
,  // measure 87
1000
0100
0001
0001
0010
0100
1000
0001
,  // measure 88
1000
0100
0020
0000
1000
0000
0001
0000
,  // measure 89
0130
0000
0010
0001
0200
0000
0310
0000
,  // measure 90
0000
0200
0001
1000
,  // measure 91
0310
0000
0100
0001
0020
0000
0130
0000
,  // measure 92
0000
0000
1000
0100
1000
0100
0010
0001
,  // measure 93
1000
0010
0100
0001
2000
0000
3001
0000
,  // measure 94
0000
0000
0001
0010
0001
0010
0100
1000
,  // measure 95
0001
0100
0010
1000
0002
0000
1003
0100
,  // measure 96
1000
0001
1000
0000
0001
0000
0000
0000
0000
0000
0000
0000
0000
0000
0000
0000
;

//---------------dance-single - ----------------
#NOTES:
     dance-single:
     :
     Beginner:
     4:
     0.170462,0.247875,0.163104,0.017169,0.000000,139.000000,120.000000,19.000000,2.000000,0.000000,0.000000,0.170462,0.247875,0.163104,0.017169,0.000000,139.000000,120.000000,19.000000,2.000000,0.000000,0.000000:
// measure 0
0000
0000
0000
0000
,  // measure 1
0000
0000
0000
0000
,  // measure 2
0000
0000
0000
0000
,  // measure 3
0000
0000
0000
0000
,  // measure 4
1000
0000
0001
0000
,  // measure 5
0000
0000
0000
0000
,  // measure 6
0001
0000
1000
0000
,  // measure 7
0000
0000
0000
0000
,  // measure 8
0100
0000
0010
0000
,  // measure 9
0000
0000
0000
0000
,  // measure 10
0010
0000
0100
0000
,  // measure 11
0000
0000
0000
0000
,  // measure 12
1001
0000
0000
0001
,  // measure 13
0001
0000
0000
0000
,  // measure 14
1000
0000
0000
0000
,  // measure 15
0010
0000
0000
0000
,  // measure 16
0100
0000
0000
0010
,  // measure 17
0010
0000
0000
0000
,  // measure 18
1000
0000
0000
0000
,  // measure 19
0001
0000
0000
0000
,  // measure 20
1001
0000
0000
0001
,  // measure 21
0001
0000
0000
0000
,  // measure 22
0010
0000
0000
0000
,  // measure 23
0100
0000
0000
0000
,  // measure 24
1000
0000
0000
0010
,  // measure 25
0010
0000
0000
0000
,  // measure 26
0100
0000
0000
0000
,  // measure 27
0110
0000
0000
0000
,  // measure 28
1001
0000
0000
1000
,  // measure 29
0010
0000
0000
1000
,  // measure 30
0100
0000
0000
1000
,  // measure 31
0001
0000
0000
0001
,  // measure 32
0001
0000
0000
0001
,  // measure 33
0010
0000
0000
0001
,  // measure 34
0100
0000
0000
0001
,  // measure 35
1000
0000
0000
0000
,  // measure 36
0110
0000
0000
0010
,  // measure 37
0010
0000
0000
0100
,  // measure 38
0100
0000
0000
0100
,  // measure 39
0010
0000
0000
0010
,  // measure 40
0100
0000
0000
0100
,  // measure 41
0010
0000
0000
0010
,  // measure 42
0100
0000
0000
0000
,  // measure 43
1001
0000
0000
0000
,  // measure 44
1001
0000
0000
0000
,  // measure 45
1000
0000
0000
0000
,  // measure 46
0001
0000
0000
0000
,  // measure 47
1000
0000
0000
0000
,  // measure 48
1001
0000
0000
0000
,  // measure 49
0001
0000
0000
0000
,  // measure 50
1000
0000
0000
0000
,  // measure 51
0001
0000
0000
0000
,  // measure 52
0110
0000
0000
0000
,  // measure 53
0010
0000
0000
0000
,  // measure 54
0100
0000
0000
0000
,  // measure 55
0010
0000
0000
0000
,  // measure 56
0110
0000
0000
0000
,  // measure 57
0100
0000
0000
0000
,  // measure 58
0010
0000
0000
0000
,  // measure 59
0100
0000
0000
0000
,  // measure 60
1001
0000
0000
0000
,  // measure 61
0000
0000
0000
0000
,  // measure 62
1001
0000
0000
0000
,  // measure 63
0000
0000
0000
0000
,  // measure 64
0110
0000
0000
0000
,  // measure 65
0000
0000
0000
0000
,  // measure 66
0110
0000
0000
0000
,  // measure 67
0000
0000
0000
0000
,  // measure 68
2002
0000
0000
0000
,  // measure 69
0000
0000
0000
0000
,  // measure 70
0000
0000
0000
0000
,  // measure 71
3003
1001
0000
0000
,  // measure 72
0000
1000
0000
0000
,  // measure 73
1000
0010
0000
0000
,  // measure 74
0010
0100
0000
0000
,  // measure 75
0100
0001
0000
0000
,  // measure 76
0001
0010
0000
0000
,  // measure 77
0010
0100
0000
0000
,  // measure 78
0100
1000
0000
0000
,  // measure 79
1000
0001
0000
0000
,  // measure 80
1000
1001
0000
0000
,  // measure 81
0001
0010
0000
0000
,  // measure 82
0010
0100
0000
0000
,  // measure 83
0100
1000
0000
0000
,  // measure 84
1000
0010
0000
0000
,  // measure 85
0010
0100
0000
0000
,  // measure 86
0100
0001
0000
0000
,  // measure 87
0001
1000
0000
0001
,  // measure 88
0000
1001
0000
0000
,  // measure 89
0000
1000
0000
0000
,  // measure 90
0000
0010
0000
0000
,  // measure 91
0000
0100
0000
0000
,  // measure 92
0000
0001
0000
0000
,  // measure 93
0000
0010
0000
0000
,  // measure 94
0000
0100
0000
0000
,  // measure 95
0000
1000
0000
0000
,  // measure 96
0000
1001
0000
0000
;

//---------------dance-single - ----------------
#NOTES:
     dance-single:
     :
     Easy:
     7:
     0.300455,0.371813,0.085844,0.257533,0.000000,245.000000,235.000000,10.000000,30.000000,0.000000,0.000000,0.300455,0.371813,0.085844,0.257533,0.000000,245.000000,235.000000,10.000000,30.000000,0.000000,0.000000:
// measure 0
0000
0000
0000
0000
,  // measure 1
0000
0000
0000
0000
,  // measure 2
0000
0000
0000
0000
,  // measure 3
0000
0000
0000
0000
,  // measure 4
1000
1000
1000
1000
,  // measure 5
0000
0000
0000
0000
,  // measure 6
0001
0001
0001
0001
,  // measure 7
0000
0000
0000
0000
,  // measure 8
0100
0100
0100
0100
,  // measure 9
0000
0000
0000
0000
,  // measure 10
0010
0010
0010
0010
,  // measure 11
0000
0000
0000
0000
,  // measure 12
1000
0000
0000
1000
0000
0000
1000
0000
,  // measure 13
1000
0100
0010
0000
,  // measure 14
0001
0000
0000
0001
0000
0000
0001
0000
,  // measure 15
0001
0100
0010
0000
,  // measure 16
1000
0000
0000
1000
0000
0000
1000
0000
,  // measure 17
1000
0010
0100
0000
,  // measure 18
0001
0000
0000
0001
0000
0000
0001
0000
,  // measure 19
0001
0010
0100
0000
,  // measure 20
1000
0100
0010
0001
,  // measure 21
1000
0010
0100
0000
,  // measure 22
0001
0100
0010
1000
,  // measure 23
0100
0010
0001
0000
,  // measure 24
1000
1000
0001
0001
,  // measure 25
0100
0010
1000
0000
,  // measure 26
0001
0001
1000
1000
,  // measure 27
2002
0000
0000
3003
,  // measure 28
1000
0000
0010
0000
0000
0010
0000
0000
,  // measure 29
0100
0000
0000
0100
0000
0000
0001
0000
,  // measure 30
0000
0000
1000
0000
0000
1000
0000
0000
,  // measure 31
0100
0000
0000
0100
0000
0000
0010
0000
,  // measure 32
0000
0000
0001
0000
0000
0001
0000
0000
,  // measure 33
0100
0000
0000
0100
0000
0000
0010
0000
,  // measure 34
0000
0000
1000
0000
0000
1000
0000
0000
,  // measure 35
0010
0000
0000
0010
0000
0000
0100
0000
,  // measure 36
0001
0000
1000
0000
0000
0100
0000
0000
,  // measure 37
0010
0000
0000
0001
0000
0000
1000
0000
,  // measure 38
0010
0000
0100
0000
0000
0100
0000
0000
,  // measure 39
0010
0000
0000
0010
0000
0000
1000
0000
,  // measure 40
0001
0000
0010
0000
0000
0100
0000
0000
,  // measure 41
1000
0000
0000
0001
0000
0000
1000
0000
,  // measure 42
0001
0000
0100
0000
0000
0100
0000
0000
,  // measure 43
0010
0000
0000
0010
0000
0000
1000
0000
,  // measure 44
0002
0000
0003
0000
,  // measure 45
0001
0010
0100
0000
,  // measure 46
1000
0010
0100
0000
,  // measure 47
0010
0010
1000
0000
,  // measure 48
2000
0000
3000
0000
,  // measure 49
1000
0100
0010
0000
,  // measure 50
0100
0100
0010
0010
,  // measure 51
0001
1000
0001
0000
,  // measure 52
2000
0000
3000
0000
,  // measure 53
1000
0010
0100
0000
,  // measure 54
0001
1000
0100
0000
,  // measure 55
0010
0010
0001
0000
,  // measure 56
0002
0000
0003
0000
,  // measure 57
0001
0010
0100
0000
,  // measure 58
1000
1000
0010
0000
,  // measure 59
0100
0100
0010
0000
,  // measure 60
1001
0000
0000
0000
0000
0000
0000
1000
,  // measure 61
0000
0001
0000
0100
0000
0000
0000
0000
,  // measure 62
1001
0000
0000
0000
0000
0000
0000
0001
,  // measure 63
0000
1000
0000
0100
0000
0000
0000
0000
,  // measure 64
1001
0000
0000
0000
0000
0000
0000
1000
,  // measure 65
0000
0001
0000
0010
0000
0000
0000
0000
,  // measure 66
1001
0000
0000
0000
0000
0000
0000
0001
,  // measure 67
0000
1000
0000
0010
0000
0000
0000
0000
,  // measure 68
2002
0000
0000
0000
,  // measure 69
0000
0000
0000
0000
,  // measure 70
0000
0000
0000
0000
,  // measure 71
3003
0110
0000
0000
,  // measure 72
0000
0000
1000
0000
0100
0000
0000
0100
,  // measure 73
0000
0000
0010
0000
0000
0010
0000
0000
,  // measure 74
0001
0000
1000
0000
0010
0000
0000
0010
,  // measure 75
0000
0000
0100
0000
0000
0100
0000
0000
,  // measure 76
0001
0000
1000
0000
0100
0000
0000
0010
,  // measure 77
0000
0000
0001
0000
0000
1000
0000
0000
,  // measure 78
0010
0000
0100
0000
0010
0000
0000
1000
,  // measure 79
0000
0000
0001
0000
0000
0010
0000
0000
,  // measure 80
0100
0000
1000
0000
0002
0000
0000
0203
,  // measure 81
0000
0000
0320
0000
0000
2030
0000
0000
,  // measure 82
3001
0000
1000
0000
0200
0000
0000
0320
,  // measure 83
0000
0000
0032
0000
0000
2003
0000
0000
,  // measure 84
3010
0000
0100
0000
0002
0000
0000
2003
,  // measure 85
0000
0000
3200
0000
0000
0320
0000
0000
,  // measure 86
0031
0000
1000
0000
0020
0000
0000
0230
,  // measure 87
0000
0000
0302
0000
0000
2003
0000
0000
,  // measure 88
3100
2002
0000
0000
,  // measure 89
3003
1000
0001
0100
,  // measure 90
0000
2002
0000
0000
,  // measure 91
3003
0001
1000
0100
,  // measure 92
0000
2000
0000
3000
,  // measure 93
0000
1000
0100
0010
,  // measure 94
0000
0002
0000
0003
,  // measure 95
0000
0001
0100
0010
,  // measure 96
0000
1001
0000
0000
;

//---------------dance-single - ----------------
#NOTES:
     dance-single:
     :
     Medium:
     10:
     0.528556,0.661001,0.446390,0.721092,0.000000,431.000000,379.000000,52.000000,84.000000,0.000000,0.000000,0.528556,0.661001,0.446390,0.721092,0.000000,431.000000,379.000000,52.000000,84.000000,0.000000,0.000000:
// measure 0
0000
0000
0000
0000
,  // measure 1
0000
0000
0000
0000
,  // measure 2
0000
0000
0000
0000
,  // measure 3
0000
0000
0000
0000
,  // measure 4
1000
0100
1100
1100
,  // measure 5
0000
0000
0000
0000
,  // measure 6
0001
0100
0101
0101
,  // measure 7
0000
0000
0000
0000
,  // measure 8
1000
0010
1010
1010
,  // measure 9
0000
0000
0000
0000
,  // measure 10
0001
0010
0011
0011
,  // measure 11
2000
0000
0000
3001
,  // measure 12
1002
0000
0000
0203
0000
0000
0310
0000
,  // measure 13
1000
0001
0000
0001
0200
0000
0320
0000
,  // measure 14
1030
0100
0000
1100
0000
0110
0000
0011
,  // measure 15
0000
1001
0000
0001
0200
0000
0310
0000
,  // measure 16
2001
0000
0000
3020
0000
0000
0130
0000
,  // measure 17
0001
1000
0000
1000
0020
0000
0230
0000
,  // measure 18
0301
0010
0000
0011
0000
0110
0000
1100
,  // measure 19
0000
1001
0000
1000
0020
0000
0130
0000
,  // measure 20
0101
0000
1000
0100
0000
0100
0010
0000
,  // measure 21
0001
1000
0001
0000
0100
0000
0010
0000
,  // measure 22
1000
0100
0000
1100
0000
0110
0000
0011
,  // measure 23
0000
1001
0000
0001
0100
0001
1000
0000
,  // measure 24
1010
0000
0001
0010
0000
0010
0100
0000
,  // measure 25
1000
0010
0000
0100
0000
0001
1000
0000
,  // measure 26
0001
0010
0001
0000
1000
0010
1000
0000
,  // measure 27
0002
0023
0230
2300
,  // measure 28
3001
0000
0102
0000
0000
2003
0000
0000
,  // measure 29
3200
0000
0000
0310
0000
0001
1000
0000
,  // measure 30
0010
0000
1020
0000
0000
0230
0000
0000
,  // measure 31
0302
0000
0000
2003
0000
3100
0010
0000
,  // measure 32
0001
1000
0020
0000
0130
0020
0000
1030
,  // measure 33
0200
0000
1300
0200
0000
0310
0001
0000
,  // measure 34
1000
0001
0200
0000
0310
0200
0000
0301
,  // measure 35
0020
0000
0130
0020
0000
0031
1000
0000
,  // measure 36
0001
0100
0001
0000
1000
0100
0000
0100
,  // measure 37
0010
0000
0010
0001
0000
1000
0001
0000
,  // measure 38
1000
0010
1000
0000
0001
0100
0000
0100
,  // measure 39
0010
0000
0010
1000
0000
0001
1000
0000
,  // measure 40
0001
0010
0200
0000
1300
0002
0000
1303
,  // measure 41
0020
0000
1033
0200
0000
1333
0020
0000
,  // measure 42
1333
0100
0020
0000
0031
2000
0000
3031
,  // measure 43
0200
0000
3301
0020
0000
3130
1000
0000
,  // measure 44
2002
0000
0003
0000
3010
0000
1000
0100
,  // measure 45
0000
0100
0010
0000
0001
0000
0000
0000
,  // measure 46
1000
0000
0010
0000
0100
0010
0100
0010
,  // measure 47
0000
1000
0100
0000
2200
0000
3300
0000
,  // measure 48
2002
0000
3000
0000
0103
0000
0001
0010
,  // measure 49
0000
0010
0100
0000
1000
0000
0000
0000
,  // measure 50
0001
0100
0001
0100
0010
1000
0001
0000
,  // measure 51
1000
0110
2002
3003
,  // measure 52
1000
0100
1000
0100
0010
0000
0001
1000
,  // measure 53
0000
1000
0001
0000
0200
0000
0320
0000
,  // measure 54
1030
0000
0001
0000
1000
0100
0010
0001
,  // measure 55
0000
0010
2002
3003
,  // measure 56
0001
0100
0001
0100
0010
0000
1000
0001
,  // measure 57
0000
0001
1000
0000
0200
0000
0320
0000
,  // measure 58
0331
0100
3001
0000
1000
0100
1000
0000
,  // measure 59
0001
0100
0010
0000
2002
0000
3003
0000
,  // measure 60
1001
0000
0000
0000
0000
0000
1000
1000
,  // measure 61
0000
1100
0000
1001
0000
0000
0000
0000
,  // measure 62
1001
0000
0000
0000
0000
0000
0001
0001
,  // measure 63
0000
0101
0000
1001
0000
0000
0000
0000
,  // measure 64
1001
0000
0000
0000
0000
0000
1000
1010
,  // measure 65
0000
0110
0000
0101
0000
0000
0000
0000
,  // measure 66
1001
0000
0000
0000
0000
0000
0001
0011
,  // measure 67
0000
0110
0000
1100
0000
0000
0000
0000
,  // measure 68
2002
0000
0000
0000
,  // measure 69
0000
0000
0000
0000
,  // measure 70
0000
0000
0000
0000
,  // measure 71
3003
0110
0000
0002
,  // measure 72
2003
0000
3001
0100
0010
0000
1000
0100
,  // measure 73
0000
0100
0010
0000
0001
0100
0000
0100
,  // measure 74
0010
0000
1000
0001
0010
0000
0001
0010
,  // measure 75
0000
0010
0100
0000
1000
0010
0000
0010
,  // measure 76
0100
0000
0001
0100
0020
0000
1030
0002
,  // measure 77
0000
1003
0200
0000
1300
0002
0000
1003
,  // measure 78
0020
0000
0130
0001
2000
0000
3001
0020
,  // measure 79
0000
0031
0200
0000
0301
2000
0000
3010
,  // measure 80
0200
0000
0301
1000
0100
1000
0001
0200
,  // measure 81
0000
0000
0310
0000
1000
0100
0000
0010
,  // measure 82
0001
0000
1030
0001
0100
0001
1000
0200
,  // measure 83
0000
0000
0310
0000
0001
0100
0000
0010
,  // measure 84
1000
0000
0001
0100
0001
0100
0010
1000
,  // measure 85
0001
2000
3100
0020
,  // measure 86
0031
0000
1000
0010
1000
0010
0100
0001
,  // measure 87
1000
0002
0023
0230
,  // measure 88
1300
2002
0000
0000
,  // measure 89
3000
1000
0200
0303
,  // measure 90
0000
2002
0000
0000
,  // measure 91
0003
0003
0001
0000
0200
0000
3300
0000
,  // measure 92
0000
1000
0001
0100
,  // measure 93
0010
1000
0002
1003
,  // measure 94
0000
0001
0010
0100
,  // measure 95
1000
0010
2000
3001
,  // measure 96
0100
1001
0000
0000
;

//---------------dance-double - ----------------
#NOTES:
     dance-double:
     :
     Hard:
     14:
     0.697791,0.743626,0.566572,0.635248,0.030045,569.000000,503.000000,66.000000,74.000000,0.000000,0.000000,0.697791,0.743626,0.566572,0.635248,0.030045,569.000000,503.000000,66.000000,74.000000,0.000000,0.000000:
00000000
00000000
00000000
00000000
,
00000000
00000000
00000000
00000000
,
00000000
00000000
00000000
00000000
,
00000000
00000000
00000000
00000000
,
00010100
00010100
00010100
00010100
,
00000100
00010000
00002000
00000000
01003000
00000000
00000000
00000000
,
01001000
01001000
01001000
01020000
,
10030000
01000000
00100000
00000000
00202000
00000000
00303000
00000000
,
00011000
00000000
00011000
00000000
00011000
00000000
00010000
00000020
,
00000000
00000130
00000001
00001000
00000200
00000000
00010300
00000000
,
00011000
00000000
00011000
00000000
00001000
01000000
00100000
10000000
,
00010000
00000000
00000000
01100000
,
10010000
00000000
00000000
10100000
00000000
00000000
01010000
00000000
,
00010000
10010000
00000000
10000000
01000000
00010000
00002000
00000000
,
00013000
00010010
00000000
00011000
00000000
00101000
00000000
00011000
,
00000000
00010100
00000000
00010000
00001000
00000100
00000010
00001000
,
00001001
00000000
00000000
00000101
00000000
00000000
00001010
00000000
,
00001000
00001001
00000000
00000001
00000010
00001000
00020000
00000000
,
00031000
01001000
00000000
00011000
00000000
00010100
00000000
00011000
,
00000000
00101000
00000000
00001000
00010000
00100000
01000000
00010000
,
20000000
00000000
30010000
02000000
00000000
13000000
01000000
00010000
,
00100000
00200000
00000000
10300000
00100000
00001000
00020000
00000000
,
00031000
01001000
00000000
01100000
00000000
01001000
00000000
00011000
,
00000000
00010200
00000030
00000310
00000001
00001000
00000001
00000000
,
00001002
00000000
00001003
00000020
00000000
00000031
00000010
00001000
,
00000100
00000200
00000000
00000301
00000100
00010000
00010000
00001000
,
01000000
01000000
00100000
00100000
10000000
01000000
00010000
01000000
,
20000000
30020000
00032000
00003002
,
00001003
00000010
00000002
00000000
00000013
00000200
00000000
00000301
,
00000020
00000000
00000130
00020000
00000000
00031000
02000000
00000000
,
03010000
00100000
20000000
00000000
30100000
02000000
00000000
13000000
,
00200000
00000000
01300000
00002000
00000000
00013000
00000200
00000000
,
00001300
00000010
00000002
00000000
00000013
00002000
00000000
00003100
,
00020000
00000000
00031000
00200000
00000000
01300000
20000000
00000000
,
30010000
01000000
20000000
00000000
31000000
03020000
00000000
00130000
,
00002000
00000000
00013000
00000020
00000000
00000130
00000001
00001000
,
00000001
00000010
00001000
00000010
00000100
00020000
00000000
00031000
,
01000000
00100000
01000000
00020000
00000000
10030000
01000000
00100000
,
00001000
00010000
00001000
01000000
00100000
02000000
00000000
03001000
,
00020000
00000000
01030000
20000000
00000000
30100000
01000000
00010000
,
10000000
01000000
00010000
01000000
00100000
00002000
00000000
00013000
,
00000010
00000100
00000010
00002000
00000000
00003001
00000010
00000100
,
00010000
00001000
00010000
00000010
00000100
00000020
00000000
00010030
,
00002000
00000000
00203000
00000000
00300020
00000300
00020030
00000000
,
00031000
00010000
00001000
00010000
01000000
00000000
10000000
00100000
,
00000000
00000000
01000000
00000000
00100000
00000000
01000000
00000000
00001000
00000000
00000000
00001000
00000000
00000000
00001000
00000000
,
00010000
00000000
00000000
00010000
00000000
00000000
00010000
00000000
00000100
00000000
00000010
00000000
00001000
00000000
00000020
00000000
,
00000000
00000031
00000100
00001000
00020000
00000000
00030000
00000000
,
00013000
00001000
00010000
00001000
00000010
00000000
00000001
00000100
,
00000000
00000000
00000010
00000000
00000100
00000000
00000010
00000000
00010000
00000000
00000000
00010000
00000000
00000000
00010000
00000000
,
00001000
00001000
01000000
01000000
00100000
10000000
00010000
00000000
,
10000000
01000000
00100000
00000000
20020000
00000000
30030000
00000000
,
10000000
00100000
00010000
00100000
10000000
00000000
00010000
00100000
,
00000000
00000000
00001000
00000000
01000000
00000000
00001000
00000000
00010000
00000000
00000000
00000100
00000000
00000000
00000010
00000000
,
00000001
00000000
00000000
00001000
00000000
00000000
00000001
00000000
00000100
00000000
00000010
00000000
00000100
00000000
00002000
00000000
,
00000000
00013000
00000100
00000010
00000002
00000000
00000003
00000000
,
00000001
00000010
00001000
00000010
00000001
00000000
00001000
00000010
,
00000000
00000000
00010000
00000000
00000100
00000000
00010000
00000000
00001000
00000000
00000000
00100000
00000000
00000000
01000000
00000000
,
10000000
00010000
10000000
00100000
01000000
00000000
00010000
00010000
,
00100000
03001000
00010000
00000000
00022000
00000000
00033000
00000000
,
00011000
00000000
00000000
00000000
00000000
00000000
00101000
00101000
,
00000000
01100000
00000000
00101000
00000000
00000000
00000000
00000000
,
00011000
00000000
00000000
00000000
00000000
00000000
00010010
00010010
,
00000000
00000110
00000000
00010010
00000000
00000000
00000000
00000000
,
00011000
00000000
00000000
00000000
00000000
00000000
10010000
10010000
,
00000000
01100000
00000000
10010000
00000000
00000000
00000000
00000000
,
00011000
00000000
00000000
00000000
00000000
00000000
00001001
00001001
,
00000000
00000110
00000000
00001001
00002000
00000000
00003100
00000000
,
00022300
00000000
00000000
00000000
,
00000000
00000000
00000000
00000000
,
00000000
00000000
00000000
00000000
,
00033000
00000000
00000000
00000000
01000100
00000000
00000000
00000000
00000000
00000000
00001000
00010000
00001000
00000000
00000000
00000000
,
00020000
00000000
00031000
00001000
01000000
00001000
00001000
01000000
,
00001000
00001000
00100000
00001000
00001000
00100000
01000000
10000000
,
00100000
01000000
00010000
10000000
01000000
00100000
00100000
10000000
,
00100000
00100000
00010000
10000000
10000000
00010000
01000000
00100000
,
00010000
00001000
00013000
00010000
00000100
00010000
00010000
00000100
,
00010000
00010000
00000010
00010000
00010000
00000010
00000100
00000001
,
00000010
00000100
00001000
00000001
00000100
00000010
00000010
00000001
,
00000010
00000010
00001000
00000001
00000001
00001000
00000100
00000010
,
00002000
00000000
00013000
01000000
10000000
10000000
01000000
00010000
,
00010000
01000000
10000000
10000000
00100000
00010000
00001000
00100000
,
00001000
00010000
00031000
00000100
00000001
00000001
00000100
00001000
,
00001000
00000100
00000001
00000001
00000010
00001000
00010000
00000010
,
00010000
00001000
00013000
00000010
00000100
00000100
00001000
00010000
,
00010000
00100000
10000000
10000000
01000000
00100000
00001000
00010000
,
00100000
00010000
00001000
00100000
01000000
01000000
00010000
00001000
,
00001000
00000010
00000002
00000000
00002003
00000000
00023000
00000000
,
20030000
30200000
00000000
00010000
,
20300000
00000000
30010000
00100000
00001000
00000000
00011000
00000000
,
00000000
00000021
00000000
00001000
,
00000032
00000000
00001003
00000010
00010003
00000000
00011000
00000000
,
00000000
00000000
00001000
01000000
00001000
00000000
01000000
00100000
,
01000000
00000000
00100000
00010000
00002000
00000000
00013000
00000000
,
00000000
00000000
00010000
00000100
00010000
00000000
00000100
00000010
,
00000100
00000000
00000010
00001000
00020000
00000000
00031000
01000000
,
00100000
10000000
00010000
00000000
00000000
00000000
00000000
00000000
;

//---------------dance-double - ----------------
#NOTES:
     dance-double:
     :
     Medium:
     11:
     0.499123,0.537063,0.403468,0.875612,0.000000,407.000000,360.000000,47.000000,102.000000,0.000000,0.000000,0.499123,0.537063,0.403468,0.875612,0.000000,407.000000,360.000000,47.000000,102.000000,0.000000,0.000000:
00000000
00000000
00000000
00000000
,
00000000
00000000
00000000
00000000
,
00000000
00000000
00000000
00000000
,
00000000
00000000
00000000
00000000
,
00101000
00101000
00101000
00101000
,
00000000
00000000
00000000
00000000
,
00010010
00010010
00010010
00010010
,
00000000
00000000
00000000
00000000
,
01001000
01001000
01001000
01001000
,
00000000
00000000
00000000
00000000
,
00010100
00010100
00010100
00010100
,
00000000
00000000
00000000
00000000
,
00011000
00000000
00000000
00101000
00000000
00000000
00011000
00000000
,
00010000
00000010
00000000
00000010
00000100
00000000
00000001
00000000
,
00001000
00000200
00000000
00000302
00000000
00000203
00000000
00002300
,
00000000
00003020
00000000
00010030
00002000
00000000
00103000
00000000
,
00011000
00000000
00000000
00010100
00000000
00000000
00011000
00000000
,
00001000
01000000
00000000
01000000
00100000
00000000
10000000
00000000
,
00010000
00200000
00000000
20300000
00000000
30200000
00000000
00320000
,
00000000
02030000
00000000
03001000
00020000
00000000
00030100
00000000
,
00001001
00000000
00000001
00000100
00000000
00000100
00000010
00000000
,
00001000
00000100
00001000
00000000
00000100
00000000
00010000
00000000
,
00001000
02000000
00000000
03200000
00000000
02300000
00000000
03020000
,
00000000
00230000
00000000
01300000
10000000
00010000
01000000
00000000
,
10010000
00000000
10000000
01000000
00000000
01000000
00100000
00000000
,
00001000
00020000
00000000
00230000
00000000
00310000
00001000
00000000
,
00010000
00000100
00010000
00000000
00000100
00000010
00000001
00000000
,
00002002
00000000
00000000
00003003
,
00000001
00000100
00000020
00000000
00001030
00000200
00000000
00000000
,
00020300
00000000
00031000
01000000
00000000
01000000
00100000
00000000
,
10000000
01000000
00200000
00000000
03310000
02000000
00000000
00000000
,
03302000
00000000
00013000
00000100
00000000
00000100
00000010
00000000
,
00000001
00001000
00000002
00000000
00000103
00000020
00000000
00000000
,
00010030
00000000
00001000
00100000
00001000
00000000
00100000
01000000
,
10000000
00010000
20000000
00000000
30100000
02000000
00000000
00000000
,
03001000
00000000
00010000
00000100
00010000
00000000
00000100
00000010
,
00000001
00000000
00000101
00000000
00000100
00000010
00001000
00000000
,
00000200
00000000
00010300
00002000
00000000
01003000
00020000
00000000
,
10030000
00000000
10100000
00000000
00100000
01000000
00010000
00000000
,
00200000
00000000
00301000
00020000
00000000
00030010
00002000
00000000
,
00003001
00000100
00000020
00000000
00001030
00000100
00002000
00000000
,
00003230
00000000
00010300
00002000
00000000
01003000
00020000
00000000
,
10030000
01000000
00100000
00000000
00010000
01000000
00010000
00000000
,
20010000
32000000
03200000
00301000
,
00022000
00000000
00003000
00000000
00031000
00000000
00010000
00000020
,
00000000
00000130
00000110
00000000
,
00000001
00000100
00000001
00000000
00001000
00000100
00001000
00000000
,
00000200
00010300
00020200
00033300
,
00022000
00000000
00030000
00000000
00013000
00000000
00001000
02000000
,
00000000
03100000
01100000
00000000
,
10000000
00100000
10000000
00000000
00010000
00100000
00010000
00000000
,
00200000
00301000
00202000
00333000
,
00001000
00010000
00001000
00010000
00001000
00000000
10000000
00010000
,
00000000
00000000
20020000
30030000
,
10000000
00000000
01000000
00000000
00100000
00010000
00100000
00000000
,
00020000
01030000
02002000
03003000
,
00010000
00001000
00010000
00001000
00010000
00000000
00000001
00001000
,
00000000
00000000
00002002
00003003
,
00000001
00000000
00000010
00000000
00000100
00001000
00000100
00000000
,
00002000
00003010
00020020
00030030
,
00022000
00000000
00033000
00000000
00000000
00000000
00100000
00001000
,
00000000
00100000
00000000
00001000
00000000
00000000
00000000
00000000
,
00022000
00000000
00033000
00000000
00000000
00000000
00000010
00001000
,
00000000
00000010
00000000
00001000
00000000
00000000
00000000
00000000
,
00022000
00000000
00033000
00000000
00000000
00000000
00100000
00000010
,
00000000
00100000
00000000
00000010
00000000
00000000
00000000
00000000
,
00022000
00000000
00033000
00000000
00000000
00000000
01000000
00000100
,
00000000
01000000
00000000
00000100
00000000
00000000
00000000
00000000
,
00022000
00000000
00000000
00000000
,
00000000
00000000
00000000
00000000
,
00000000
00000000
00000000
00000000
,
00033000
20020000
00000000
00000000
,
30030000
00000000
10000000
01000000
10000000
00000000
00010000
01000000
,
00000000
01000000
00010000
00000000
10000000
01000000
00000000
01000000
,
00100000
00000000
00010000
00000000
01000000
00000000
00001000
00010000
,
00001000
00010000
00000100
00000010
,
00001001
00000000
00000001
00000010
00000001
00000000
00001000
00000010
,
00000000
00000010
00001000
00000000
00000001
00000010
00000000
00000010
,
00000100
00000000
00001000
00000000
00000010
00000000
00010000
00001000
,
00010000
00001000
00100000
01000000
,
10010000
00000000
10000000
01000000
10000000
01000000
00100000
00020000
,
00000000
00000000
02030000
00000000
03001000
00020000
00000000
00030100
,
00000020
00000000
00000031
00000100
00000001
00000100
00000010
00002000
,
00000000
00000000
00003200
00003000
00010300
00002000
00000000
01003000
,
00200000
00000000
10300000
00010000
10000000
00010000
00100000
00002000
,
00000000
00000000
00023000
00000000
00000000
00030020
00000000
00000000
,
00000230
00000000
00000301
00001000
00000001
00001000
00000100
00020000
,
00000000
00032000
02003000
03200000
,
10300000
20020000
00000000
30030000
,
00000000
10000000
00020000
00130000
,
00000000
00002000
00000000
00003000
,
00000000
00010000
00000020
00000130
,
00000000
00000001
00000100
00000010
,
00001000
00000100
00020000
00031000
,
00000000
00100000
00010000
10000000
,
00100000
01000000
00002000
00013000
,
00001000
00010000
00001000
00000000
00000000
00000000
00000000
00000000
;

//---------------dance-double - ----------------
#NOTES:
     dance-double:
     :
     Easy:
     8:
     0.320077,0.413126,0.163104,0.506481,0.000000,261.000000,242.000000,19.000000,59.000000,0.000000,0.000000,0.320077,0.413126,0.163104,0.506481,0.000000,261.000000,242.000000,19.000000,59.000000,0.000000,0.000000:
00000000
00000000
00000000
00000000
,
00000000
00000000
00000000
00000000
,
00000000
00000000
00000000
00000000
,
00000000
00000000
00000000
00000000
,
00010000
00010000
00001000
00001000
,
00000000
00000000
00000000
00000000
,
00100000
00100000
00001000
00001000
,
00000000
00000000
00000000
00000000
,
00001000
00001000
00010000
00010000
,
00000000
00000000
00000000
00000000
,
00000010
00000010
00010000
00010000
,
00022000
00000000
00000000
00033000
,
00001000
00000000
00000000
00100000
00000000
00000000
01000000
00000000
,
01000000
00000000
10000000
00000000
,
00010000
10000000
00100000
01000000
,
00001000
00000000
00010000
00000000
,
00010000
00000000
00000000
00000100
00000000
00000000
00000010
00000000
,
00000010
00000000
00000001
00000000
,
00001000
00000001
00000100
00000010
,
00010000
00000000
00001000
00000000
,
00010000
00001000
00100000
01000000
,
10000000
00010000
00000000
00000000
00000000
00000000
00000000
00000000
,
10000000
00100000
01000000
00001000
,
00010000
00010000
00000000
00000000
,
00001000
00010000
00000100
00000010
,
00000001
00001000
00000000
00000000
00000000
00000000
00000000
00000000
,
00000001
00000100
00000010
00010000
,
00022000
00000000
00000000
00033000
,
00001000
00000000
00100000
00000000
00000000
00100000
00000000
00000000
,
01000000
00000000
00000000
01000000
00000000
00000000
20000000
00000000
,
30000000
00000000
00100000
00000000
00000000
00100000
00000000
00000000
,
01000000
00000000
00000000
01000000
00000000
00000000
00002000
00000000
,
00003000
00000000
00010000
00000000
00000000
00010000
00000000
00000000
,
00000100
00000000
00000000
00000100
00000000
00000000
00000020
00000000
,
00000030
00000000
00000001
00000000
00000000
00000001
00000000
00000000
,
00001000
00000000
00000000
00001000
00000000
00000000
00000020
00000000
,
00000130
00000000
00000002
00000000
00000000
00000023
00000000
00000000
,
00000230
00000000
00000000
00020300
00000000
00000000
00031000
00000000
,
00100000
00000000
02000000
00000000
00000000
23000000
00000000
00000000
,
30200000
00000000
00000000
02300000
00000000
00000000
03001000
00000000
,
00010000
00000000
00002000
00000000
00000000
00203000
00000000
00000000
,
00302000
00000000
00000000
00023000
00000000
00000000
00030010
00000000
,
00000100
00000000
00000020
00000000
00000000
00002030
00000000
00000000
,
00003002
00000000
00000000
00000023
00000000
00000000
00000130
00000000
,
00020000
00000000
00031000
00001000
,
00000000
00000000
00011000
00000000
,
00100000
00010000
01000000
00001000
,
00010000
00001000
00000000
00000000
,
00002000
00000000
00013000
00010000
,
00000000
00000000
00011000
00000000
,
00000100
00001000
00000010
00000100
,
00000010
00010000
00002000
00003000
,
20020000
00000000
30030000
00010000
,
01000000
00000000
01100000
00000000
,
10000000
00010000
00100000
00000000
,
00001000
00010000
00000010
00000000
,
00002002
00000000
00003003
00001000
,
00000010
00000000
00000110
00000000
,
00000001
00001000
00000100
00000000
,
00010000
00001000
01000000
00000000
,
00011000
00000000
00000000
00000000
00000000
00000000
00000000
00100000
,
00000000
00100000
00000000
00001000
00000000
00000000
00000000
00000000
,
00011000
00000000
00000000
00000000
00000000
00000000
00000000
00000010
,
00000000
00000010
00000000
00010000
00000000
00000000
00000000
00000000
,
00011000
00000000
00000000
00000000
00000000
00000000
00000000
01000000
,
00000000
01000000
00000000
00001000
00000000
00000000
00000000
00000000
,
00011000
00000000
00000000
00000000
00000000
00000000
00000000
00000100
,
00000000
00000100
00000000
00010000
00000000
00000000
00000000
00000000
,
00022000
00000000
00000000
00000000
,
00000000
00000000
00000000
00000000
,
00000000
00000000
00000000
00000000
,
00033000
20020000
00000000
00000000
,
30030000
10000000
00010000
01000000
,
10000000
01000000
00010000
00100000
,
00001000
00010000
00001000
00000000
00010000
00000000
00000010
00000000
,
00000100
00000001
00001000
00000100
,
00000010
00000001
00001000
00000010
,
00000001
00000010
00001000
00000100
,
00010000
00001000
00010000
00000000
00001000
00000000
01000000
00000000
,
00100000
10000000
00010000
00100000
,
01000000
00000000
10000000
00000000
00200000
00000000
00000000
02300000
,
00000000
00000000
03002000
00000000
00000000
00023000
00000000
00000000
,
00030100
00000000
00000010
00000000
00000002
00000000
00000000
00002003
,
00000000
00000000
00003020
00000000
00000000
00000230
00000000
00000000
,
00000310
00000000
00010000
00000000
00002000
00000000
00000000
00203000
,
00000000
00000000
02300000
00000000
00000000
23000000
00000000
00000000
,
30100000
00000000
01000000
00000000
00002000
00000000
00000000
00023000
,
00000000
00000000
00030200
00000000
00000000
00000320
00000000
00000000
,
00000031
00002002
00000000
00003003
,
00000000
00000001
00001000
00000100
,
00000000
00022000
00000000
00033000
,
00000000
00001000
01000000
00010000
,
00000000
20020000
00000000
30030000
,
00000000
10000000
00010000
00100000
,
00000000
00000000
00022000
00000300
00000000
00000000
00033000
00000000
,
00000000
00010000
00000010
00000100
,
00000100
00001001
00000000
00000000
;

//---------------dance-single - DS+ SJ SS FS XO+----------------
#NOTES:
     dance-single:
     CODE NAME UNHINGED:
     Edit:
     18:
     0.938155,1.239377,0.764014,0.274702,0.184565,765.000000,676.000000,89.000000,32.000000,20.000000,0.000000,0.938155,1.239377,0.764014,0.274702,0.184565,765.000000,676.000000,89.000000,32.000000,20.000000,0.000000:
// measure 0
0000
0000
0000
0000
,  // measure 1
0000
0000
0000
0000
,  // measure 2
0000
0000
0000
0000
,  // measure 3
0000
0000
0000
0000
,  // measure 4
0110
0110
1001
1001
,  // measure 5
1000
0000
0001
0000
2000
0000
0000
0000
3001
0000
0100
0001
0100
0000
0010
0000
,  // measure 6
1010
0011
1010
0011
,  // measure 7
0001
0000
0010
0100
0010
0000
0001
0000
1000
0010
1000
0000
0100
0000
0100
0000
,  // measure 8
1100
0101
0011
1010
,  // measure 9
0010
0000
0100
0000
0002
0000
0000
0000
1003
0100
1000
0000
0010
0000
0100
0000
,  // measure 10
0110
0000
0000
0000
1001
0000
0000
0000
1100
0000
1100
0000
1000
0100
1000
0100
,  // measure 11
1000
0000
0000
0000
0000
0000
0000
0000
0000
0000
0000
0000
0001
1000
0001
0000
,  // measure 12
0101
0100
0010
0110
0010
1000
1100
0100
,  // measure 13
0110
0110
0010
0001
1000
0010
0100
0001
,  // measure 14
0011
0011
0010
0110
0100
0110
0010
0110
,  // measure 15
0100
0110
0010
0001
1000
0001
0100
0010
,  // measure 16
1010
1000
0010
0110
0100
0001
1001
1000
,  // measure 17
1010
1010
0010
1000
0001
0100
1000
0100
,  // measure 18
0101
0101
0001
1001
1000
1001
0001
1001
,  // measure 19
1000
0000
1001
0000
0001
0000
1000
0000
0100
0000
0010
0000
0001
0010
0001
0000
,  // measure 20
0011
0010
0100
1100
1000
0010
1010
0010
,  // measure 21
0110
0101
0001
1000
0010
0001
0010
1000
,  // measure 22
1100
1001
0001
1001
0010
1001
0100
1001
,  // measure 23
1000
1001
0001
1000
0100
0001
0100
1000
,  // measure 24
1100
1000
0010
0110
0010
1000
1001
0001
,  // measure 25
0011
0110
0100
1100
1000
1010
1001
0001
,  // measure 26
0101
0000
0101
0000
1001
0000
1001
0000
1000
0010
1000
0010
0100
0001
0100
0001
,  // measure 27
4000
3004
0043
0430
,  // measure 28
1300
0010
0002
1003
0001
2000
3001
0010
,  // measure 29
2000
3001
1000
0002
1003
0100
0010
0001
,  // measure 30
1000
0100
0002
1003
0001
2000
3001
0100
,  // measure 31
2000
3001
1000
0002
0103
0100
0010
1000
,  // measure 32
0001
0010
2000
3001
1000
0002
1003
0010
,  // measure 33
0002
1003
0001
2000
3100
0010
0100
1000
,  // measure 34
0001
0100
2000
3001
1000
0002
1003
0100
,  // measure 35
0002
0000
1003
0000
0001
0000
2000
0000
3001
0000
0001
0000
0010
0100
0010
0000
,  // measure 36
0001
0100
1000
0001
0010
1000
0001
0100
,  // measure 37
1000
0001
0010
1000
0001
0010
1000
0010
,  // measure 38
0001
0010
1000
0001
0100
1000
0001
0010
,  // measure 39
1000
0001
0100
1000
0100
0001
0100
1000
,  // measure 40
1000
0010
0001
1000
0100
0001
1000
0010
,  // measure 41
0001
1000
0100
0001
1000
0010
0001
0010
,  // measure 42
1000
0100
0001
1000
0010
0001
1000
0010
,  // measure 43
0400
0340
4030
3004
,  // measure 44
0103
0001
0100
0010
0110
0000
0010
1000
,  // measure 45
00M0
0000
1000
0000
0100
0000
0001
0000
0010
0000
0000
0010
0000
0000
0010
0000
,  // measure 46
0100
0000
0000
0100
0000
0000
0100
0000
1000
0000
0100
0000
0010
0000
0100
0000
,  // measure 47
0000
0000
0020
0030
0M20
0030
1000
0000
0002
0000
0000
0000
0003
0000
0000
0000
,  // measure 48
0010
1000
0010
0100
0110
0000
0010
0001
,  // measure 49
00M0
0000
0001
0000
0100
0000
1000
0000
0100
0000
0000
0100
0000
0000
0100
0000
,  // measure 50
0010
0000
0100
0000
1000
0000
1000
0000
0001
0010
0001
0010
0100
0010
0100
1000
,  // measure 51
0000
0000
0200
0300
02M0
0300
0001
0000
2000
0000
0000
0000
3000
0000
0000
0000
,  // measure 52
0001
1000
0100
1000
1100
0000
0100
1000
,  // measure 53
0M00
1000
0100
0010
1000
0100
0010
0001
,  // measure 54
1000
0000
0000
1000
0000
0000
1000
0000
0001
0000
0010
0000
0001
0000
0100
0000
,  // measure 55
0000
0000
0200
0300
02M0
0300
1000
0000
0002
0000
0000
0000
0003
0000
0000
0000
,  // measure 56
1000
0001
0010
0001
0011
0000
0010
0001
,  // measure 57
0M00
0000
0001
0000
0100
0000
0010
0000
0001
0000
0000
0001
0000
0000
0001
0000
,  // measure 58
1000
0010
1000
0000
0010
0000
0100
0000
0010
0000
1000
0000
0010
0000
0100
0000
,  // measure 59
0000
0000
0020
0030
0M20
0030
0001
0000
2000
0000
0000
0000
3000
0000
0000
0000
,  // measure 60
1100
1000
0010
0100
0010
1000
1010
0110
,  // measure 61
0100
0101
0001
0011
0010
0001
0010
0100
,  // measure 62
1100
0100
0010
0001
1000
0010
0110
1010
,  // measure 63
1000
1001
0001
1001
0102
0000
0013
0000
,  // measure 64
0110
0100
1000
0001
0100
0010
0110
0101
,  // measure 65
0001
0011
0001
1001
1000
0001
0010
0100
,  // measure 66
1100
0100
0010
0001
1000
0010
1010
0110
,  // measure 67
0100
0101
0001
1001
2000
0000
3001
0000
,  // measure 68
0110
0000
0000
0000
,  // measure 69
0000
0000
0000
0000
,  // measure 70
0000
0000
0000
0000
,  // measure 71
0000
0000
0000
0000
1001
0000
0000
0000
0000
0000
0001
0100
0010
0000
0100
0000
,  // measure 72
0001
1000
0001
0100
0010
0010
0100
0001
,  // measure 73
0001
0100
0010
0010
0100
0001
1000
0100
,  // measure 74
0010
0001
1000
0100
0010
0010
0100
1000
,  // measure 75
1000
0100
0010
0010
0100
1000
0010
0100
,  // measure 76
0001
1000
1000
0010
0100
0100
0010
1000
,  // measure 77
1000
0010
0100
0100
0010
1000
1000
0001
,  // measure 78
1000
0010
0100
0001
0010
0010
0001
0100
,  // measure 79
0100
0001
0010
0010
0001
0100
0100
0001
,  // measure 80
1000
0100
1000
0100
1000
0000
0001
0000
0100
0000
1M00
0000
0001
0000
0100
0000
,  // measure 81
1M00
0001
0100
1M00
0001
0100
1M00
0001
,  // measure 82
0010
0100
0010
0001
1000
M010
0001
1000
,  // measure 83
M010
0001
1000
M010
0001
1000
0010
0100
,  // measure 84
0001
1000
0100
1000
0001
010M
1000
0001
,  // measure 85
010M
1000
0001
010M
1000
0001
1000
0010
,  // measure 86
0100
0001
1000
0001
0010
10M0
0001
0010
,  // measure 87
10M0
0001
0040
0000
0034
0000
4003
0000
,  // measure 88
3400
0000
0310
0001
0010
0001
1000
0100
,  // measure 89
1000
0000
0001
0000
0100
0000
0010
0000
1000
0000
0010
0000
0100
0010
0100
0010
,  // measure 90
0100
0000
0001
0000
1000
0000
0100
0000
0010
0000
0001
0010
0001
0000
0100
0000
,  // measure 91
0001
0100
0001
0000
0100
0000
0010
0000
1000
0000
0001
0000
0010
0000
0100
0000
,  // measure 92
1000
0100
1000
0000
1000
0000
0001
0000
0010
0000
0001
0000
1000
0000
0100
0000
,  // measure 93
0010
0000
0100
0000
1000
0000
0010
0000
0100
0000
0001
0000
0100
0001
0100
0001
,  // measure 94
0010
0100
0010
0001
1000
0010
1000
0100
,  // measure 95
1000
0001
1000
0000
0001
0000
0100
0000
0001
0000
0010
0000
0001
0000
0100
0000
,  // measure 96
0010
1000
0010
0000
1001
0000
0000
0000
0000
0000
0000
0000
0000
0000
0000
0000
;
