#TITLE:CHRONOMORPHOSIS;
#SUBTITLE:;
#ARTIST:Z-I-v Sound Team "BVG underground";
#TITLETRANSLIT:;
#SUBTITLETRANSLIT:;
#ARTISTTRANSLIT:;
#GENRE:TEMPORAL EUROBEAT;
#CREDIT:;
#BANNER:CHRONOMORPHOSIS.png;
#BACKGROUND:CHRONOMORPHOSIS-bg.png;
#LYRICSPATH:;
#CDTITLE:;
#MUSIC:CHRONOMORPHOSIS.ogg;
#OFFSET:-0.148035;
#SAMPLESTART:94.202950;
#SAMPLELENGTH:16.219999;
#SELECTABLE:YES;
#BPMS:0.000000=155.000000
,194.000000=77.500999
,196.000000=86.000999
,198.000000=95.000999
,200.000000=104.000000
,202.000000=120.000000
,204.000000=132.000000
,206.000000=145.000000
,208.000000=160.000000
,210.000000=180.000000
,214.000000=200.000000
,218.000000=220.000000
,226.000000=155.000000
;
#STOPS:134.979172=0.387000,
137.979172=0.387000,
140.979172=0.387000,
147.979172=0.387000,
150.979172=0.387000,
153.979172=0.387000
;
#BGCHANGES:;
#KEYSOUNDS:;
#ATTACKS:;

//---------------dance-single - ----------------
#NOTES:
     dance-single:
     :
     Hard:
     13:
     0.632659,0.724882,0.220329,0.477380,0.286428,603.000000,573.000000,30.000000,65.000000,0.000000,0.000000,0.632659,0.724882,0.220329,0.477380,0.286428,603.000000,573.000000,30.000000,65.000000,0.000000,0.000000:
0000
0000
0000
0000
,
0000
0000
0000
0000
,
0000
0000
0000
0000
,
0000
0000
0000
0000
,
2000
3010
1000
0001
0100
0001
0010
0001
,
2000
3100
1000
0001
0100
0001
1000
0010
,
2000
3001
0010
0100
1000
0001
0100
0010
,
1000
0000
0000
0001
0000
0000
1000
0000
2002
0000
0000
0000
0000
0000
0000
0000
,
3003
0000
0000
0000
,
0001
0000
0001
0000
0001
0000
0100
0010
0000
0100
0001
0000
1000
0000
0001
0000
,
1000
0000
1000
0000
1000
0000
0100
0010
0000
0100
1000
0000
0001
0000
1000
0000
,
0001
0010
1100
0000
1000
0010
0101
0000
,
0001
0010
1000
0010
0110
0000
1001
0000
,
1000
0000
1000
0000
1000
0000
0001
0100
0000
0010
1000
0000
0001
0000
1000
0000
,
0001
0000
0001
0000
0001
0000
1000
0100
0000
0010
0001
0000
1000
0000
0001
0000
,
1000
0100
0011
0000
1000
0010
0101
0000
,
1000
0100
0001
0100
0110
0000
1002
0000
,
0103
0000
0001
0000
0001
0000
0100
0001
0000
0000
1000
0000
1000
0000
0100
1000
,
0000
0001
0001
0100
1000
0100
0001
1000
,
0002
0000
0023
0000
0230
0000
0301
0002
,
0000
0103
0200
0000
0010
0000
1000
0000
,
0310
0000
0001
0000
0001
0000
0010
0001
0000
0000
1000
0000
1000
0000
0010
1000
,
0000
0001
0001
0010
1000
0010
0001
1000
,
0002
0000
0203
0000
0320
0000
0031
0010
,
2000
0000
0000
0000
3002
0000
0000
0000
0013
0100
1000
0000
0010
0100
0001
0000
,
2000
0000
3010
0000
0100
0000
0001
1000
0000
0000
0010
0000
0100
0000
0001
1000
,
0000
0010
1000
0100
0001
0100
0010
0001
,
2000
0000
3020
0000
0230
0000
1300
2000
,
0000
3100
0200
0000
0301
0010
0100
1000
,
0001
0000
0100
0000
0010
0000
1000
0001
0000
0000
0100
0000
0010
0000
1000
0001
,
0000
0100
0001
0010
1000
0010
0100
1000
,
0002
0000
0203
0000
0320
0000
0031
0010
,
2000
0000
0002
3003
2002
0000
0000
3003
,
0001
0100
0001
0000
1000
0000
0001
0010
0001
0000
1000
0000
0001
0000
0010
0000
,
0100
1000
0001
0000
0100
0001
1000
0000
0010
1000
0010
0000
1000
0000
0100
1000
,
0100
0000
1000
0000
0001
0100
0001
0000
1000
0010
1000
0000
0002
0000
0010
0000
,
2003
0000
0010
0000
3001
0010
0001
0000
1000
0000
0001
0100
0001
0000
1000
0000
,
0001
0000
0100
0000
0010
1000
0001
0000
0010
0001
1000
0000
0100
1000
0100
0000
,
1000
0000
0010
1000
0010
0000
1000
0000
0001
0010
0001
0000
1000
0100
1000
0000
,
0001
0100
0001
0000
1000
0010
1000
0000
0001
0000
0001
0000
0001
0000
1000
0000
,
0001
0100
2000
0000
3100
0100
0100
0010
,
1000
0000
0100
0000
0002
0000
0000
0000
0103
0000
0000
0010
0000
0000
0001
0000
,
0011
0000
0000
0000
1100
0000
0000
0000
1000
0000
0000
0010
0000
0000
0100
0000
,
0101
0000
1010
0000
0001
0001
0001
1000
,
0001
0010
2000
0000
3010
0010
0010
0100
,
1000
0010
0002
0000
0023
1030
0200
2300
,
3001
0000
0200
0000
0301
0000
0020
0000
1000
0000
0000
0001
0000
0000
1030
0000
,
0010
0001
1000
0100
0220
0000
0330
0000
,
0000
0000
0000
0000
0000
0000
0000
0000
1002
0000
0100
0000
1003
0000
0001
0100
,
0000
0001
1000
0000
0001
0000
0010
0000
0200
0000
1000
0000
0310
0000
0100
1000
,
0000
0001
1000
0000
0001
0000
0100
0000
2010
0000
0010
0000
3001
0000
1000
0010
,
0000
1000
0001
0000
1000
0000
0100
0000
0020
0000
0001
0000
0130
0000
0010
0001
,
0000
1000
0001
0000
1000
0000
0010
0000
1000
0000
0100
0000
0010
0000
0000
0001
,
0000
0000
0010
0000
0100
0000
1000
0000
0001
0000
0100
0000
0010
0000
0000
1000
,
0000
0010
0100
0001
1000
0100
0001
0000
,
0001
0100
1000
0000
0001
0100
0010
0100
,
1000
0100
0001
0000
2002
0000
0000
0000
,
0000
0000
3003
0000
,
0000
0000
0000
0000
0000
0000
0000
0000
0001
0000
0100
0000
0010
0000
0100
0002
,
0000
0000
0010
0000
1003
0000
0001
0000
1000
0000
0100
0000
0010
0000
0100
2000
,
0000
0000
0010
0000
3001
0000
1000
0000
0001
0000
0000
0001
0100
0000
0010
0000
,
0001
0000
0000
0001
0010
0000
0100
0000
0001
0000
0010
0000
0100
0000
1000
0000
,
1100
0000
1000
0000
1001
0000
0000
0000
1000
0000
0010
0000
0100
0000
0010
2000
,
0000
0000
0100
0000
3001
0000
1000
0000
0001
0000
0010
0000
0100
0000
0010
0002
,
0000
0000
0100
0000
1003
0000
0001
0000
1000
0000
0000
1000
0010
0000
0100
0000
,
1000
0000
0000
1000
0100
0000
0010
0000
1000
0000
0100
0000
0010
0000
0001
0000
,
0011
0000
0001
0000
1001
0000
0000
0000
0001
0000
0100
0000
0010
0000
1000
0100
,
0000
1000
0001
0000
0010
0000
0100
0000
1000
0000
0010
0000
0100
0000
0001
0010
,
0000
0001
1000
0000
0100
0000
0010
0000
0001
0000
0000
0001
0100
0000
0010
0000
,
0001
0000
0000
0001
0010
0000
1000
0000
0001
0000
0010
0000
0100
0000
1000
0000
,
1010
0000
0010
0000
1001
0000
0000
0000
1000
0000
0100
0000
0010
0000
0001
0100
,
0000
0001
1000
0000
0010
0000
0100
0000
0001
0000
0010
0000
0100
0000
1000
0010
,
0000
1000
0001
0000
0100
0000
0010
0000
1000
0000
0000
1000
0100
0000
0010
0000
,
1000
0000
0000
1000
0010
0000
0001
0000
1000
0010
0100
0000
0001
0100
0010
0000
,
1010
0000
0101
0000
1002
0000
2003
0100
,
3100
0020
0130
2000
3001
0001
0200
0010
,
0310
0200
0301
2000
3001
0001
0020
1030
,
1000
0020
0130
2000
3001
0001
0200
0301
,
1000
0100
0001
0100
1000
0010
0100
1000
,
1000
0100
0001
1000
0001
0010
0100
0001
,
0100
0000
1000
0000
0001
0000
0100
0000
0010
1000
0001
0000
0010
0001
1000
0000
,
0100
1000
0001
0000
0100
0001
1000
0010
0000
0000
1010
0000
0000
0101
0000
0000
,
2002
3003
0000
0000
;

//---------------dance-single - NONJUDGED----------------
#NOTES:
     dance-single:
     :
     Edit:
     17:
     0.843545,0.996713,0.161575,0.543478,0.818889,804.000000,782.000000,22.000000,74.000000,18.000000,0.000000,0.843545,0.996713,0.161575,0.543478,0.818889,804.000000,782.000000,22.000000,74.000000,18.000000,0.000000:
0000
0000
0000
0000
,
0000
0000
0000
0000
,
0000
0000
0000
0000
,
0000
0000
0000
0000
,
1100
1000
0010
1000
0001
0100
0001
1000
,
1010
1000
0100
1000
0001
0010
0001
1000
,
1001
0000
0001
0000
0100
0000
0001
0000
1000
0100
0010
0001
0010
0100
1000
0001
,
0100
0000
0000
1010
0000
0000
0101
0000
0001
0010
0100
1000
0001
0100
0010
1000
,
0002
0000
0000
0000
0000
0000
0000
0000
1003
0000
0001
0010
0100
1000
0001
0100
,
0001
0010
0001
0010
0001
0000
1000
0M10
0000
0010
0001
0000
1000
0010
0100
0001
,
1000
0100
1000
0100
1000
0000
0001
01M0
0000
0100
1000
0000
0001
0100
0010
1000
,
0001
0010
0100
0010
0002
0000
0003
0000
1000
0010
0100
0010
2000
0000
3000
0000
,
0020
0000
1030
0100
0010
0001
1000
0001
0200
0000
0010
0000
0302
0000
0100
0000
,
1003
0010
1000
0010
1000
0000
0001
0M10
0000
0010
1000
0000
0001
0010
0100
1000
,
0001
0100
0001
0100
0001
0000
1000
01M0
0000
0100
0001
0000
1000
0100
0010
0001
,
1000
0010
0100
0010
2000
0000
3000
0000
0001
0010
0100
0010
0002
0000
0003
0000
,
1000
0001
0100
0010
1000
0001
0010
0100
2000
0000
0000
0000
3002
0000
0000
0000
,
1003
0000
0001
0000
0001
0000
0100
0010
000M
0000
0001
0000
0001
0000
0100
0010
,
0000
0001
0001
0100
1000
0100
0001
1000
,
0002
0010
1003
0001
2000
0010
3001
1000
,
0002
0100
1003
0001
0101
0100
1010
1000
,
1001
0000
1000
0000
1000
0000
0010
0100
M000
0000
1000
0000
1000
0000
0010
0100
,
0000
1000
1000
0010
0001
0010
1000
0001
,
2000
0100
3001
1000
0002
0100
1003
0001
,
2000
0000
0010
0000
3001
0000
1000
0000
0001
0010
0100
1000
0100
0010
0001
1000
,
0001
0000
1000
0000
0M10
0000
0010
0002
0000
0000
1003
0000
0M10
0000
0010
0002
,
0000
1003
0001
0100
1000
0100
0010
1000
,
1002
0010
0103
0001
2001
0010
3100
1000
,
1002
0100
0013
0001
0011
0100
1100
1000
,
1001
0000
0001
0000
01M0
0000
0100
2000
0000
0000
3001
0000
01M0
0000
0100
2000
,
0000
3001
1000
0010
0001
0010
0100
0001
,
2001
0100
3010
1000
1002
0100
0013
0001
,
2001
0000
0010
0000
3100
0000
1000
0000
0001
0100
0010
1000
0001
0010
0100
1000
,
0001
0100
0001
0100
0010
0000
1000
0001
1000
0001
0100
0000
0001
0000
0010
0100
,
1000
0010
1000
0010
0100
0001
1000
0000
0001
0010
0001
0010
0100
0000
1000
0001
,
1000
0001
0100
0000
0010
0M10
0001
1000
0010
0M10
0001
1000
0100
01M0
0001
1000
,
0100
01M0
0001
1000
0001
0010
0001
0010
0100
0000
1000
0001
1000
0001
0010
0000
,
0001
0000
0100
0010
1000
0100
1000
0100
0010
0001
1000
0000
0001
0100
0001
0100
,
0010
0000
1000
0001
1000
0001
0010
0000
0100
01M0
0001
1000
0100
01M0
0001
1000
,
0010
0M10
0001
1000
0010
0M10
0001
1000
0001
0000
0001
0000
0001
0000
0100
0000
,
0001
0000
0010
0000
1000
0010
1000
0010
0100
0000
0100
0000
0100
0000
1000
0000
,
0010
0000
0100
0000
1000
0100
1000
0100
0001
0000
0000
0002
0000
0000
0013
0000
,
1100
0000
0000
0000
0011
0000
0000
0000
0001
0000
0000
0002
0000
0000
0103
0000
,
1010
0000
0102
0000
1003
1000
1000
0010
,
1000
0000
0100
0000
0001
0100
0001
0100
0010
0000
0010
0000
0010
0000
0001
0000
,
0100
0000
0010
0000
0001
0010
0001
0010
2000
0000
3010
0000
0200
0000
0302
0000
,
1003
0000
0200
0000
0310
0000
0002
0000
0100
0000
0000
0100
0000
0000
0103
0000
,
0001
0010
0100
1000
0001
0100
0010
1000
0002
0000
0000
0000
0003
0000
0000
0000
,
1000
0000
0001
0100
0010
1000
0100
0010
0002
0000
0100
0000
1003
0000
0001
0100
,
0000
0010
0001
0000
0010
0000
1000
0000
0002
0000
0010
0000
1003
0000
0001
0010
,
0000
0100
0001
0000
0100
0000
1000
0000
0002
0000
0100
0000
0013
0000
0001
0100
,
0000
1000
0100
0000
0010
0000
1000
0000
0002
0000
0010
0000
0103
0000
0001
0010
,
0000
1000
0010
0000
0100
0000
1000
0000
0002
0000
0100
0000
1003
0000
0001
0100
,
0000
0010
1000
0000
0001
0000
1000
0000
0002
0000
0010
0000
1003
0000
0001
0010
,
0000
0100
1000
0000
0001
0000
1000
0000
0002
0000
1003
0000
0010
0000
1000
0000
,
0002
1003
0100
1000
0001
0100
0010
0100
,
1000
0100
0001
1000
2002
0000
0000
0000
,
0000
0000
3003
0000
,
0001
0000
1000
0100
0010
0001
0100
0010
1000
0100
1000
0100
0010
0000
0001
2000
,
0000
0000
3010
0000
0100
0000
0001
0000
1000
0010
1000
0010
0100
0000
0001
2000
,
0000
0000
3100
0000
0010
0000
0001
0000
2000
0000
0000
3010
0100
0010
0100
0000
,
2000
0000
0000
3100
0001
0100
0001
0000
1000
0000
0100
0000
0010
0000
0001
1000
,
0020
0000
0130
0000
0002
0000
1003
0000
0001
0100
0001
0100
0010
0000
1000
0002
,
0000
0000
0013
0000
0100
0000
1000
0000
0001
0010
0001
0010
0100
0000
1000
0002
,
0000
0000
0103
0000
0010
0000
1000
0000
0002
0000
0000
0013
0100
0010
0100
0000
,
0002
0000
0000
0103
1000
0100
1000
0000
0001
0000
0100
0000
0010
0000
1000
0001
,
0020
0000
0130
0000
2000
0000
3001
0000
1000
0010
0100
0010
1000
0000
0100
1000
,
0000
0001
1000
0000
0010
0000
0100
0000
0001
0010
0100
0010
0001
0000
0100
0001
,
0000
1000
0001
0000
0010
0000
0100
0000
1000
0000
0010
0100
0001
1000
0001
0000
,
0010
0000
0100
1000
0001
1000
0010
0000
0100
0000
0010
0000
0001
0000
0010
1000
,
0002
0000
0010
0000
2003
0000
0010
0000
3001
0100
0010
0100
0001
0000
0010
0001
,
0000
1000
0001
0000
0100
0000
0010
0000
1000
0100
0010
0100
1000
0000
0010
1000
,
0000
0001
1000
0000
0100
0000
0010
0000
0001
0000
0100
0010
1000
0001
1000
0000
,
0100
0000
0010
0001
1000
0001
0100
0000
0001
1000
0010
0100
0001
1000
0100
0010
,
0001
0000
0100
0000
1000
0000
0100
0000
0002
0000
0000
0000
0013
0000
0100
1000
,
0002
0000
0100
0000
2003
0000
0100
0000
3001
0100
0010
0000
0001
0000
0010
1000
,
0002
0000
0010
0000
2003
0000
0010
0000
3001
0010
0100
0000
0001
0000
0100
0010
,
0002
0000
0100
0000
0023
0000
0100
0000
1030
0010
0100
0000
1000
0000
0002
0000
,
0203
0000
0320
0000
2030
0000
3002
0000
2003
0000
3001
0100
0010
1000
0010
0100
,
0001
0010
0100
1000
0100
0010
0001
1000
0002
0000
0013
0100
1000
0100
0010
0001
,
0100
0010
1000
0010
0100
0001
1000
0001
1000
0001
0010
0100
1000
0001
0100
0010
,
1000
0001
0010
0100
1000
0001
0100
0010
1000
0010
0001
1000
0100
0001
1000
0010
,
0002
0003
0000
0000
;

//---------------dance-single - ----------------
#NOTES:
     dance-single:
     :
     Medium:
     11:
     0.521445,0.573865,0.154230,0.352526,0.091804,497.000000,476.000000,21.000000,48.000000,0.000000,0.000000,0.521445,0.573865,0.154230,0.352526,0.091804,497.000000,476.000000,21.000000,48.000000,0.000000,0.000000:
0000
0000
0000
0000
,
0000
0000
0000
0000
,
0000
0000
0000
0000
,
0000
0000
0000
0000
,
1001
0001
0100
0001
,
1001
1000
0100
1000
,
1001
0001
0010
0100
,
1000
0000
0000
0010
0000
0000
0100
0000
0002
0000
0000
0000
0000
0000
0000
0000
,
1003
0000
0000
0000
,
0001
0000
0010
0000
0100
0000
0000
0010
0000
0000
0001
0000
1000
0000
0000
0000
,
0001
0000
0100
0000
0010
0000
0000
0100
0000
0000
0001
0000
1000
0000
0000
0000
,
0001
0010
1000
0000
0001
0100
1000
0000
,
0001
0100
0010
1000
0001
0000
1001
0000
,
1000
0000
0010
0000
0100
0000
0000
0010
0000
0000
1000
0000
0001
0000
0000
0000
,
1000
0000
0100
0000
0010
0000
0000
0100
0000
0000
1000
0000
0001
0000
0000
0000
,
1000
0010
0001
0000
1000
0100
0001
0000
,
1000
0100
0010
0001
1000
0000
1001
0000
,
0001
0000
0100
0000
0010
0000
0000
0010
0000
0000
0100
0000
0001
0000
0000
0001
,
0000
0010
0100
1000
0100
0010
0001
1000
,
0002
0000
0203
0000
2300
0000
3100
0200
,
0000
0010
0310
0000
1010
0000
0101
0000
,
0001
0000
0010
0000
0100
0000
0000
0100
0000
0000
0010
0000
0001
0000
0000
0001
,
0000
0100
0010
1000
0010
0100
0001
1000
,
0002
0000
0023
0000
2030
0000
3010
0001
,
2000
3020
0032
0023
,
0130
0000
0001
0000
0010
0000
0000
0010
0000
0000
0100
0000
1000
0000
0000
1000
,
0000
0010
0100
0001
1000
0100
0010
0001
,
2000
0000
3020
0000
0032
0000
0013
0020
,
0000
0100
0130
0000
0101
0000
1010
0000
,
1001
0000
1000
0000
0010
0000
0000
0010
0000
0000
0100
0000
0001
0000
0000
0001
,
0000
0010
0100
1000
0001
0100
0010
1000
,
0002
0000
0023
0000
2030
0000
3010
0001
,
2000
3001
2002
3003
,
0001
0001
0100
0010
0010
0100
0001
0010
,
0100
0100
1000
1000
0010
0010
0100
0001
,
0001
0100
0010
0010
1000
1000
0001
0001
,
0010
0010
0100
1000
0010
0100
0001
0010
,
0100
1000
0001
0001
1000
1000
0010
1000
,
0100
0010
0001
0100
0010
0010
0100
0100
,
0001
0001
1000
1000
0001
0001
0001
0010
,
0100
0010
0002
0000
1003
1000
1000
0010
,
0100
0000
0010
0000
2000
0000
0000
0000
3001
0000
0000
0001
0000
0000
0010
0000
,
0100
0000
0000
0000
1100
0000
0000
0000
1000
0000
0000
1000
0000
0000
0010
0000
,
0100
0000
0101
0000
0001
0001
0001
1000
,
0100
0010
0200
0000
1300
1000
1000
0001
,
0100
0010
0200
0000
0302
0000
0010
0010
,
0000
0000
1000
0000
0000
0000
0103
0000
0001
0000
0000
0010
0000
0000
0100
0000
,
2000
0000
3001
0000
,
0000
0000
0000
0000
0002
0100
2003
0100
,
3002
0010
2003
0010
3002
0010
0203
0010
,
0302
0010
0203
0310
2000
0010
3002
0010
,
2003
0100
3002
0100
2003
0100
3020
0100
,
2030
0100
3020
0130
1001
0001
0100
0001
,
1000
0010
1000
0001
1001
0001
0010
0001
,
1000
0100
1000
0001
0100
0010
0100
0000
,
0001
1000
0001
0000
1000
0100
0010
0001
,
0010
0100
1000
0000
2002
0000
0000
0000
,
0000
0000
3003
0000
,
0000
0000
0000
0000
0000
0000
0000
0000
0001
0000
1000
0000
0100
0000
0000
1000
,
0000
0000
0001
0000
0010
0000
0001
0000
1000
0000
0001
0000
0100
0000
0000
0001
,
0000
1000
0010
1000
0001
0000
0010
0100
,
0001
0000
0001
0100
0010
0001
1000
0001
,
0100
0000
0010
0000
1000
0000
0100
0000
1000
0000
0001
0000
0010
0000
0000
0001
,
0000
0000
1000
0000
0100
0000
1000
0000
0001
0000
1000
0000
0010
0000
0000
1000
,
0000
0001
0100
0001
1000
0000
0100
0010
,
1000
0000
1000
0010
0100
1000
0001
1000
,
0010
0000
0100
0000
0001
0000
0000
0000
1000
0000
0100
0000
0010
0000
0000
0001
,
0000
0000
0100
0000
1000
0000
0100
0000
0001
0000
0010
0000
0100
0000
0000
1000
,
0000
0010
0001
0010
1000
0000
1000
0100
,
0001
0000
0001
0100
1000
0010
0100
0001
,
1000
0000
0001
0000
0010
0000
0100
0000
1000
0000
0010
0000
0100
0000
0000
0001
,
0000
0000
0010
0000
1000
0000
0010
0000
0001
0000
0100
0000
0010
0000
0000
1000
,
0000
0100
0001
0100
1000
0000
1000
0010
,
0001
0000
0001
0010
1000
0100
0010
0001
,
1000
0001
0100
0010
1000
0000
1100
0000
,
1000
0100
0000
0100
0001
0000
0101
0000
,
0001
0100
0000
0100
1000
0000
1010
0000
,
1000
0010
0000
0010
0001
0000
0011
0000
,
0001
0010
0000
0010
1000
0100
0010
0001
,
0001
0010
0100
1000
0001
0100
0010
1000
,
1000
0010
0100
0001
1000
0100
0010
0100
,
0001
0000
0100
0000
1000
0000
0001
0000
0000
0000
0100
0000
0000
0100
0000
0000
,
2002
3003
0000
0000
;

//---------------dance-single - ----------------
#NOTES:
     dance-single:
     :
     Easy:
     6:
     0.322100,0.332238,0.095476,0.102820,0.000000,307.000000,294.000000,13.000000,14.000000,0.000000,0.000000,0.322100,0.332238,0.095476,0.102820,0.000000,307.000000,294.000000,13.000000,14.000000,0.000000,0.000000:
0000
0000
0000
0000
,
0000
0000
0000
0000
,
0000
0000
0000
0000
,
0000
0000
0000
0000
,
1000
0100
1000
0100
,
0010
0001
0010
0001
,
1000
0010
1000
0010
,
0100
0001
2002
0000
,
3003
0000
0000
0000
,
0001
0010
0001
0001
,
1000
0100
1000
1000
,
0001
0100
1000
0100
,
0001
0010
0100
1001
,
1000
0010
1000
1000
,
0001
0010
0001
0001
,
1000
0010
0001
0010
,
1000
0100
0010
1001
,
0001
0100
0100
0001
,
0001
1000
0001
0010
,
0100
0100
0010
0010
,
0001
1000
0001
1001
,
1000
0010
0010
1000
,
1000
0100
1000
0001
,
0010
0100
1000
0000
,
0010
0100
0001
1000
,
0001
0010
0010
0001
,
0001
1000
0001
0100
,
0010
0010
0100
0100
,
0001
1000
0001
1001
,
1000
0100
0100
1000
,
1000
0010
1000
0001
,
0100
0010
1000
0000
,
0100
0010
0001
1000
,
0001
0010
0100
0010
,
0001
1000
0010
1000
,
0100
1000
1000
0001
,
0001
0100
0010
1000
,
0100
0010
0001
1000
,
0001
0100
0010
0010
,
0100
0100
0001
0001
,
0001
0010
0100
0100
,
0100
0010
0001
0002
,
1000
1003
1000
2000
,
0001
3001
0100
0100
,
0100
0010
1000
1000
,
1000
0100
0010
0001
,
0100
1000
0100
0010
,
2002
0000
3003
0000
,
0000
0000
0001
0010
,
0100
1000
0001
0100
,
0010
1000
0001
1000
,
0010
0100
0001
1000
,
0100
0010
0001
0100
,
0010
1000
0010
0100
,
0001
1000
0001
0010
,
0100
1000
0100
0010
,
0001
1000
2002
0000
,
0000
0000
3003
0000
,
0000
0000
0001
0100
,
0010
0010
0100
0001
,
1000
1000
0100
0100
,
0010
0010
0001
1000
,
0001
1001
1000
0100
,
0010
0010
0100
1000
,
0001
0001
0100
0100
,
0010
0010
1000
0001
,
1000
1001
1000
0010
,
0001
0001
1000
0100
,
0010
0010
1000
1000
,
0001
0001
0010
0100
,
0010
1001
0001
0010
,
1000
1000
0001
0100
,
0010
0010
0001
0001
,
1000
1000
0010
0100
,
0010
1001
0102
0100
,
1003
0001
2000
0100
,
3001
1000
0002
0010
,
1003
0001
2000
0010
,
3001
1000
0001
0100
,
1000
1000
0001
0010
,
0001
0100
1000
0010
,
0001
0010
1000
0001
,
2002
3003
0000
0000
;

//---------------dance-single - ----------------
#NOTES:
     dance-single:
     :
     Beginner:
     4:
     0.201444,0.241627,0.022033,0.007344,0.000000,192.000000,189.000000,3.000000,1.000000,0.000000,0.000000,0.201444,0.241627,0.022033,0.007344,0.000000,192.000000,189.000000,3.000000,1.000000,0.000000,0.000000:
// measure 0
0000
0000
0000
0000
,  // measure 1
0000
0000
0000
0000
,  // measure 2
0000
0000
0000
0000
,  // measure 3
0000
0000
0000
0000
,  // measure 4
1000
0000
0010
0000
,  // measure 5
0100
0000
0001
0000
,  // measure 6
1000
0000
0100
0000
,  // measure 7
0010
0010
0010
0000
,  // measure 8
1001
0000
0000
0000
,  // measure 9
0001
0001
0001
0000
,  // measure 10
0100
0100
0100
0000
,  // measure 11
0010
0000
1000
0000
,  // measure 12
0001
0000
0010
0010
,  // measure 13
0010
0010
0010
0000
,  // measure 14
0100
0100
0100
0000
,  // measure 15
1000
0000
0001
0000
,  // measure 16
0100
0000
0010
0010
,  // measure 17
0010
0000
0100
0000
,  // measure 18
0001
0000
1000
0000
,  // measure 19
0100
0100
0100
0000
,  // measure 20
0010
0010
0010
0000
,  // measure 21
0001
0000
1000
0000
,  // measure 22
0010
0000
0100
0000
,  // measure 23
0001
0001
0001
0000
,  // measure 24
1000
1000
1000
1000
,  // measure 25
1000
0000
0001
0000
,  // measure 26
0010
0000
0100
0000
,  // measure 27
1000
1000
1000
0000
,  // measure 28
0001
0001
0001
0001
,  // measure 29
0001
0000
0100
0000
,  // measure 30
0010
0000
1000
0000
,  // measure 31
0001
0001
0001
0000
,  // measure 32
1000
1000
1000
1000
,  // measure 33
1000
0000
0000
0001
,  // measure 34
0000
0000
0010
0000
,  // measure 35
0000
0100
0000
1000
,  // measure 36
1000
1000
0000
0000
,  // measure 37
0001
0000
0000
0100
,  // measure 38
0000
0000
0010
0010
,  // measure 39
0010
0010
0010
0000
,  // measure 40
0100
0100
0100
0000
,  // measure 41
0001
0001
0001
0000
,  // measure 42
1000
0000
0100
0000
,  // measure 43
0010
0000
0001
0000
,  // measure 44
1000
1000
1000
0000
,  // measure 45
0001
0001
0001
0000
,  // measure 46
0100
0100
0100
0100
,  // measure 47
0100
0000
1001
0000
,  // measure 48
0000
0000
0001
0000
,  // measure 49
0000
0000
0100
0000
,  // measure 50
0000
0000
0010
0000
,  // measure 51
0000
0000
1000
0000
,  // measure 52
0000
0000
0001
0000
,  // measure 53
0000
0000
0010
0000
,  // measure 54
0000
0000
0100
0000
,  // measure 55
0100
0000
0010
0000
,  // measure 56
0010
0000
1001
0000
,  // measure 57
0000
0000
0000
0000
,  // measure 58
0000
0000
0001
0001
,  // measure 59
0001
0000
1000
1000
,  // measure 60
1000
0000
0010
0000
,  // measure 61
0100
0000
0001
0000
,  // measure 62
1000
0000
0100
0100
,  // measure 63
0100
0000
0010
0010
,  // measure 64
0010
0000
0001
0000
,  // measure 65
1000
0000
0010
0010
,  // measure 66
0010
0000
0100
0100
,  // measure 67
0100
0000
0001
0001
,  // measure 68
0001
0000
1000
0000
,  // measure 69
0100
0000
0010
0000
,  // measure 70
0001
0000
1000
1000
,  // measure 71
1000
0000
0001
0001
,  // measure 72
0001
0000
0100
0000
,  // measure 73
0010
0000
1000
1000
,  // measure 74
1000
1000
1000
0000
,  // measure 75
0001
0001
0001
0000
,  // measure 76
0010
0010
0010
0000
,  // measure 77
0100
0100
0100
0000
,  // measure 78
1000
1000
1000
1000
,  // measure 79
1000
0000
0001
0001
,  // measure 80
0001
0000
0100
0100
,  // measure 81
0100
0100
0000
0010
,  // measure 82
0020
0030
0000
0000
;
