#VERSION:0.83;
#TITLE:カオスが極まる;
#SUBTITLE:;
#ARTIST:UNISON SQUARE GARDEN;
#TITLETRANSLIT:CHAOS GA KIWAMARU;
#SUBTITLETRANSLIT:;
#ARTISTTRANSLIT:;
#GENRE:J-ROCK;
#ORIGIN:;
#CREDIT:;
#BANNER:CHAOS GA KIWAMARU.png;
#BACKGROUND:CHAOS GA KIWAMARU-bg.png;
#PREVIEWVID:;
#JACKET:CHAOS GA KIWAMARU-jacket.png;
#CDIMAGE:;
#DISCIMAGE:;
#LYRICSPATH:;
#CDTITLE:cdtitle.png;
#MUSIC:CHAOS GA KIWAMARU.ogg;
#OFFSET:-0.016000;
#SAMPLESTART:63.361000;
#SAMPLELENGTH:15.000000;
#SELECTABLE:YES;
#DISPLAYBPM:98.000000:195.000000;
#BPMS:0.000=195.000,
112.000=97.500,
128.000=195.000,
160.000=97.500,
171.750=195.000,
238.000=97.500,
244.000=195.000;
#STOPS:171.750=1.923;
#DELAYS:;
#WARPS:;
#TIMESIGNATURES:0.000=4=4;
#TICKCOUNTS:0.000=4;
#COMBOS:0.000=1;
#SPEEDS:0.000=1.000=0.000=0;
#SCROLLS:0.000=1.000;
#FAKES:;
#LABELS:0.000=Song Start;
#BGCHANGES:0.000=CHAOS GA KIWAMARU.avi=1.000=0=0=0=StretchNoLoop==CrossFade_Fastest==,
99999=-nosongbg-=1.000=0=0=0 // don't automatically add -songbackground-
;
#KEYSOUNDS:;
#ATTACKS:
;

//---------------dance-single - Daff_4K----------------
#NOTEDATA:;
#CHARTNAME:Daff_4K;
#STEPSTYPE:dance-single;
#DESCRIPTION:Daff_4K;
#CHARTSTYLE:;
#DIFFICULTY:Beginner;
#METER:1;
#RADARVALUES:0.071883,0.138654,0.044727,0.000000,0.000000,45.000000,41.000000,4.000000,0.000000,0.000000,0.000000,0.000000,0.000000,0.000000,0.071883,0.138654,0.044727,0.000000,0.000000,45.000000,41.000000,4.000000,0.000000,0.000000,0.000000,0.000000,0.000000,0.000000;
#CREDIT:Daff_4K;
#DISPLAYBPM:98.000000:195.000000;
#NOTES:
0000
0000
0000
0000
,
0000
0000
0000
0000
,
0000
0000
0000
0000
,
0000
0000
0000
0000
,
1000
0000
0000
0000
,
0100
0000
0000
0000
,
0001
0000
0000
0000
,
0100
0000
0000
0000
,
1000
0000
0000
0000
,
0001
0000
0000
0000
,
1001
0000
0000
0000
,
0000
0000
0000
0000
,
1000
0000
0000
0000
,
0000
0000
0000
0000
,
0100
0000
0000
0000
,
0100
0000
0000
0000
,
0100
0000
0000
0000
,
0000
0000
0000
0000
,
0010
0000
0000
0000
,
0010
0000
0000
0000
,
0010
0000
0000
0000
,
0000
0000
0000
0000
,
0001
0000
0000
0000
,
0000
0000
0000
0000
,
1000
0000
0000
0000
,
0000
0000
0000
0000
,
0001
0000
0000
0000
,
0000
0000
0000
0000
,
1001
0000
0000
0000
,
1000
0000
0000
0000
,
0001
0000
0000
0000
,
1000
0000
0000
0000
,
0010
0000
0000
0000
,
0000
0000
0000
0000
,
0100
0000
0000
0000
,
0100
0000
0000
0000
,
0100
0000
0000
0000
,
0000
0000
0000
0000
,
0001
0000
0000
0000
,
0000
0000
0000
0000
,
1001
0000
0000
0000
,
0000
0000
0000
0000
,
0000
0000
0000
0000
,
0000
0000
0000
0000
,
0000
0000
1000
0000
,
0000
0000
1000
0000
,
0000
0000
1000
0000
,
0000
0000
0000
0000
,
0000
0000
0001
0000
,
0000
0000
0001
0000
,
0000
0000
0001
0000
,
0000
0000
0000
0000
,
0000
0000
0100
0000
,
0000
0000
0100
0000
,
0000
0000
0100
0000
,
0000
0000
0100
0000
,
0000
0000
0000
0000
,
0000
0000
0001
0000
,
0000
0000
0000
0000
,
0000
0000
1001
0000
,
0000
0000
0000
0000
,
1000
0000
0000
0000
,
0001
0000
0000
0000
;

//---------------dance-single - Daff_4K----------------
#NOTEDATA:;
#CHARTNAME:Daff_4K;
#STEPSTYPE:dance-single;
#DESCRIPTION:Daff_4K;
#CHARTSTYLE:;
#DIFFICULTY:Easy;
#METER:7;
#RADARVALUES:0.340246,0.346636,0.100636,0.078273,0.000000,213.000000,204.000000,9.000000,7.000000,0.000000,0.000000,0.000000,0.000000,0.000000,0.340246,0.346636,0.100636,0.078273,0.000000,213.000000,204.000000,9.000000,7.000000,0.000000,0.000000,0.000000,0.000000,0.000000;
#CREDIT:Daff_4K;
#DISPLAYBPM:98.000000:195.000000;
#NOTES:
0000
0000
0000
0000
,
0000
0000
0000
0000
,
0000
0000
0000
0000
,
0000
0000
0000
0000
,
1000
0010
1000
0001
,
1000
0100
0010
0001
,
0100
0001
1000
0001
,
0010
0100
1000
0001
,
0100
0100
0010
0010
,
1000
0100
0010
0001
,
1001
0000
1000
0001
,
0100
0010
1000
0001
,
1001
0000
1000
0000
,
0100
0010
0100
0000
,
1000
0010
0100
0001
,
0010
0100
1000
0000
,
1001
0000
0001
0000
,
0100
0010
0100
0000
,
0001
0010
0100
1000
,
0010
0100
0001
0000
,
1000
0100
0010
0100
,
0001
0100
1000
0000
,
0001
0100
0010
0100
,
1000
0100
0001
0000
,
1000
0100
0010
0001
,
0100
0010
1000
0000
,
0001
0001
1000
1000
,
0100
0010
0001
0100
,
0020
1000
0000
1030
,
0002
0010
0000
0013
,
0200
1000
0000
1300
,
0002
0100
0000
0103
,
0010
1000
0001
0010
,
0001
1000
0010
1000
,
1001
0000
0110
0000
,
1000
0001
1000
0001
,
0100
0100
0010
0010
,
1000
1000
0001
0001
,
1000
0100
0010
0001
,
0100
0010
1000
0001
,
2001
0100
0000
0100
,
3002
0100
0000
0100
,
2003
0000
0001
0000
0000
0000
3001
1001
,
0000
0000
1000
0010
,
1000
0010
0001
0010
,
0001
0010
1000
0100
,
0001
0100
1000
0001
,
1000
0000
0001
0010
,
0001
0010
1000
0010
,
1000
0010
0001
0100
,
1000
0100
0001
1000
,
0001
0000
1000
0100
,
0001
0100
1000
0010
,
0001
0010
1000
0100
,
0010
0001
0100
0100
,
0010
0010
1000
0001
,
1000
0001
0010
0100
,
0010
0100
1000
1000
,
0001
0001
0100
0010
,
1000
0001
1001
0000
,
0000
0000
0000
0000
,
1000
0100
0010
0001
,
1001
0000
0000
0000
;

//---------------dance-single - Daff_4K----------------
#NOTEDATA:;
#CHARTNAME:Daff_4K;
#STEPSTYPE:dance-single;
#DESCRIPTION:Daff_4K;
#CHARTSTYLE:;
#DIFFICULTY:Medium;
#METER:11;
#RADARVALUES:0.495194,0.590469,0.480818,0.458454,0.027955,310.000000,267.000000,43.000000,41.000000,0.000000,0.000000,0.000000,0.000000,0.000000,0.495194,0.590469,0.480818,0.458454,0.027955,310.000000,267.000000,43.000000,41.000000,0.000000,0.000000,0.000000,0.000000,0.000000;
#CREDIT:Daff_4K;
#DISPLAYBPM:98.000000:195.000000;
#NOTES:
0000
0000
0000
0000
,
0000
0000
0000
0000
,
0000
0000
0000
0000
,
0000
0000
0000
0000
0000
0000
0000
1001
,
0000
1000
0010
1000
,
0001
0000
0010
0000
0100
1000
0100
0000
,
1000
0001
0100
0001
,
1000
0000
0100
0000
0010
0001
0010
0000
,
1002
0103
2001
3100
,
1002
0000
0103
0010
0000
0110
0000
2001
,
0000
3100
0010
0001
,
0100
0000
0010
0000
1000
0001
0000
2001
,
0000
3010
0001
0010
,
0100
0010
1000
0001
,
1000
0100
0010
0000
0001
0010
0100
0000
,
2000
0000
3002
0000
0103
0010
0000
1002
,
0000
0103
1000
0100
,
0010
0100
0001
1000
,
0001
0010
0100
0000
1000
0100
0010
0000
,
0001
0000
1000
0001
0000
1001
0000
2001
,
0000
3100
0010
0100
,
1000
0001
1000
0000
0010
0000
0100
0000
,
0001
0000
0010
0100
1000
0000
0001
0000
,
0100
0010
0100
0000
0010
0000
1000
0000
,
0001
0010
0100
0010
,
0001
1000
0001
0000
0100
0000
0010
0000
,
2000
3200
0320
0032
,
0203
0000
0320
0000
1030
0000
0000
1002
,
0000
0000
0000
0000
1003
0000
0100
0000
0010
0000
0000
0000
0001
0000
0000
2001
,
0000
0000
0000
0000
3001
0000
0010
0000
0100
0000
0000
0000
1000
0000
0000
1002
,
0000
0000
0000
0000
1003
0000
0010
0000
0100
0000
0000
0000
0001
0000
0000
2001
,
0000
0000
3001
0100
0010
0000
1000
0000
,
0200
1000
0010
1000
,
0320
0000
0001
0000
0100
0000
0031
2000
,
0000
3010
0000
0210
0000
0301
0000
0011
,
0000
1100
0000
1001
0000
0110
0000
1001
,
0000
0001
1000
0000
1100
0000
0001
0000
,
0101
1000
1010
0001
,
0011
0000
1000
0100
1000
0000
0001
0100
,
0001
0000
1001
0000
1000
0100
0010
0001
,
2000
0000
0010
0010
3020
0000
0230
0000
,
0301
0010
1000
0010
0200
0000
1300
0000
,
1002
0000
0000
0000
0100
0000
0100
0000
0203
0000
0000
0000
0310
1000
0000
1001
,
0000
0000
0000
1002
0000
0000
0103
0000
,
0010
0000
0100
0000
0001
0010
0100
0000
,
1000
0100
0010
0000
0001
0000
1000
0000
,
0010
0000
0100
0001
0000
1000
0001
0000
,
0010
0100
0000
2001
0000
0000
3010
0000
,
0100
0000
0010
0000
1000
0100
0010
0000
,
0001
0010
0100
0000
1000
0000
0001
0000
,
0100
0000
0010
1000
0000
0001
1000
0000
,
0100
0010
0000
1002
0000
0000
0100
0000
,
1000
0100
2003
0100
,
0001
0100
3020
0001
,
0100
0000
1030
0001
0000
0110
0000
1001
,
0000
0110
0000
1001
0000
0000
1010
0000
,
0110
0101
0011
0110
,
1100
0000
1001
0000
0001
0100
0001
0000
,
1000
0100
1000
0000
0001
0010
0100
0000
,
1000
0010
0100
0000
1002
0000
0010
0010
,
0023
0230
2300
3001
,
0100
0010
1000
0002
0000
1003
0000
0220
,
0000
0330
0000
0000
0000
0000
0000
0000
;

//---------------dance-single - Daff_4K----------------
#NOTEDATA:;
#CHARTNAME:Daff_4K;
#STEPSTYPE:dance-single;
#DESCRIPTION:Daff_4K;
#CHARTSTYLE:;
#DIFFICULTY:Hard;
#METER:15;
#RADARVALUES:0.793908,0.833604,0.402545,0.559090,0.385772,497.000000,461.000000,36.000000,50.000000,0.000000,0.000000,0.000000,0.000000,0.000000,0.793908,0.833604,0.402545,0.559090,0.385772,497.000000,461.000000,36.000000,50.000000,0.000000,0.000000,0.000000,0.000000,0.000000;
#CREDIT:Daff_4K;
#DISPLAYBPM:98.000000:195.000000;
#NOTES:
// measure 0
0000
0000
0000
0000
,  // measure 1
0000
0000
0000
0000
,  // measure 2
0000
0000
0000
0000
,  // measure 3
0000
0000
0000
0000
0000
0000
0000
2001
,  // measure 4
0000
3100
0010
0001
1000
0020
0000
0130
,  // measure 5
0000
0102
0000
1003
0000
0110
0000
1002
,  // measure 6
0000
0013
0100
1000
0001
0200
0000
0310
,  // measure 7
0000
0000
1001
0000
0000
0000
1000
0100
1000
0000
0001
0100
0001
0000
0020
0000
,  // measure 8
0000
0000
0130
0000
1000
0000
0001
1000
0001
0000
0100
0000
0010
0000
2000
0000
,  // measure 9
0000
3100
0010
0001
0000
0110
0000
1002
,  // measure 10
0000
0203
0010
0000
0010
0000
0010
0000
,  // measure 11
0310
1000
0001
0010
0100
1000
0000
1002
,  // measure 12
0000
0103
0020
0000
0130
0001
2000
0000
,  // measure 13
3100
0010
0001
2000
0000
3010
0100
0001
,  // measure 14
1000
0000
0001
0010
0001
0000
1000
0010
1000
0000
0100
0000
0010
0000
0001
0000
,  // measure 15
0100
0000
0010
0100
0010
0000
1000
0000
0001
0000
0010
0000
0000
0000
2001
0000
,  // measure 16
0000
3010
0200
0000
0310
1000
0002
0000
,  // measure 17
0013
0100
1000
0002
0000
0103
0010
1000
,  // measure 18
0001
0000
1000
0100
1000
0000
0001
0100
0001
0000
0010
0000
0100
0000
1000
0000
,  // measure 19
0010
0100
0001
1001
0000
0110
0000
1001
,  // measure 20
0000
1000
0100
0001
0100
1000
0010
0001
,  // measure 21
0010
1000
0100
0010
0001
0010
0100
1000
,  // measure 22
0010
0100
0010
1000
0100
0001
0100
1000
,  // measure 23
0010
0100
0001
1000
0100
1000
0010
0100
,  // measure 24
0001
0010
1000
0010
0001
0100
1000
0100
,  // measure 25
0001
0010
0100
1000
0100
0010
0001
1000
,  // measure 26
0001
0100
0001
0000
1000
0100
1000
0000
0001
0000
1000
0000
0010
0000
0100
0000
,  // measure 27
0001
0000
0000
1000
0000
0000
0100
0000
0010
0000
0100
0000
0010
0000
0000
0001
0000
0000
0000
0000
0000
2001
0000
0000
,  // measure 28
0000
0000
0000
0000
3100
0000
0010
0000
0001
0100
0000
0100
0000
1000
0000
0110
,  // measure 29
0000
1002
0000
0000
0013
0000
0100
0000
1000
0010
0000
0010
0000
0001
0000
0110
,  // measure 30
0000
2001
0000
0000
3100
0000
0010
0000
0001
0100
0000
0100
0000
1000
0000
0110
,  // measure 31
0000
0000
1002
0000
0000
0000
0000
0000
0013
0000
0000
0000
0100
0000
0000
0000
1000
0000
0000
0000
0001
0000
1000
0000
0010
0100
0010
0000
0100
0000
0002
0000
,  // measure 32
0000
1003
0100
0010
0100
0001
0100
1000
,  // measure 33
0010
0100
0010
0001
0010
1000
0100
0120
,  // measure 34
0000
0031
0100
0120
0000
1030
0100
0101
,  // measure 35
0000
1100
0000
1001
0000
0110
0000
1001
,  // measure 36
0000
0001
0010
1000
0010
0001
0100
1000
,  // measure 37
0100
0001
0010
0100
1000
0010
0100
0001
,  // measure 38
1000
0100
1000
0000
0001
0100
0001
0000
0010
0000
0100
0000
1000
0000
0001
0000
,  // measure 39
1000
0000
0010
0000
0100
0000
0001
0000
0010
0100
0010
0000
0100
0000
1000
0000
,  // measure 40
1002
0000
0013
2000
3010
0002
0103
1000
,  // measure 41
0002
0000
0000
0000
0013
0000
0000
0000
2000
0000
0000
0000
3001
0000
0000
0000
0020
0000
0000
0100
0000
0000
0130
0000
1000
0000
0000
0000
0001
0000
0000
0000
,  // measure 42
2001
0000
0000
0000
3100
0000
0002
0000
0103
0000
2000
0000
3001
1000
0000
1001
,  // measure 43
0010
0000
0100
0010
0100
0000
1002
0000
0000
0000
0013
0001
0020
0000
0000
0000
,  // measure 44
0130
0000
1000
0000
0010
1000
0010
0000
0100
0000
0001
0000
1000
0100
1000
0000
,  // measure 45
0001
0100
0010
1000
0001
0020
0100
0032
,  // measure 46
1000
0000
0103
0000
0010
0000
1000
0000
0001
0000
1000
0100
0010
0000
0001
0000
,  // measure 47
0010
0000
0100
0010
0100
0000
2001
0000
0000
0000
3010
1000
0020
0000
0000
0000
,  // measure 48
0130
0000
0001
0000
1000
0001
1000
0000
0100
0000
0010
0000
0001
1000
0001
0000
,  // measure 49
0100
1000
0100
0001
0100
0010
1000
0100
,  // measure 50
0010
0000
0001
0000
1000
0000
1001
0000
0001
0000
0100
0010
0100
0010
1000
0000
,  // measure 51
0100
0000
0010
0100
0010
0000
2001
0000
0000
0000
3100
1000
0200
0000
0000
0000
,  // measure 52
0310
0000
0001
0000
0100
0001
0100
0000
0010
0000
1000
0000
0001
0010
0001
0000
,  // measure 53
1000
0010
0100
0001
1000
0200
0010
2300
,  // measure 54
0001
0000
3010
0000
0100
0001
0010
0000
0100
1000
0010
0000
0100
0000
0001
0010
,  // measure 55
0001
0010
0100
1000
0100
1000
0002
0000
0000
0000
1003
0000
0010
0000
0001
0000
,  // measure 56
0010
1000
0100
0001
0100
1000
0010
0100
,  // measure 57
0001
0000
0010
0000
0100
0000
1000
0010
1000
0000
0001
0010
0001
0000
1000
0100
,  // measure 58
1000
0000
0001
0100
0001
0000
1000
0000
0100
0000
0010
0000
0001
0000
0100
0000
,  // measure 59
0010
1000
0001
1000
0001
1000
0200
0000
0000
0000
0000
0000
0310
0000
0002
0000
,  // measure 60
0103
0000
0000
0000
2000
0000
0000
0000
3100
0000
0000
0000
0001
0000
0000
0000
0020
0000
0000
0000
0130
0000
0000
0000
1000
0000
0001
1000
0001
0000
0100
0000
,  // measure 61
0010
1000
0001
0110
0000
1001
0000
0220
,  // measure 62
0000
0330
0000
0000
0000
0000
0000
0000
;

//---------------dance-single - [WARNING] Blue Lock Program Violation - D4K [NON-JUDGED]----------------
#NOTEDATA:;
#CHARTNAME:[WARNING] Blue Lock Program Violation - D4K [NON-JUDGED];
#STEPSTYPE:dance-single;
#DESCRIPTION:[WARNING] Blue Lock Program Violation - D4K [NON-JUDGED];
#CHARTSTYLE:;
#DIFFICULTY:Edit;
#METER:18;
#RADARVALUES:0.990388,1.285139,0.581454,0.782726,1.017544,620.000000,568.000000,52.000000,70.000000,0.000000,0.000000,0.000000,0.000000,0.000000,0.990388,1.285139,0.581454,0.782726,1.017544,620.000000,568.000000,52.000000,70.000000,0.000000,0.000000,0.000000,0.000000,0.000000;
#CREDIT:[WARNING] Blue Lock Program Violation - D4K [NON-JUDGED];
#DISPLAYBPM:98.000000:195.000000;
#NOTES:
0000
0000
0000
0000
,
0000
0000
0000
0000
,
0000
0000
0000
0000
,
0000
0000
0000
0000
0000
0000
0000
2001
,
0000
0000
3100
0010
0001
0000
0100
0000
0010
0000
2000
0000
0100
0000
3002
0000
,
0010
0000
0203
0000
1000
0000
0320
0000
0001
0000
1030
0001
1000
0000
1002
0000
,
0000
0000
0013
0100
1000
0000
0001
0000
0200
0000
1000
0000
0320
0000
0001
0000
,
1030
0000
0001
0010
0100
1000
0001
0000
1000
0010
0100
0001
1000
0000
1002
0000
,
0000
0000
0013
0100
0010
0000
0001
0100
0010
0000
1000
0100
0010
0000
0001
0000
,
1000
0010
0100
1001
0010
1001
0100
2002
,
3003
0002
0103
0020
1030
0002
0013
0200
,
1300
0002
0103
0020
1030
0001
0000
2001
,
0000
0000
3100
0010
0001
0000
1000
0001
1000
0000
0010
0000
0001
0000
0010
0000
,
1000
0100
0001
1000
0010
0001
0100
0010
,
1001
0000
1000
0100
0010
0000
0001
0100
0010
0000
1000
0001
0010
0000
0100
1000
,
0001
0000
0100
0010
0100
0010
1000
0100
0010
0001
0100
0010
1000
0000
1002
0000
,
0000
0000
0103
0010
1000
0000
0001
1000
0001
0000
0010
0000
1000
0000
0010
0000
,
0001
0100
1000
0001
0010
1000
0100
0010
,
1001
0000
0001
0100
0010
0000
1000
0100
0010
0000
0001
1000
0010
0000
0100
0001
,
1000
0000
0100
0010
0100
0000
2002
0000
3003
0000
0220
0000
0330
0000
2002
0000
,
3003
2000
0100
3002
0100
2003
0010
3001
,
0020
0000
1000
0000
0100
0000
0031
0000
1000
0000
0001
0100
0010
0000
1000
0000
,
0200
0001
0320
1000
0032
0100
2003
0010
,
3200
0000
0001
0000
0010
0000
1300
0000
0010
0100
0001
0000
0010
0100
1000
0000
,
0001
1000
0002
0000
0100
0000
2003
0000
0100
0000
3002
0000
0010
0000
1003
0000
,
0020
0000
0001
0000
0100
0000
1030
0000
0001
0000
1000
0100
0010
0000
0001
0000
,
1000
0010
0100
0000
0010
0100
0001
0000
1000
0100
0010
0000
0100
0010
0001
0000
,
0100
0000
0000
0010
0000
0000
0100
0000
0000
0010
0000
0000
1000
0000
0000
0001
0000
0000
1000
0000
0000
0001
0000
0000
0010
0000
0000
0000
0100
0000
0000
0000
1000
0000
0000
0000
0001
0000
0000
0000
0000
0000
2002
0000
0000
0000
0000
0000
,
0000
0000
0000
0000
0003
0000
0100
0000
0100
0100
0000
0100
0000
0100
0000
3200
,
0000
0020
0000
0000
0030
0000
0010
0000
0010
0010
0000
0010
0000
0010
0000
0320
,
0000
0002
0000
0000
0003
0000
0001
0000
0001
0001
0000
0001
0000
0001
0000
0032
,
0000
0000
2000
0000
0000
0000
0000
0000
3000
0000
0000
0000
1000
0000
0000
0000
1003
0000
0000
0000
0001
0000
1000
0000
0010
0100
0010
0100
0010
0100
0010
0100
,
0001
0010
0001
0010
0100
1000
0100
1000
0010
0100
0010
0100
0001
1000
0100
1000
,
0100
0010
0001
0010
0001
0100
0010
0100
0010
1000
0100
0010
0001
0000
0201
0000
,
0000
0000
0310
1000
0001
0000
1200
0000
0000
0000
0310
0001
1000
0000
0012
1000
,
0000
0003
2100
0001
0000
3000
0102
1000
0000
0003
2010
0001
0000
3000
2002
0000
,
3003
0000
0001
0010
0100
0000
0001
0100
0010
0000
0001
0100
0010
0000
1000
0100
,
0010
0000
1000
0010
0100
0000
1000
0010
0100
0000
0001
0010
0100
1000
0010
0100
,
0001
0000
1000
0001
0010
0000
0110
0000
1000
0000
0001
1000
0010
0000
0110
0000
,
0001
0000
1100
0000
0010
0000
0101
0000
1000
0100
0010
0001
0100
0010
1000
0001
,
1001
0000
0000
0000
,
0000
0000
0000
0000
,
0000
0000
0000
0000
0000
0000
0000
0000
0000
0000
0000
0000
0000
0000
0000
0000
0000
0000
0000
0000
0000
0000
0000
0000
0000
0000
0000
0000
0000
0000
0000
0000
0000
0000
0000
0000
0000
0000
0000
0000
0000
0000
0000
0000
0000
0000
0000
0000
0001
0000
1000
0000
0001
0000
1000
0000
0001
0000
0000
0000
0220
0330
0000
0000
,
1000
0000
0000
0001
0000
0000
0010
0000
0000
0100
0000
0000
1000
0000
0000
0001
0000
0000
0020
0000
0000
0000
0000
0000
0000
0000
0000
0000
0000
0000
0130
0000
1000
0000
0100
0000
2000
0000
0000
0000
0000
0000
0000
0000
0000
0000
0000
0000
,
3010
0100
0002
0000
0010
0000
1003
0000
0001
0100
0010
0000
2000
0000
0100
0000
,
3001
0010
1000
0000
0010
0000
0002
0000
1000
0000
0103
0000
0110
0000
1010
0000
,
1100
0000
0110
0000
0011
0000
0001
1000
0010
0000
0100
0001
1000
0000
0010
0100
,
0001
0000
0000
1000
0000
0000
0100
0000
0000
0010
0000
0000
0001
0000
0000
1000
0000
0000
0200
0000
0000
0000
0000
0000
0000
0000
0000
0000
0000
0000
0310
0000
0001
0000
0010
0000
0002
0000
0000
0000
0000
0000
0000
0000
0000
0000
0000
0000
,
0103
0010
2000
0000
0100
0000
3001
0000
1000
0010
0100
0000
0002
0000
0010
0000
,
1003
0100
0001
0000
0100
0000
2000
0000
0001
0000
3010
0000
0100
0001
0010
0000
,
0100
1000
0010
0000
0110
0000
1001
0000
1000
0100
0001
0000
0100
0010
0100
0000
,
1000
0010
0100
0001
0010
0100
1000
0010
1000
0010
0100
0001
0100
0001
1000
0100
,
0010
0001
0010
0100
1000
0001
0100
0001
0100
0010
1000
0010
1000
0001
0010
0100
,
1000
0100
0010
0001
1000
0010
0100
0010
1000
0001
1000
0100
0010
0001
0100
0010
,
0100
0001
1000
0001
0010
0100
1000
0000
1001
0000
0011
0000
1100
0000
1010
0000
,
0101
0000
0001
0010
0100
1000
0001
0100
0020
0000
1000
0100
0000
0000
0001
0100
,
0000
0000
1000
0100
0000
0000
0031
1000
0200
0000
1000
0010
0000
0000
0001
0010
,
0000
0000
1000
0010
0300
0000
1001
0000
1001
0000
1100
0000
1010
0000
1001
0000
,
1001
0000
0101
0000
0011
0000
1001
0000
1000
0001
0100
0010
1000
0001
0010
0100
,
1000
0000
0000
0010
0000
0000
0100
0000
0000
0001
0000
0000
0010
0000
0000
0100
0000
0000
1000
0000
0001
0000
1000
0000
0001
0000
0000
0000
0000
0000
0000
0000
0000
0000
0000
0000
0000
0000
0000
0000
0000
0000
0000
0000
0000
0000
0000
0000
,
0000
0000
0000
0000
0000
0000
0000
0000
0000
0000
0000
0000
0000
0000
0000
0000
0000
0000
0000
0000
0000
0000
0000
0000
1000
0010
0100
0001
0010
0100
1000
0000
,
1010
0000
0000
0000
0000
0000
0101
0000
0000
0000
0000
0000
0011
0000
0000
0000
0000
0000
1100
0000
0000
0000
0000
0000
1000
0000
0000
0001
0000
0000
0100
0000
0000
0010
0000
0000
1000
0000
0001
0000
2000
0000
0002
0000
0000
0000
0000
0000
,
0000
3003
0000
0000
0000
0000
0000
0000
;
