#VERSION:0.83;
#TITLE:CANDY☆;
#SUBTITLE:(AS-13 Remix);
#ARTIST:AS-13;
#TITLETRANSLIT:;
#SUBTITLETRANSLIT:;
#ARTISTTRANSLIT:;
#GENRE:;
#ORIGIN:;
#TAGS:;
#CREDIT:;
#BANNER:candy-bn.png;
#BACKGROUND:candy-bg.png;
#PREVIEWVID:;
#JACKET:;
#CDIMAGE:;
#DISCIMAGE:;
#LYRICSPATH:;
#CDTITLE:;
#MUSIC:CANDY☆ (AS-13 Remix).mp3;
#OFFSET:-0.020000;
#SAMPLESTART:64.866722;
#SAMPLELENGTH:12.000000;
#SELECTABLE:YES;
#BPMS:0.000000=185.000000
;
#STOPS:;
#DELAYS:;
#WARPS:;
#TIMESIGNATURES:0.000000=4=4
;
#TICKCOUNTS:0.000000=4
;
#COMBOS:0.000000=1
;
#SPEEDS:0.000000=1.000000=0.000000=0
;
#SCROLLS:0.000000=1.000000
;
#FAKES:;
#LABELS:0.000000=Song Start
;
#BGCHANGES:;
#KEYSOUNDS:;
#ATTACKS:
;

//---------------dance-single - ----------------
#NOTEDATA:;
#CHARTNAME:;
#CHARTHASH:166404617;
#STEPSTYPE:dance-single;
#BANNER:;
#DESCRIPTION:;
#CHARTSTYLE:;
#DIFFICULTY:Easy;
#METER:8;
#METERF:8.000000;
#LASTSECONDHINT:23.047028;
#RADARVALUES:0.409669,0.431437,0.308169,0.179765,0.000000,335.000000,299.000000,36.000000,21.000000,0.000000,0.000000,0.000000,0.000000,0.000000,0.409669,0.431437,0.308169,0.179765,0.000000,335.000000,299.000000,36.000000,21.000000,0.000000,0.000000,0.000000,0.000000,0.000000;
#CREDIT:;
#NOTES:
// measure 0
0000
0000
0000
0000
,  // measure 1
0000
0000
0000
0000
,  // measure 2
0001
0001
0100
0000
,  // measure 3
1000
0100
0001
0000
,  // measure 4
1000
1000
0010
0000
,  // measure 5
0001
0010
1000
0000
,  // measure 6
0001
0001
0010
0000
,  // measure 7
1000
0010
0001
0100
,  // measure 8
1001
1000
1100
0000
,  // measure 9
1000
0001
0100
0000
,  // measure 10
1001
0001
0101
0000
,  // measure 11
0010
0100
0001
0100
,  // measure 12
0010
0010
0101
0000
,  // measure 13
0100
0010
1000
0000
,  // measure 14
1000
0001
0110
0001
,  // measure 15
1000
1000
0100
1001
,  // measure 16
0002
0000
0000
0000
,  // measure 17
0100
1000
0010
1003
,  // measure 18
0001
0010
0001
0100
,  // measure 19
1000
0100
0001
1000
,  // measure 20
0100
0001
0100
1000
,  // measure 21
0001
0010
1000
0100
,  // measure 22
0001
1000
0010
1000
,  // measure 23
0100
0010
1000
0010
,  // measure 24
0001
1000
0010
0001
,  // measure 25
1000
0100
0001
1000
,  // measure 26
0100
1001
0100
1001
,  // measure 27
0010
1000
0001
0100
,  // measure 28
0010
1001
0100
1001
,  // measure 29
0001
0010
0001
1000
,  // measure 30
0010
0101
1000
0101
,  // measure 31
0010
1000
0100
0010
,  // measure 32
0001
1100
0010
1100
,  // measure 33
0001
1000
0010
0100
,  // measure 34
0002
0100
0100
0100
,  // measure 35
2003
0100
0100
0100
,  // measure 36
3002
0010
0010
0010
,  // measure 37
2003
0010
0010
0010
,  // measure 38
3002
0100
1000
0100
,  // measure 39
2003
0100
0001
0100
,  // measure 40
3002
0010
1000
0010
,  // measure 41
2003
0010
3001
1010
,  // measure 42
1001
0000
0001
0000
0010
0000
0000
0001
,  // measure 43
0000
0010
0001
0000
,  // measure 44
1000
0000
0001
0000
0010
0000
0000
0001
,  // measure 45
0000
1000
0010
0000
,  // measure 46
1000
0000
0001
0000
1000
0000
0000
0010
,  // measure 47
0000
1000
0001
0100
,  // measure 48
2002
0000
0000
0000
,  // measure 49
0003
0000
0010
0020
0000
0000
3030
0000
,  // measure 50
0001
0000
1000
0000
1100
0000
0000
1000
,  // measure 51
0000
1000
0001
0000
0101
0000
0000
0000
,  // measure 52
0001
0000
1000
0000
1010
0000
0000
1000
,  // measure 53
0000
1000
0001
0000
0011
0000
0010
0000
,  // measure 54
0002
0000
0003
0001
2000
0000
3000
0000
,  // measure 55
0010
1000
0001
0100
,  // measure 56
1000
0000
0100
0000
0001
0000
1000
0100
,  // measure 57
0000
1000
0100
0000
1000
0000
0001
0000
,  // measure 58
0010
0000
0001
0000
0101
0000
0000
0010
,  // measure 59
0000
0010
1000
0000
1100
0000
0000
0000
,  // measure 60
0001
0000
0100
0000
1010
0000
0000
1000
,  // measure 61
0000
1000
0100
0000
0011
0000
0001
0000
,  // measure 62
2000
0000
3000
1000
0002
0000
0003
0000
,  // measure 63
1000
0010
0001
0100
,  // measure 64
1000
0000
0100
0000
0010
0000
0001
0010
,  // measure 65
0000
0001
0010
0000
0001
0000
1000
0000
,  // measure 66
0010
0000
0100
0000
0101
0000
0000
1000
,  // measure 67
0000
1000
0010
0000
0101
0000
0000
0000
,  // measure 68
0010
0000
0001
0000
1100
0000
0000
0001
,  // measure 69
0000
0001
0010
0000
1001
0000
1000
0000
,  // measure 70
0200
0000
0300
0100
0020
0000
0030
0000
,  // measure 71
0001
0010
1000
0010
,  // measure 72
0001
0000
1000
0000
0100
0000
1000
0010
,  // measure 73
0000
0010
1000
0000
0010
0000
1000
0000
,  // measure 74
0001
0000
0100
0000
1010
0000
0000
1000
,  // measure 75
0000
1000
0100
0000
0011
0000
0000
0000
,  // measure 76
0001
0000
0010
0000
1100
0000
0000
1000
,  // measure 77
0000
1000
0010
0000
0101
0000
1000
0000
,  // measure 78
0200
0000
0000
0000
0310
0000
0000
0100
,  // measure 79
0000
0100
0010
0000
0001
0000
1000
0000
,  // measure 80
0001
0000
0001
0000
0100
0000
0100
0010
,  // measure 81
0000
0010
0100
0000
0100
0000
0001
0000
,  // measure 82
2200
0000
0000
0300
,  // measure 83
0001
0010
0001
3100
,  // measure 84
1001
0000
0000
0000
;

//---------------dance-single - ----------------
#NOTEDATA:;
#CHARTNAME:;
#CHARTHASH:1128693446;
#STEPSTYPE:dance-single;
#BANNER:;
#DESCRIPTION:;
#CHARTSTYLE:;
#DIFFICULTY:Medium;
#METER:10;
#METERF:10.000000;
#LASTSECONDHINT:108.992973;
#RADARVALUES:0.529513,0.539296,0.410892,0.094163,0.000000,433.000000,385.000000,48.000000,11.000000,0.000000,0.000000,0.000000,0.000000,0.000000,0.529513,0.539296,0.410892,0.094163,0.000000,433.000000,385.000000,48.000000,11.000000,0.000000,0.000000,0.000000,0.000000,0.000000;
#CREDIT:;
#NOTES:
0000
0000
0000
0000
,
0000
0000
0000
0000
,
0010
0000
1000
0000
1100
0000
0000
1000
,
0100
0000
1000
0100
0000
0000
0010
0000
,
1001
0000
0001
0000
0101
0000
0000
0100
,
0000
0100
0001
0000
0110
0000
0000
1000
,
0001
0000
1000
0000
0110
0000
0010
1000
,
0000
0010
0100
0000
1001
0000
0001
1000
,
0010
0000
1000
0000
1001
0000
0001
0010
,
0000
0010
0001
0000
1000
0000
0010
0000
,
0101
0000
1000
0001
0100
0000
0001
0000
,
0101
0000
1000
0001
0000
0001
0100
0000
,
1001
0000
1100
0000
0001
0000
1000
0001
,
0000
1000
0010
0000
0100
0010
0000
0000
,
1001
0000
1000
0001
0010
0000
0001
1000
,
0000
1010
0000
0011
0000
0000
1001
0000
,
2200
0000
0000
0300
,
0001
0010
0001
3100
,
0010
0100
0010
0000
0100
0000
1000
0100
,
0000
1000
0100
0000
0010
0001
0010
0000
,
0001
0100
0001
0000
0100
0000
0010
1000
,
0000
0010
0100
0000
0001
0000
0100
0010
,
1000
0000
0010
0000
0100
0010
0100
0010
,
0000
1000
0010
0000
0100
0001
0100
0000
,
0010
0000
1000
0000
0100
0000
1000
0001
,
0000
1000
0001
0010
0001
0000
1000
0001
,
0100
0000
1000
0000
0100
0000
0001
0100
,
0000
1000
0100
0000
0001
0010
0001
0010
,
0001
0000
1000
0000
0100
0000
0001
0100
,
0000
1000
0100
1000
0001
1000
0100
0000
,
1000
0000
1010
0000
0001
0000
0011
0010
,
0000
0001
1000
0000
0110
0000
1001
0000
,
0100
0001
0100
0000
1001
0000
0100
1000
,
0000
1000
0100
0010
0000
0100
1000
0000
,
1001
0001
0100
0100
,
0001
1000
0100
0100
,
1000
0010
0100
0010
,
1000
0001
0100
0100
,
0001
0100
1000
1000
,
0100
0001
0010
0010
,
0100
1000
0001
0001
,
1000
0100
0010
0110
,
1001
0000
0001
0000
1000
0000
0001
0100
,
0000
0001
0100
0000
0001
0000
1000
0000
,
0010
0000
1000
0000
0001
0000
1000
0010
,
0000
1000
0010
0000
1000
0000
0001
0000
,
0010
0000
0001
0000
1000
0000
0001
0100
,
0000
0001
1000
0000
0100
0000
1000
0000
,
0101
0000
0000
0000
,
0000
0100
0110
0220
0000
0000
0330
0000
,
0001
1000
0001
0000
0110
0000
1000
0001
,
0000
0001
1000
0000
0110
0000
1000
0001
,
0100
0000
1001
0000
0110
0000
0010
1000
,
0000
1000
0001
0000
1100
0000
1001
0000
,
0100
0000
0001
1000
0200
0000
0300
0000
,
1000
0100
1000
0100
1000
0001
1000
0000
,
0001
0100
0010
0000
1001
0000
0010
1000
,
0000
1000
0010
0000
0100
0010
0100
0000
,
1001
0000
0101
0000
1100
0000
0001
1000
,
0000
0001
0100
0000
0001
1000
0100
0000
,
1001
0000
0100
0001
0100
0000
0001
1000
,
0000
1000
0100
1000
0001
0000
1010
0000
,
0200
0000
0300
0001
0020
0000
0030
0000
,
0001
0010
0001
0010
0001
1000
0100
0000
,
1000
0100
1000
0000
0001
0000
1000
0010
,
0000
0010
1000
0010
1000
0001
0100
0000
,
0001
0000
1100
0000
1001
0000
0100
0001
,
0100
0001
1000
0000
0100
0000
1000
0000
,
1001
0000
0010
0001
0010
0000
0001
1000
,
0000
0001
0100
0001
0100
0000
0001
1000
,
0200
0000
0300
0100
0020
0000
0030
0000
,
0100
1000
0100
1000
0001
0010
0001
0000
,
1000
0000
0010
0000
1000
0001
1000
0010
,
0000
1000
0010
0000
1000
0000
1001
0000
,
0100
1000
0100
0000
0010
0000
0100
1000
,
0000
0100
0010
0000
0001
0010
0001
0000
,
0100
0000
0001
0000
0100
0010
0100
0010
,
0000
1000
0001
0000
1000
0000
0110
0000
,
0002
0000
0000
0000
0103
0000
0000
0100
,
0000
0001
0100
0000
0010
0000
0100
0000
,
0001
0000
1100
0010
,
0000
0100
0010
0000
1001
0000
0110
0000
,
0002
0000
0000
0000
,
0100
0010
1000
0103
,
1010
0000
0000
0000
;

//---------------dance-single - ----------------
#NOTEDATA:;
#CHARTNAME:;
#CHARTHASH:2147483647;
#STEPSTYPE:dance-single;
#BANNER:;
#DESCRIPTION:;
#CHARTSTYLE:;
#DIFFICULTY:Hard;
#METER:13;
#METERF:13.000000;
#LASTSECONDHINT:108.992973;
#RADARVALUES:0.653025,0.719061,0.436573,0.196886,0.064202,534.000000,483.000000,51.000000,23.000000,0.000000,0.000000,0.000000,0.000000,0.000000,0.653025,0.719061,0.436573,0.196886,0.064202,534.000000,483.000000,51.000000,23.000000,0.000000,0.000000,0.000000,0.000000,0.000000;
#CREDIT:;
#NOTES:
0000
0000
0000
0000
,
0000
0000
0000
0000
,
1010
0000
0101
0000
0010
0100
0010
0100
,
0001
1000
0001
0100
0000
0100
0010
0000
,
1001
0000
0110
0000
1000
0100
1000
0010
,
0000
0110
0000
0100
0001
0010
0001
0000
,
0100
0010
0000
0000
1000
0000
0000
0010
0100
0000
0001
0000
0100
0000
0010
0000
,
1000
0001
0000
1100
0000
0100
0010
0000
,
1001
0000
0000
0000
0100
0000
0000
0100
1000
0000
0100
0000
1000
0000
0001
0000
,
0000
0000
0001
0000
0100
0000
0000
0100
0001
0000
1000
0000
0100
0000
1000
0000
,
0001
0000
0101
0000
0100
0010
1000
0010
,
0100
0000
0000
0001
1000
0000
0100
0000
0000
0000
1000
0000
0010
0000
0100
0000
,
0010
0000
0000
0000
1001
0000
0000
1000
0010
0000
1000
0000
0001
0000
0010
0000
,
0000
0100
1000
0010
1001
1001
0000
1000
,
0010
0000
0000
0010
1000
0000
0100
0000
1010
0000
0000
0000
1000
0000
0010
0000
,
0100
0001
0010
0011
1001
0000
1010
0000
,
0200
0000
0000
0000
,
0001
0010
1000
0310
,
1000
0001
0100
0000
0010
1000
0001
0100
,
0000
0100
0010
0100
0001
0000
0010
0001
,
0100
1000
0100
0000
0001
0100
0010
1000
,
0000
0010
1000
0100
0010
0001
0010
0100
,
1000
0000
0100
1000
0100
0000
1000
0010
,
0000
0010
1000
0010
1000
0100
0010
0100
,
1000
0100
0010
0000
0001
0010
0100
1000
,
0000
0000
0110
0000
0001
0000
1000
0000
0100
0000
0000
0000
1001
0000
0010
0001
,
0010
0100
1000
0100
0010
0001
1000
0100
,
0000
1000
0100
0010
0001
1000
0100
0000
,
1000
0100
1000
0010
0100
0001
0100
0010
,
0000
0100
0001
0100
0010
1000
0100
1000
,
0001
0000
0101
0000
1000
0001
0010
0100
,
0000
0010
0001
0100
1000
0100
0001
0000
,
1000
0010
1000
0010
0100
0001
0010
0011
,
0000
0001
1001
1001
0000
0000
1100
0000
,
0101
0000
0001
0000
0100
0000
0001
1000
,
0000
0001
0100
0000
0001
0000
0100
0000
,
0010
0000
1000
0000
0100
0000
1000
0001
,
0000
1000
0010
0000
1000
0000
0100
0000
,
0010
0000
0001
0000
1000
0000
0001
0100
,
0000
0001
0010
0000
0001
0000
0100
0000
,
0010
0000
1000
0000
0100
0000
1000
0010
,
0000
0000
1000
0000
0001
0000
1000
0000
0100
0000
0000
0000
1000
0001
1000
0001
,
0100
0000
0010
1000
0010
0000
0100
0001
,
0000
0100
0010
0000
0100
0000
0001
0100
,
0001
0000
1000
0010
0100
0000
0010
1000
,
0000
0001
0100
0000
0001
0100
0000
0001
,
1000
1000
0001
0100
0001
0000
0100
0001
,
0000
0000
0100
0000
0010
0000
0000
0000
1000
0000
0010
0000
0100
0001
0100
0001
,
0100
0000
0000
0000
,
0000
0010
1001
0220
0000
0000
0330
0000
,
1000
0000
0021
0000
0130
0000
0001
0010
,
0000
1000
0100
0000
1000
0100
0010
0001
,
0100
0000
1010
0000
0010
1000
0100
0010
,
0000
1000
0001
0100
1000
0001
0100
0010
,
2000
0000
3000
0110
0220
0000
0330
0000
,
0001
0100
0001
0100
1000
0010
0001
0100
,
0010
1000
0100
0000
1000
0100
0010
0001
,
0000
0000
0001
0000
0010
0000
0100
0000
1000
0000
0000
1000
0010
0000
0100
0010
,
1000
0000
0201
0000
0310
0000
0001
0100
,
0000
1000
0010
0000
1000
0010
0100
0001
,
0100
0000
2010
0000
3100
1000
0010
0100
,
0000
1000
0100
0001
0010
0001
1000
0010
,
0200
0000
0300
1100
2200
0000
3300
0000
,
0001
0010
1000
0010
1000
0100
0001
0100
,
0001
0000
1000
0100
1000
0000
0010
1000
,
0000
1000
0100
0010
0001
0010
0100
0010
,
0001
0000
2100
0000
3010
0000
0100
1000
,
0000
0001
0100
0000
1000
0100
0010
0001
,
1000
0000
0102
0000
0013
0001
1000
0100
,
0000
0100
0010
0001
0100
1000
0100
0001
,
0020
0000
0030
1010
2020
0000
3030
0000
,
0001
0100
0010
1000
0010
0001
1000
0100
,
0001
0000
1000
0100
1000
0001
0100
0010
,
0000
1010
1001
0000
0100
0010
0101
0000
,
1100
0000
1002
0000
0103
0000
0010
0001
,
0000
0100
1000
0000
0001
1000
0100
0010
,
0001
0000
0101
0000
1000
0100
1000
0010
,
0000
1000
0010
0100
0001
0100
0010
1000
,
0200
0000
0000
0000
0300
0000
1000
0000
2200
0000
0000
3300
0000
0000
1001
0000
,
0000
0100
0010
0000
1001
0110
0000
1000
,
0010
0000
0010
0100
1001
0000
0101
0010
,
0000
1000
0010
0001
0010
1000
0100
0001
,
2200
0000
0000
3300
,
0001
0100
0001
0100
1000
0010
0001
0100
,
0110
0000
0000
0000
;
