#TITLE:Butterfly;
#SUBTITLE:~One Summer Day, We'll See~;
#ARTIST:Z-i-V Sound Team "TonyAkita";
#TITLETRANSLIT:;
#SUBTITLETRANSLIT:;
#ARTISTTRANSLIT:;
#GENRE:;
#CREDIT:;
#BANNER:Butterfly.png;
#BACKGROUND:Butterfly-bg.png;
#LYRICSPATH:;
#CDTITLE:;
#MUSIC:Butterfly.mp3;
#OFFSET:-0.027610;
#SAMPLESTART:46.573002;
#SAMPLELENGTH:11.636000;
#SELECTABLE:YES;
#BPMS:0.000000=165.000000
;
#STOPS:
;
#BGCHANGES:;
#KEYSOUNDS:;
#ATTACKS:;

//---------------dance-single - ----------------
#NOTES:
     dance-single:
     :
     Challenge:
     15:
     0.598781,0.868919,0.111658,0.223316,0.274850,488.000000,475.000000,13.000000,26.000000,0.000000,0.000000,0.598781,0.868919,0.111658,0.223316,0.274850,488.000000,475.000000,13.000000,26.000000,0.000000,0.000000:
0000
0000
0000
0000
,
0000
0000
0000
0000
,
0000
0000
0000
0000
,
0000
0000
0000
0000
,
0000
0000
0000
0000
,
0000
0000
0000
0000
,
0000
0000
0000
0000
,
0000
0000
0000
0000
,
2000
0010
0000
0010
0000
0010
3000
0010
,
2000
0100
0000
0100
0000
0100
3000
1000
,
0002
0010
0000
0010
0000
0010
0003
0010
,
0002
0100
0000
0100
0000
0100
0003
0001
,
0102
0100
0000
1000
0000
0103
0000
1000
,
2100
0100
0000
0001
0000
0100
3000
0001
,
1001
1000
0100
1000
1001
0001
0100
0001
,
1000
0000
0100
0000
0010
0000
0001
0000
1000
0010
1000
0010
0100
0001
0100
0001
,
0400
0001
0000
0010
0000
0001
0300
0010
,
1000
0000
0100
0000
1000
0000
0010
0000
1000
0000
0100
0000
0010
0000
0001
1000
,
0400
1000
0000
0010
0000
1000
0300
0010
,
0001
0000
0100
0000
0001
0000
0010
0000
0001
0000
0100
0000
0010
0000
1000
0001
,
0040
1000
0000
0001
0000
1000
0030
0100
,
1000
0000
0100
0000
0001
0000
0100
0000
1000
0000
0100
0000
0010
0000
0001
1000
,
0040
0001
0000
1000
0000
0001
0030
0100
,
0001
0000
0100
0000
1000
0000
0100
0000
0001
1000
0001
1000
0001
0000
0010
0100
,
1000
0100
1000
0010
1000
0100
0010
0001
,
0001
0100
0001
0010
0001
0100
0010
1000
,
1000
0100
0001
0100
1000
0100
0010
0001
,
0001
0000
0100
0000
1000
0000
0100
0000
0001
0000
0100
0000
0010
0000
1000
0001
,
0010
0100
1000
0001
0100
0010
1000
1000
,
0100
0010
0001
1000
0010
0100
0001
0001
,
0010
0001
0100
0001
0010
0001
0100
0010
,
1000
0100
1000
0010
1000
0100
0010
0001
,
1000
0010
1000
0010
1000
0000
0001
0000
0001
0000
0100
0000
0001
0000
0010
0000
,
0001
0010
0001
0010
0001
0000
1000
0000
1000
0000
0100
0000
1000
0000
0010
0000
,
0100
0001
0100
0001
0100
0000
0010
0000
0010
0000
1000
0000
0100
0000
0001
0000
,
0100
1000
0100
1000
0100
0000
0010
0000
0010
0000
0001
0000
0100
0000
1000
0000
,
0100
0001
0100
0010
0100
0000
0001
0000
0001
0000
1000
0000
0100
0000
0010
0000
,
0100
1000
0100
0010
0100
0000
1000
0000
1000
0000
0001
0000
0100
0000
0010
0000
,
1000
0010
0100
0001
1000
0000
0010
0000
0010
0000
1000
0000
0001
0000
1000
0000
,
0001
0010
0100
1000
0010
0000
0010
0000
1000
0010
0100
0001
0010
0000
0010
0000
,
0001
0100
1000
0100
0001
0000
0100
0000
0100
0000
0010
0000
1000
0000
0100
0000
,
1000
0100
0001
0100
1000
0000
0100
0000
0100
0000
0010
0000
0001
0000
0100
0000
,
0001
0100
0010
1000
0001
0000
0010
0000
0010
0000
1000
0000
0010
0000
0001
0000
,
1000
0100
0010
0001
1000
0000
0010
0000
0010
0000
0001
0000
0010
0000
1000
0000
,
0001
0100
0001
0100
0010
0000
0100
0001
0100
0001
0100
0001
0010
0000
0100
0000
,
1000
0100
1000
0100
0010
0000
0100
1000
0100
1000
0100
1000
0010
0000
0100
0000
,
0001
0010
0001
0010
0001
0000
1000
0000
1000
0000
0010
0000
1000
0000
0100
0000
,
0001
0000
0100
0000
1000
0000
0100
0000
0010
0000
0001
0000
0100
0010
0100
0010
,
0200
0000
0000
0300
,
2001
0000
0000
0000
0000
0000
0000
0010
,
3010
0200
0302
0013
,
0012
0000
0000
0000
2000
0000
3003
1000
,
0001
0000
0020
0000
,
0032
0000
0000
0000
0000
0000
0000
0010
,
0013
0200
2300
3010
,
2010
0000
0000
0000
0002
0000
3003
0001
,
1000
0000
0020
0000
,
1030
0000
0001
0000
0101
0000
1000
0100
,
0020
0100
1000
0100
,
0031
0000
1000
0000
1100
0000
0001
0100
,
0020
0000
0000
0000
0100
0000
0000
0000
0031
0000
0100
0010
0100
0000
0010
0000
,
1010
0000
0000
0000
1001
0000
0000
0001
,
0011
0000
1001
0000
,
2000
0100
0001
0100
,
3001
0100
0001
0100
0010
1000
0010
1000
,
0200
0000
0000
0000
,
0300
2000
3002
0023
,
0030
0100
1000
0010
1000
0100
0010
0001
,
0001
0100
0001
0010
0001
0100
0010
1000
,
1000
0001
0010
1000
0010
0001
0010
0100
,
0100
1000
0010
0001
0010
1000
0100
0010
,
0040
0000
0100
0000
0000
0000
0001
0000
0000
0000
0100
0000
0030
0000
0001
1000
,
0040
0000
0100
0000
0000
0000
1000
0000
0000
0000
0100
0000
0030
0000
1000
0010
,
1000
0000
0001
0000
0001
0000
1000
0100
1000
0000
0001
0000
0001
0000
1000
0100
,
0010
0001
0010
0001
0100
0001
0100
0001
1000
0010
0100
0001
1000
0010
0100
0001
;

//---------------dance-single - ----------------
#NOTES:
     dance-single:
     :
     Hard:
     11:
     0.439270,0.676390,0.137425,0.360741,0.137425,358.000000,342.000000,16.000000,42.000000,0.000000,0.000000,0.439270,0.676390,0.137425,0.360741,0.137425,358.000000,342.000000,16.000000,42.000000,0.000000,0.000000:
// measure 0
0000
0000
0000
0000
,  // measure 1
0000
0000
0000
0000
,  // measure 2
0000
0000
0000
0000
,  // measure 3
0000
0000
0000
0000
,  // measure 4
0000
0000
0000
0000
,  // measure 5
0000
0000
0000
0000
,  // measure 6
0000
0000
0000
0000
,  // measure 7
0000
0000
0000
0000
,  // measure 8
2100
0000
0000
0000
0000
0000
0000
0010
,  // measure 9
3020
0000
0000
0030
,  // measure 10
0102
0000
0000
0000
0000
0000
0000
0010
,  // measure 11
0023
0000
0000
0030
,  // measure 12
2100
0000
0000
0000
0000
0000
0000
3001
,  // measure 13
0102
0000
0000
0000
0000
0000
0000
1003
,  // measure 14
1010
0000
0011
0000
,  // measure 15
1000
0001
1000
0001
1000
0100
0010
0001
,  // measure 16
2000
0000
0010
0000
0001
0000
3010
0100
,  // measure 17
0001
2000
3200
0320
,  // measure 18
0032
0003
0101
0000
,  // measure 19
0001
0010
0001
0100
,  // measure 20
0002
0000
0010
0000
1000
0000
0013
0100
,  // measure 21
1000
0002
0203
0320
,  // measure 22
2030
3000
1100
0000
,  // measure 23
1000
0010
1000
0100
,  // measure 24
4000
0001
0000
0001
0000
0001
3000
0000
,  // measure 25
0001
0100
1000
0100
,  // measure 26
0004
1000
0000
1000
0000
1000
0003
0000
,  // measure 27
1000
0100
0001
0100
,  // measure 28
0040
0001
0000
0001
0000
0001
0030
0000
,  // measure 29
1000
0100
0010
0001
,  // measure 30
4000
0010
0000
0010
0000
0010
3000
0000
,  // measure 31
1000
0100
1000
0100
0010
0001
0010
0001
,  // measure 32
1000
0010
1000
0010
1000
0000
0001
0000
0100
0000
0100
0000
0100
0000
0000
0000
,  // measure 33
0001
0010
0001
0010
0001
0000
1000
0000
0100
0000
0100
0000
0100
0000
0000
0000
,  // measure 34
0010
0001
0010
0001
0010
0000
0001
0000
0100
0000
0001
0000
0100
0000
0000
0000
,  // measure 35
0010
1000
0010
1000
0010
0000
1000
0000
0100
0000
1000
0000
0100
0000
0000
0000
,  // measure 36
1000
0010
1000
0010
1000
0000
0001
0000
0100
0000
0001
0000
0010
0000
0000
0000
,  // measure 37
0001
0010
0001
0010
0001
0000
1000
0000
0100
0000
1000
0000
0010
0000
0000
0000
,  // measure 38
0100
0001
0100
0001
0100
0000
0001
0000
0010
0000
1000
0000
0010
0000
0000
0000
,  // measure 39
0100
1000
0100
1000
0100
0000
1000
0000
0010
0000
0001
0000
0010
0000
0100
0000
,  // measure 40
0001
0100
0001
0100
0001
0000
2000
0000
0010
0000
0010
0000
3010
0000
0000
0000
,  // measure 41
1000
0100
1000
0100
1000
0000
0002
0000
0010
0000
0010
0000
0013
0000
0000
0000
,  // measure 42
0001
1000
0001
1000
0001
0000
0200
0000
0010
0000
0010
0000
0310
0000
0000
0000
,  // measure 43
1000
0001
1000
0001
1000
0000
0200
0000
0010
0000
0010
0000
0310
0000
0000
0000
,  // measure 44
0001
0010
0001
0010
0001
0000
1000
0000
0100
0000
0001
0000
0100
0000
1000
0000
,  // measure 45
0001
0100
0001
0100
0001
0000
1000
0000
0010
0000
0001
0000
0010
0000
1000
0000
,  // measure 46
0001
0010
0001
0010
0001
0000
1000
0000
0010
0000
0100
0000
0001
0000
0010
0000
,  // measure 47
0100
1000
0100
1000
0100
0000
1000
0000
0001
0000
0100
0000
1000
0000
0100
0000
,  // measure 48
0020
0000
0000
0030
,  // measure 49
2100
0000
0000
0000
,  // measure 50
3001
2000
3020
0230
,  // measure 51
0302
0000
0020
0000
,  // measure 52
0033
0000
1001
0000
,  // measure 53
0102
0000
0000
0000
,  // measure 54
1003
0002
0023
0230
,  // measure 55
2300
0000
0020
0000
,  // measure 56
3030
0000
1001
0000
,  // measure 57
2000
0000
0010
0000
3010
0000
0000
1000
,  // measure 58
0001
0100
0001
0100
,  // measure 59
0002
0000
0010
0000
0013
0000
0000
0001
,  // measure 60
1000
0000
0100
0000
1000
0000
0001
0100
,  // measure 61
0020
0000
1030
0000
0101
0000
0000
0001
,  // measure 62
0020
0000
0031
0000
1100
0000
0000
0001
,  // measure 63
0200
0010
0010
0310
,  // measure 64
0100
0001
0100
0001
1000
0100
0010
0001
,  // measure 65
0200
0000
0000
0300
,  // measure 66
0000
0002
0010
0010
,  // measure 67
0013
0100
1000
0100
0010
0100
1000
0000
,  // measure 68
0001
0100
0010
0100
0001
0100
0010
0000
,  // measure 69
1000
0100
0001
0100
1000
0100
0010
0000
,  // measure 70
0001
0100
1000
0100
0001
0100
0010
0000
,  // measure 71
2010
0001
0001
3001
,  // measure 72
0012
1000
1000
1003
,  // measure 73
1000
0100
1000
0100
0001
0100
0001
0100
,  // measure 74
0040
0001
0000
1000
0000
0001
0000
1000
,  // measure 75
0030
0000
0000
0000
;
