#TITLE:Busy Child;
#SUBTITLE:;
#ARTIST:The Crystal Method;
#TITLETRANSLIT:;
#SUBTITLETRANSLIT:;
#ARTISTTRANSLIT:;
#GENRE:;
#CREDIT:;
#BANNER:Busy Child.png;
#BACKGROUND:Busy Child-bg.png;
#LYRICSPATH:;
#CDTITLE:;
#MUSIC:Busy Child.ogg;
#OFFSET:0.000000;
#SAMPLESTART:78.706001;
#SAMPLELENGTH:15.000000;
#SELECTABLE:YES;
#DISPLAYBPM:125.000000;
#BPMS:0.000000=124.599998
,4.000000=124.999992
,116.000000=125.199997
,132.000000=124.900002
,160.000000=125.500000
,164.000000=124.949997
;
#STOPS:
;
#BGCHANGES:;
#KEYSOUNDS:;
#ATTACKS:;

//---------------dance-single - XO DS JA- JU-----------------
#NOTES:
     dance-single:
     :
     Challenge:
     15:
     0.593401,0.738935,0.124999,0.749993,0.658648,432.000000,419.000000,13.000000,78.000000,0.000000,0.000000,0.593401,0.738935,0.124999,0.749993,0.658648,432.000000,419.000000,13.000000,78.000000,0.000000,0.000000:
0000
0000
0000
0000
,
0000
0000
0000
0000
,
0000
0000
0000
0000
,
0000
0000
0000
0000
,
0000
0000
0000
0000
,
1000
0000
1000
0000
0001
0000
0000
0001
0000
0100
0010
0000
1000
0000
0001
0100
,
0001
0000
0001
0000
1000
0000
0000
1000
0000
0100
0010
0000
0001
0000
1000
0100
,
1000
0000
1000
0000
0001
0000
0000
0001
0100
0010
0100
0010
1000
0000
0001
1000
,
0100
0000
0020
0000
,
0031
0000
0200
0000
0010
0000
0000
0301
1000
0001
0100
0000
0001
0000
1000
0100
,
1000
0000
0200
0000
0010
0000
0000
1300
0001
1000
0100
0000
1000
0000
0001
0100
,
0001
0000
2000
0000
0010
0000
0000
3001
1000
0001
0010
0000
0001
0000
1000
0010
,
0100
0000
0002
0000
1003
0000
0100
0010
0002
0000
0010
0000
1003
0010
0000
0010
,
1000
0000
0020
0000
0001
0000
0000
0130
0010
0001
0020
0000
0230
0000
0301
1000
,
0100
0000
0020
0000
0100
0000
0000
0031
1000
0001
0200
0000
0310
0000
0010
1000
,
0001
0000
0020
0000
1000
0000
0000
0130
0010
1000
0020
0000
0230
0000
1300
0001
,
1000
0000
0002
0000
0103
0000
0100
0010
2000
0000
0010
0000
3001
0010
0000
0010
,
0002
0000
0000
0000
0023
0230
0320
0031
,
0000
0000
0000
0000
,
0002
0000
0003
0000
,
0000
0000
0000
0000
0000
0000
0000
0000
0000
0000
0001
0000
0100
0001
0000
0001
,
2000
0000
0000
0000
3020
0230
0320
1030
,
0000
0000
0000
0000
0000
0000
0001
0000
0010
0000
0000
0010
0000
0000
0001
0000
,
2000
0000
0000
0000
3000
0000
0000
1000
0010
0000
0000
0010
0000
0000
1000
0000
,
0001
0000
0000
0000
0000
0000
0010
0000
0020
0000
0001
0000
0130
1000
0000
1000
,
0002
0000
0000
0000
0003
0000
0000
0001
0200
0000
0320
0000
0230
0000
0301
0000
,
0000
0000
0000
0000
0000
0000
1000
0000
1000
0000
0001
0000
0100
0001
0000
0001
,
2000
0000
0000
0000
3000
0000
0000
1000
0200
0000
0320
0000
0230
0000
1300
0000
,
0000
0000
0000
0000
0000
0000
0001
0000
0002
0000
1000
0000
0103
0010
0000
0010
,
2000
0000
0000
0000
3000
0000
0001
1000
0002
0000
0023
0000
0230
0000
1300
0000
,
0000
0000
0000
0000
0000
0000
0100
0000
0200
0000
0010
0000
1300
0001
0000
0001
,
0200
0000
0000
0000
0300
0000
0000
0010
0200
0000
0010
0000
0301
1000
0000
1000
,
0100
0000
0000
0010
0100
0010
0001
1000
0020
0000
1000
0000
0130
0001
0000
0001
,
0020
0000
0000
0000
0030
0000
0100
0010
0200
0000
1000
0000
0310
0001
0000
0001
,
0200
0000
0000
0301
1000
0001
0100
0010
0200
0000
0001
0000
0310
1000
0000
1000
,
0200
0000
0310
0000
0100
0000
0010
0001
0200
0000
0001
0000
0310
1000
0000
1000
,
0200
0000
0310
0001
0010
0001
0010
0001
2000
0000
3010
1000
0010
1000
0010
1000
,
0002
0000
1003
0100
2000
0000
3010
1000
0020
0000
1030
0100
2000
0000
3010
0100
,
0002
0000
0103
0001
0020
0000
0130
0010
0002
0000
0013
0001
0200
0000
0310
0100
,
0001
0010
0100
1000
0010
1000
0100
0010
0001
0100
0010
1000
0001
1000
0100
0010
,
0001
0000
0001
0000
1001
0000
0000
0001
0100
0000
0001
0100
0020
0000
2030
0000
,
3200
0000
0310
0000
0011
0000
0000
0010
0001
0010
0100
0010
1000
0000
0010
0100
,
0020
0000
0031
0000
0011
0000
1000
0010
0100
0001
0010
0100
1000
0000
0001
0100
,
0020
0000
0130
0000
0101
0000
0000
0100
0001
0100
0010
0100
1000
0000
0100
0010
,
0200
0000
0301
0000
1001
0000
0001
0010
0100
2000
0001
0000
3010
0100
0001
0100
,
0020
0000
1030
0000
1010
0000
0000
0010
1000
0010
0100
0010
0001
0000
0010
0100
,
0020
0000
1030
0000
1010
0000
0001
0010
0100
1000
0010
0100
0001
0000
1000
0100
,
0020
0000
0130
0000
1100
0000
0000
0100
1000
0100
0010
0100
0001
0000
0100
0010
,
0200
0000
1300
0000
1001
0000
1000
0010
0100
0002
1000
0000
0013
0100
1000
0001
,
0200
0000
0310
0000
0110
0000
0000
0100
0010
0001
0010
1000
0001
0000
1000
0100
,
0020
0000
0031
0000
0011
0000
1000
0010
1000
0001
0010
0001
0100
0000
0010
1000
,
0200
0000
0310
0000
0110
0000
0000
0100
0010
1000
0010
0001
1000
0000
0010
0100
,
0020
0100
0130
0000
2002
0000
0000
0000
,
3003
0000
0000
0000
;

//---------------dance-single - XO DS JA-----------------
#NOTES:
     dance-single:
     :
     Hard:
     12:
     0.381864,0.535091,0.009615,0.644225,0.173075,278.000000,277.000000,1.000000,67.000000,0.000000,0.000000,0.381864,0.535091,0.009615,0.644225,0.173075,278.000000,277.000000,1.000000,67.000000,0.000000,0.000000:
// measure 0
0000
0000
0000
0000
,  // measure 1
0000
0000
0000
0000
,  // measure 2
0000
0000
0000
0000
,  // measure 3
0000
0000
0000
0000
,  // measure 4
0000
0000
0000
0000
,  // measure 5
1000
0000
0100
0000
0010
0000
0000
0010
0000
0000
0001
0000
1000
0000
0000
0000
,  // measure 6
0001
0000
0100
0000
0010
0000
0000
0010
0000
0000
1000
0000
0001
0000
0000
0000
,  // measure 7
1000
0000
0100
0000
0010
0000
0000
0001
1000
0000
1000
0000
1000
0000
0000
0000
,  // measure 8
0000
0000
0020
0000
,  // measure 9
1030
0000
0002
0000
0100
0000
0000
1003
0000
0000
0100
0000
1000
0000
0000
0000
,  // measure 10
0001
0000
2000
0000
0100
0000
0000
3001
0000
0000
0100
0000
0001
0000
0000
0000
,  // measure 11
1000
0000
0002
0000
0100
0000
0000
1003
0000
0000
0100
0000
0010
0000
0000
0000
,  // measure 12
0001
0000
2000
0000
0100
0000
0000
3001
0020
0000
0100
0000
0130
0000
0000
1000
,  // measure 13
0001
0000
0200
0000
0010
0000
0000
0310
1000
0000
0100
0000
1000
0000
0001
0000
,  // measure 14
1000
0000
0200
0000
0010
0000
0000
0310
0000
0000
0002
0000
0100
0000
0000
0000
,  // measure 15
1003
0000
0200
0000
0010
0000
0000
0310
0001
0000
0100
0000
0001
0000
1000
0000
,  // measure 16
0001
0000
0100
0000
0010
0000
1000
0001
2000
0000
0100
0000
3100
0000
0000
0000
,  // measure 17
2000
0000
0000
0000
3001
0100
0001
0100
,  // measure 18
0000
0000
0000
0000
,  // measure 19
0002
0000
0003
0000
,  // measure 20
0000
0000
0000
0000
,  // measure 21
0002
0000
0000
0000
1003
0100
1000
0100
,  // measure 22
0000
0000
0000
0000
,  // measure 23
2000
0000
3000
0000
,  // measure 24
0000
0000
0020
0000
,  // measure 25
0230
0000
0000
0000
0310
1000
0001
0010
,  // measure 26
0000
0000
0000
0000
0000
0000
0100
0000
0010
0000
0000
0100
0000
0000
0000
0000
,  // measure 27
0200
0000
0000
0000
0310
0001
1000
0010
,  // measure 28
0000
0000
0000
0000
0000
0000
0100
0000
0010
0000
0000
0100
0000
0000
0000
0000
,  // measure 29
0200
0000
0000
0000
0310
1000
0100
0010
,  // measure 30
0000
0000
0000
0000
0000
0000
0100
0000
0020
0000
0000
0100
0000
0000
0100
0000
,  // measure 31
0230
0000
0000
0000
0310
0001
0100
0010
,  // measure 32
0000
0000
0000
0000
0100
0000
0100
0000
0020
0000
0000
0100
0000
0000
0100
0000
,  // measure 33
0230
0000
0000
0000
0310
1000
0100
0010
,  // measure 34
0200
0000
0010
0010
0310
0001
0100
0010
,  // measure 35
0200
0010
0302
0000
0023
0100
0032
0000
,  // measure 36
0203
0010
0302
0010
0023
0100
0032
1000
,  // measure 37
0013
0010
0001
1000
0010
0010
1000
0001
,  // measure 38
0010
0010
0001
0100
0010
0010
1000
0100
,  // measure 39
1000
0000
1000
0000
0010
0000
0010
0000
0100
0001
0100
0000
0001
1000
0001
0000
,  // measure 40
1000
0000
0100
0000
1000
0000
1000
0000
0010
1000
0000
1000
0100
0000
0010
0000
,  // measure 41
0120
0000
0230
0000
0320
0000
0000
0130
1000
0000
0100
1000
0100
0000
1000
0000
,  // measure 42
0020
0230
0010
0000
0320
0000
0100
0000
,  // measure 43
0032
0000
0023
0000
0001
0000
0000
0130
0001
0000
0100
0001
0100
0000
0001
0000
,  // measure 44
0020
0000
0230
0000
1000
0000
0000
0000
0310
0000
0001
0000
0001
0100
0000
0100
,  // measure 45
0020
0000
0230
0000
0010
0000
0000
0301
1000
0000
0100
0010
0100
0000
1000
0000
,  // measure 46
0020
0230
0320
0000
2030
0000
3200
0000
,  // measure 47
0302
0000
0203
0000
0010
0000
0000
1300
0001
0000
0100
0010
0100
0000
0001
0000
,  // measure 48
0020
0000
0230
0000
2300
0000
3020
0000
0230
0000
0001
0000
0310
1000
0000
1000
,  // measure 49
0002
0000
0023
0000
0100
0000
0000
0031
0010
0000
0001
1000
0001
0000
0100
0000
,  // measure 50
0200
0320
1000
0000
0230
0310
1000
0100
,  // measure 51
0002
0000
0203
0000
0010
0000
0000
1300
0010
0000
1000
0001
1000
0000
0100
0000
,  // measure 52
0000
0020
0032
0203
2300
0000
0000
0000
,  // measure 53
3000
0000
0000
0000
;

//---------------dance-single - ----------------
#NOTES:
     dance-single:
     :
     Easy:
     5:
     0.162086,0.254805,0.057692,0.519226,0.000000,118.000000,112.000000,6.000000,54.000000,0.000000,0.000000,0.162086,0.254805,0.057692,0.519226,0.000000,118.000000,112.000000,6.000000,54.000000,0.000000,0.000000:
0000
0000
0000
0000
,
0000
0000
0000
0000
,
0000
0000
0000
0000
,
0000
0000
0000
0000
,
0000
0000
0000
0000
,
1000
0000
0001
0000
,
1000
0000
0001
0000
,
0100
0000
0010
0000
,
0100
0000
0000
0000
,
0010
1000
0001
0000
,
1000
0100
1000
0000
,
0001
0100
0001
0000
,
1000
0100
0020
0030
,
0001
0100
0010
0010
,
0000
1000
0100
0100
,
1000
0100
0010
0010
,
0000
0001
0100
0100
,
0002
0000
0003
0000
,
0000
0000
0000
0000
,
2000
0000
3000
0000
,
0000
0000
0000
0000
,
2000
0000
3000
0000
,
0000
0000
0000
0000
,
0002
0000
0003
0000
,
0000
0000
0020
0030
,
0002
0003
1000
1000
,
0000
0000
0001
0000
,
0200
0300
0001
0001
,
0000
0000
0020
0030
,
0200
0300
1000
0001
,
0000
0000
0002
0003
,
0200
0300
0001
1000
,
0000
0000
2000
3000
,
0200
0300
0010
0001
,
0200
0300
0020
1000
,
0230
0000
0320
1000
,
0230
0000
0320
1000
,
0230
0302
0023
0032
,
0023
0230
0320
0230
,
1000
1000
1000
1300
,
0001
0100
0001
1000
,
2002
3003
1000
0001
,
0200
0300
0020
0030
,
2002
3003
0001
1000
,
0200
0300
0020
0030
,
0220
0330
0010
0001
,
0200
0300
0020
0030
,
0220
0330
0010
1000
,
0200
0300
0020
0030
,
2001
0000
3020
2030
,
3200
0000
0320
0030
,
1002
0000
0023
0032
,
0203
0000
0320
0000
,
0030
0000
0000
0000
;

//---------------dance-single - ----------------
#NOTES:
     dance-single:
     :
     Medium:
     10:
     0.307689,0.458649,0.163460,0.336535,0.000000,224.000000,207.000000,17.000000,35.000000,0.000000,0.000000,0.307689,0.458649,0.163460,0.336535,0.000000,224.000000,207.000000,17.000000,35.000000,0.000000,0.000000:
0000
0000
0000
0000
,
0000
0000
0000
0000
,
0000
0000
0000
0000
,
0000
0000
0000
0000
,
0000
0000
0000
0000
,
1000
0010
1000
0000
1000
0000
1000
0000
,
0001
0010
0001
0000
0001
0000
0001
0000
,
1000
0010
1000
0000
0001
0010
0100
0000
,
0000
0000
2000
0000
,
3001
0001
0100
0000
0001
0100
0010
0000
,
1000
1000
0100
0000
1000
0100
0010
0000
,
0001
0001
0100
0000
0010
0100
0001
0000
,
1000
1000
0100
0010
0002
0000
1000
0000
,
0103
0100
0020
0000
0001
0000
0100
0000
,
1030
1000
0001
0000
1000
0100
0010
0000
,
0100
0100
0020
0000
1000
0000
0100
0000
,
0031
0001
1000
0001
2000
0000
0001
0000
,
3020
0000
0130
0100
,
0000
0000
0000
0000
,
0200
0000
0300
0000
,
0000
0000
0000
0000
0000
0001
1000
0000
,
0002
0000
1003
1000
,
0000
0000
0000
0000
,
2000
0000
3000
0000
,
0000
0000
0000
0000
0000
1000
0001
0000
,
0020
0000
0130
0100
,
0000
0000
0000
0100
0010
0001
1000
0000
,
0020
0000
0130
0100
,
0000
0000
0000
0100
0010
1000
0001
0000
,
2000
0000
3100
0010
,
0000
0000
0000
0100
0010
0001
0100
0000
,
0002
0000
0000
0103
0010
1000
0100
0000
,
0010
0000
0001
1000
0001
0100
0010
0000
,
2020
0000
3030
0000
1000
0010
1000
0000
,
0022
0000
0033
0000
0001
0010
0001
0000
,
2010
0000
3001
0010
0002
0000
1003
0010
,
2000
0000
3001
0010
0002
0000
0103
0010
,
0110
0101
1001
1100
,
0110
0011
1001
1010
,
0010
0100
0010
0100
0001
1000
0001
1000
,
0200
0010
0310
0100
,
2002
0000
3003
0000
0001
0100
1000
0000
,
0100
0100
0001
0000
0100
0001
0010
0000
,
2002
0000
3003
0000
1000
0100
0001
0000
,
0100
0100
1000
0000
0001
0100
0010
1000
,
2002
0000
3003
0000
0001
0010
1000
0000
,
0010
0010
0001
0000
0010
0001
0100
0000
,
2002
0000
3003
0000
1000
0010
0001
0000
,
0010
0010
1000
0000
0001
1000
0100
0010
,
0220
0000
0330
0000
0001
0010
1000
0000
,
0010
0001
0100
0000
1000
0100
0001
0000
,
0220
0000
0330
0000
1000
0010
0001
0000
,
0010
1000
0100
0000
0002
0000
0000
0000
,
0003
0000
0000
0000
;

//---------------dance-single - ----------------
#NOTES:
     dance-single:
     :
     Beginner:
     2:
     0.083790,0.127403,0.000000,0.115384,0.000000,61.000000,61.000000,0.000000,12.000000,0.000000,0.000000,0.083790,0.127403,0.000000,0.115384,0.000000,61.000000,61.000000,0.000000,12.000000,0.000000,0.000000:
0000
0000
0000
0000
,
0000
0000
0000
0000
,
0000
0000
0000
0000
,
0000
0000
0000
0000
,
0000
0000
0000
0000
,
1000
0000
0000
0000
,
0001
0000
0000
0000
,
1000
0000
0001
0000
,
0000
0000
0000
0000
,
1000
0000
0000
0000
,
0100
0000
0000
0000
,
0010
0000
0000
0000
,
0001
0000
1000
0000
,
0001
0000
0000
0000
,
0100
0000
0000
0000
,
0010
0000
0000
0000
,
1000
0000
0001
0000
,
2000
0000
3000
0000
,
0000
0000
0000
0000
,
0002
0000
0003
0000
,
0000
0000
0000
0000
,
2000
0000
3000
0000
,
0000
0000
0000
0000
,
0002
0000
0003
0000
,
0000
0000
0000
0000
,
2000
0000
3000
0000
,
1000
0000
0000
0000
,
0002
0000
0003
0000
,
0001
0000
0000
0000
,
2000
0000
3000
0000
,
1000
0000
0000
0000
,
0002
0000
0003
0000
,
0001
0000
0000
0000
,
0200
0000
0300
0000
,
0020
0000
0030
0000
,
1000
0000
1000
0000
,
0001
0000
0001
0000
,
0010
0000
0100
0000
,
0010
0000
0100
0000
,
0020
0000
0000
0000
,
0030
0000
0000
0000
,
0001
0000
0001
0001
,
0001
0000
0000
0000
,
1000
0000
1000
1000
,
1000
0000
0000
0000
,
0010
0000
0010
0010
,
0010
0000
0000
0000
,
0100
0000
0100
0100
,
0100
0000
0000
0000
,
0001
0000
1000
1000
,
1000
0000
0000
0000
,
1000
0000
0001
0001
,
0000
0000
0020
0000
,
0030
0000
0000
0000
;
