#TITLE:Burning Up (Fire);
#SUBTITLE:;
#ARTIST:BTS;
#TITLETRANSLIT:;
#SUBTITLETRANSLIT:;
#ARTISTTRANSLIT:;
#GENRE:;
#CREDIT:;
#MUSIC:Burning Up (Fire).ogg;
#BANNER:Burning Up (Fire).png;
#BACKGROUND:Burning Up (Fire)-bg.png;
#CDTITLE:;
#SAMPLESTART:67.324;
#SAMPLELENGTH:9.600;
#SELECTABLE:YES;
#OFFSET:-0.124;
#BPMS:0.000=100.000;
#STOPS:0.000=4.800;
#ORIGIN:;
#PREVIEWVID:;
#JACKET:Burning Up (Fire)-jacket.png;
#CDIMAGE:;
#DISCIMAGE:;
#BGCHANGES:-0.206=Burning Up (Fire).avi=1.000=1=0=0=StretchNoLoop==CrossFade==,
99999.000=-nosongbg-=1.000=0=0=0=StretchNoLoop====
;
#FGCHANGES:;

//--------------- dance-single - ----------------
#NOTES:
     dance-single:
     :
     Beginner:
     3:
     0.125239,0.191032,0.07898,0,0,111,101,10,0,0,0,0,0,0,0.125239,0.191032,0.07898,0,0,111,101,10,0,0,0,0,0,0:
0000
0000
0000
0000
,
0000
0000
0000
0000
,
0000
0000
0000
0000
,
0000
0000
0000
0000
,
0000
0000
0000
0000
,
0000
0000
0000
0000
,
1000
1000
0100
0000
,
0001
0001
0100
0000
,
1000
1000
0010
0000
,
0001
0001
0010
0000
,
0001
1000
0001
0000
,
1000
0001
1000
0000
,
0100
0010
0100
0000
,
0010
0100
0010
0000
,
1001
0001
0000
0000
,
0100
0000
0000
0000
,
1001
1000
0000
0000
,
0100
0000
0010
0010
,
0010
0000
0010
0000
,
0100
0000
0100
0000
,
1001
0000
0110
0000
,
1001
0001
1000
0000
,
0001
0000
0000
0001
,
0001
0000
0000
0000
,
1000
0000
0000
1000
,
1000
0000
0000
0000
,
0010
0000
0010
0000
,
0100
0000
0100
0000
,
1000
0000
1000
0000
,
0001
0001
0001
0000
,
1000
0000
1000
0000
,
0001
0000
0001
0000
,
0100
0000
0100
0000
,
0010
0000
0010
0010
,
0100
0000
0100
0000
,
0001
0000
0001
0000
,
1000
0000
1000
0000
,
0100
0000
0100
0100
,
0110
0000
0000
0000
,
0000
0000
0000
0000
,
0000
0000
0000
0000
,
0001
1000
0001
1001
,
0000
0000
0000
0000
,
0000
0000
0000
0000
,
0000
0000
0000
0000
,
0100
0100
0100
0110
,
1001
0000
1000
0000
,
0001
0000
0000
0001
,
0100
0000
0100
0000
,
0010
0000
0010
0010
,
1000
0000
1000
0000
,
0001
0000
0000
1000
,
0100
0000
0100
0000
,
0010
0000
0010
0110
;

//--------------- dance-single - ----------------
#NOTES:
     dance-single:
     :
     Easy:
     6:
     0.241452,0.297852,0.142163,0.284326,0,214,196,18,36,0,0,0,0,0,0.241452,0.297852,0.142163,0.284326,0,214,196,18,36,0,0,0,0,0:
0000
0000
0000
0000
,
0000
0000
0000
0000
,
0000
0000
0000
0000
,
0000
0000
0000
0000
,
0000
0000
0000
0000
,
0000
0000
0000
0000
,
2001
3200
0001
0010
,
1300
0000
0010
0000
0100
0000
0001
0100
,
0020
0100
0001
0100
,
1030
1000
0001
0000
1000
1000
0001
1000
,
0001
0200
1000
0010
,
0301
0000
0010
0000
0100
0000
1000
0001
,
0020
0100
1000
0100
,
0031
0001
1000
0000
0001
0001
1000
0001
,
0100
0000
0220
0000
0330
0000
1000
0001
,
1001
0000
0001
1000
0002
0000
2003
0000
,
3100
0000
0220
0000
0330
0000
0001
1000
,
1001
0000
1000
1000
0002
0000
0023
0000
,
0130
0100
0000
0100
0100
0000
2000
0000
,
3010
0010
0000
0010
0010
0000
0200
0000
,
0301
0002
1003
2000
,
3001
1000
0001
0001
1000
0000
2001
0000
,
3100
0000
0000
0000
0000
0100
0100
0100
,
0100
0000
1000
0001
,
0100
0000
0000
0000
0000
0100
0100
0100
,
0100
0001
1000
0001
,
0002
0013
2000
3010
,
0002
0103
2000
3100
,
1000
0001
0000
1000
0001
0001
1000
1000
,
0010
0100
0020
0200
0000
0000
0330
0000
,
1000
0100
0010
0001
,
1000
0000
0010
0000
0100
0000
0001
0001
,
0010
0100
1000
0010
,
0100
0100
0200
0000
0300
0000
0001
1000
,
1002
0013
0100
1000
,
0001
0000
0100
0000
0010
0000
1000
1000
,
0100
0010
0100
1000
,
0010
0010
0020
0000
0030
0000
0001
1000
,
2002
0000
0000
0000
,
0000
0000
0000
0000
,
3003
0000
1000
0100
,
0001
0010
1000
0001
,
1001
0000
0000
0000
,
0110
0000
0000
0000
,
1001
0000
0000
0000
,
0020
0030
0020
0030
0020
0000
0030
0000
,
1002
0103
0010
1000
,
0001
0000
0000
1001
0000
0000
1001
1000
,
0010
0100
0001
0010
,
0100
0100
0200
0000
0300
1000
0001
1000
,
2001
3010
0100
0001
,
0010
0000
0000
0110
0000
0000
0110
0100
,
1000
0010
0100
0001
,
0010
0010
0020
0000
0030
0000
0001
1001
;

//--------------- dance-single - ----------------
#NOTES:
     dance-single:
     :
     Medium:
     9:
     0.358793,0.407041,0.197449,0.458082,0.015796,318,293,25,58,0,0,0,0,0,0.358793,0.407041,0.197449,0.458082,0.015796,318,293,25,58,0,0,0,0,0:
0000
0000
0000
0000
,
0000
0000
0000
0000
,
0000
0000
0000
0000
,
0000
0000
0000
0000
,
0000
0000
0000
0000
,
0000
0000
0000
0000
,
1001
1000
0010
0100
0001
1000
0010
0100
,
0001
0000
0020
0000
0130
0000
0200
0000
1300
0000
1000
0002
0000
0000
0103
0000
,
0001
1000
0100
0010
0001
1000
0100
0010
,
0002
0100
0100
1000
1000
0013
0001
1001
,
1000
0001
0100
0010
1000
0001
0100
0010
,
1000
0000
0002
0000
0013
0000
0020
0000
0031
0000
0001
2000
0000
0000
3001
0000
,
0010
0100
1000
0001
0010
0100
1000
0010
,
0200
1000
1000
0010
0010
0001
0301
1000
,
0100
0000
1100
0000
1000
0001
0100
0000
,
0101
0000
0001
0100
0010
0100
0001
0010
,
0100
0000
0110
0000
0100
1000
0001
0001
,
1000
0100
0010
0100
1000
0010
0100
0001
,
0200
0000
1000
0000
0001
0000
1300
0100
,
0002
0000
0010
0000
0100
0000
0013
0001
,
1001
0000
1000
0010
0110
0000
0100
0001
,
1000
0001
1000
0000
0100
0000
0010
0000
0001
0100
0001
0000
1000
0000
0010
0000
,
1000
2000
0000
0100
3100
1000
0001
0100
,
0020
0000
0100
0100
0130
0010
1000
0001
,
0010
0002
0000
0100
0103
0001
0010
0100
,
0020
0000
0100
0100
0130
0000
0001
1000
,
0001
0101
0010
1010
,
1000
1100
0001
0011
,
1000
1000
0010
0010
0200
0302
0023
0230
,
2300
3002
2003
3002
0000
0003
0000
0000
,
1000
0100
0001
0100
1000
0001
0010
0002
,
0103
1000
0100
0001
1000
0020
2030
3002
,
1003
0100
0010
0100
1000
0001
0200
0000
,
0310
0010
0020
0000
0030
0100
0110
1001
,
0001
0100
1000
0100
0001
1000
0010
2000
,
3001
0010
1000
0010
0001
0200
0320
2030
,
3001
0010
0100
0010
0001
1000
0020
0000
,
0130
0100
0200
0000
0300
0010
0110
0110
,
2002
0000
0000
0003
,
0200
0000
3000
0000
,
0020
0000
0300
0000
,
0032
0203
2300
3200
,
0302
0000
0000
1003
1000
0100
0010
0100
,
2000
0000
0000
0000
,
3020
0000
0000
0000
,
0100
0100
0100
0030
,
1002
0103
0010
1000
0001
0010
0100
2000
,
3010
0000
0000
1010
0000
2010
3002
0023
,
0130
1000
0001
0100
0010
0010
0100
0100
,
0010
0010
0020
0000
0030
0100
0110
1001
,
0001
0100
1000
0100
0001
0010
1000
0010
,
0001
0000
0000
0011
0000
0012
2003
3020
,
0130
0001
0010
0100
1000
0001
0100
0020
,
0100
0100
0200
0000
0330
0010
0110
2002
,
0000
3003
0000
0000
;

//--------------- dance-single - ----------------
#NOTES:
     dance-single:
     :
     Hard:
     12:
     0.508854,0.579759,0.371204,0.529163,0.339612,451,404,47,67,0,0,0,0,0,0.508854,0.579759,0.371204,0.529163,0.339612,451,404,47,67,0,0,0,0,0:
0000
0000
0000
0000
,
0000
0000
0000
0000
,
0000
0000
0000
0000
,
0000
0000
0000
0000
,
0000
0000
0000
0000
,
0000
0000
0000
0000
,
1002
0000
0103
0000
0010
0000
1000
0000
0001
0000
0010
0100
0000
0100
1000
0000
,
0001
0000
0100
0000
0010
0000
0100
0000
0001
0000
0010
0000
0100
1000
0010
0000
,
1000
0000
0001
0000
0010
0000
1000
0000
0010
0000
0001
1000
0000
1000
0010
0000
,
0100
0000
0001
0010
0001
0000
1000
0100
1000
0100
0010
0000
0011
0000
1010
0000
,
2001
0000
3010
0000
0100
0000
0001
0000
1000
0000
0100
0010
0000
0010
0001
0000
,
1000
0000
0010
0000
0100
0000
0010
0000
1000
0000
0100
0000
1000
0001
0100
0000
,
0001
0000
1000
0000
0010
0000
0001
0000
0010
0000
1000
0100
0000
0100
0010
0000
,
0001
0000
0100
0010
0100
0000
0010
1000
0010
1000
0001
0000
1001
0000
0110
0000
,
2001
0000
3100
0000
1002
0000
0103
0000
0000
0000
0001
0000
1000
0010
0100
0000
,
0001
0000
0000
0000
0001
0010
0100
0000
1000
0000
0001
0100
0001
0100
0001
0000
,
0120
0000
1030
0000
1002
0000
0013
0000
0000
0000
1000
0010
1000
0010
0100
0000
,
0001
0000
1000
0100
1000
0100
0010
0000
0001
0010
0200
0000
2300
0000
3020
0000
,
1030
0100
0001
0000
0100
0000
1000
0100
0001
0000
0100
0000
0110
0000
1001
0000
,
0001
0100
1000
0000
0100
0000
0001
0100
1000
0000
0100
0000
0010
1000
0001
0000
,
0022
0000
0033
0000
0001
1000
0010
0000
2020
0000
3030
0000
1000
0000
0001
0000
,
1000
0000
0100
0000
0010
0001
0100
0000
0010
0010
0200
0000
0302
0000
2003
0000
,
3200
0000
0001
0000
0000
0000
0001
0000
0310
0000
0001
0200
1000
0000
0010
0000
,
0301
0000
2000
0100
3001
1000
0101
0110
,
2001
0000
3020
0000
0000
0000
0001
0000
0130
0000
0010
1000
0200
0000
0001
0000
,
1300
0000
0000
0000
0100
0000
0110
0000
2002
0000
3003
0000
0001
0100
0010
0000
,
1000
0000
0001
0010
0000
0010
0001
0000
1000
0000
0001
0100
0000
0010
1000
0000
,
0100
0000
1000
0010
0000
0010
1000
0000
0001
0000
0010
0100
0000
1000
0001
0000
,
1000
0000
0010
0000
1000
0000
0001
0010
0100
0000
1000
0000
0001
0000
0100
0000
,
0010
0110
1010
0022
0000
0033
0000
0000
,
1100
0000
0001
0000
0101
0000
1000
0000
0100
0000
0010
0001
0000
1000
0010
0000
,
0210
0000
0301
0000
0120
0000
1030
0000
0100
0000
0001
0000
0100
1000
0010
0000
,
1010
0000
0001
0000
0101
0000
1000
0000
1100
0000
0001
0100
0000
0100
0010
0000
,
1000
0000
1000
0001
0010
0000
0010
0001
1000
0001
0200
0000
1000
0000
0010
0000
,
0301
0000
1000
0000
0100
0000
0001
0000
0100
0000
1000
0001
0000
0001
0100
0000
,
0010
0000
0001
0000
0010
0000
1000
0000
0001
0000
0010
0000
0001
1000
0100
0000
,
1100
0000
0001
0000
0011
0000
1000
0000
1010
0000
0010
0100
0000
0100
0001
0000
,
0010
0000
0010
0001
0100
0000
0100
0001
1000
0001
0020
0000
1000
0000
0130
0000
,
2002
0000
3000
0003
,
0002
0020
0000
0000
0003
0000
0030
0000
,
0200
2000
0000
3300
1002
0103
0010
1000
,
0200
0302
0023
2030
,
3001
0000
0000
0000
0000
0000
0002
0000
0000
0000
0000
0000
0000
0000
0000
0000
0000
0000
1003
0000
0000
0000
0000
0001
0100
0000
0000
0000
0000
0001
0100
0000
0000
0000
0000
0010
1000
0000
0000
0000
0000
0000
0100
0000
0000
0000
0000
0000
,
0010
0000
0020
0000
0000
0000
0000
0000
1000
0000
0000
0100
0000
0000
0032
0000
,
0000
0000
0000
0000
0000
2003
3020
2030
,
3001
0100
0001
1000
0100
1000
0001
0200
0020
0000
0000
0000
0330
0000
0000
0000
,
2001
0000
3010
0000
1002
0000
0013
0000
1000
0000
0100
0010
0000
0001
1000
0000
,
2020
0000
3030
0011
0000
1010
0002
0100
,
1003
0000
0010
0000
0001
0000
0010
0000
1000
0000
0100
0010
0000
0001
1000
0000
,
0010
0000
0010
1000
0100
0000
0100
1000
0001
0100
0010
0000
0110
0000
1001
0000
,
1000
0001
0020
0000
0031
1000
0020
0000
1030
0001
0200
0000
0301
1000
0100
0000
,
0220
0000
0330
1001
0000
0110
2001
3100
,
0010
0001
0200
0000
0310
1000
0200
0000
0310
0001
0200
0000
0320
0000
2030
0000
,
3001
0000
1000
0001
0100
0000
0100
0010
1000
0100
0010
0000
0110
0000
2002
0000
,
0000
0000
0000
0003
0000
0000
3000
0000
0000
0000
0000
0000
0000
0000
0000
0000
;
