#TITLE:Burn;
#SUBTITLE:;
#ARTIST:NceS;
#TITLETRANSLIT:;
#SUBTITLETRANSLIT:;
#ARTISTTRANSLIT:;
#GENRE:EUPHORIC HARDSTYLE;
#CREDIT:;
#BANNER:Burn.png;
#BACKGROUND:Burn-bg.png;
#LYRICSPATH:;
#CDTITLE:cdtitle.png;
#MUSIC:Burn.ogg;
#OFFSET:0.000000;
#SAMPLESTART:81.081001;
#SAMPLELENGTH:15.000000;
#SELECTABLE:YES;
#BPMS:0.000000=148.000000
;
#STOPS:
;
#BGCHANGES:0.000=Burn.avi=1.000=0=0=0=StretchNoLoop==CrossFade_Fastest==,
99999=-nosongbg-=1.000=0=0=0 // don't automatically add -songbackground-
;
#KEYSOUNDS:;
#ATTACKS:;

//---------------dance-single - Daff_4K----------------
#NOTES:
     dance-single:
     Daff_4K:
     Beginner:
     1:
     0.081898,0.148834,0.007350,0.000000,0.000000,78.000000,77.000000,1.000000,0.000000,0.000000,0.000000,0.081898,0.148834,0.007350,0.000000,0.000000,78.000000,77.000000,1.000000,0.000000,0.000000,0.000000:
0000
0000
0000
0000
,
0000
0000
0000
0000
,
0000
0000
0000
0000
,
0000
0000
0000
0000
,
0000
0000
0000
0000
,
0000
0000
0000
0000
,
0000
0000
0000
0000
,
0000
0000
0000
0000
,
0000
0000
0000
0000
,
0001
0000
0000
0000
,
0000
0000
0000
0000
,
1000
0000
0000
0000
,
0000
0000
0000
0000
,
0001
0000
0000
0000
,
0000
0000
0000
0000
,
1000
0000
0000
0000
,
0000
0000
0000
0000
,
0010
0000
0010
0000
,
0000
0000
0000
0000
,
0100
0000
0100
0000
,
0000
0000
0000
0000
,
0001
0000
0000
0000
,
1000
0000
0000
0000
,
0100
0000
0100
0000
,
0100
0000
0000
0000
,
0010
0000
0010
0000
,
0000
0000
0000
0000
,
0100
0000
0100
0000
,
0000
0000
0000
0000
,
1000
0000
0000
0000
,
0001
0000
0000
0000
,
0000
0000
0000
0000
,
0000
0000
0000
0000
,
0000
0000
0000
0000
,
1001
0000
0000
0000
,
0000
0000
1000
0000
,
1000
0000
0000
0000
,
0000
0000
0001
0000
,
0001
0000
0000
0000
,
0000
0000
0100
0000
,
0100
0000
0000
0000
,
0000
0000
0010
0000
,
0010
0000
0000
0000
,
0010
0000
0000
0000
,
1000
0000
0000
0000
,
0001
0000
0000
0000
,
0010
0000
0000
0000
,
0010
0000
0000
0000
,
0100
0000
0100
0000
,
0100
0000
0000
0000
,
1000
0000
0010
0000
,
1000
0000
0000
0000
,
0001
0000
0010
0000
,
0001
0000
0000
0000
,
1000
0000
0000
0000
,
0001
0000
0000
0000
,
0100
0000
0000
0000
,
0100
0000
0000
0000
,
0001
0000
0010
0000
,
0001
0000
0000
0000
,
1000
0000
0010
0000
,
1000
0000
0000
0000
,
0001
0000
0000
0000
,
1000
0000
0000
0000
,
0100
0000
0000
0000
,
0100
0000
0000
0000
,
0010
0000
0000
0010
,
0000
0000
0000
0000
,
0100
0000
0000
0100
,
0000
0000
0000
0000
,
1000
0000
0000
0000
,
0001
0000
0000
0000
,
0100
0000
0010
0000
,
0100
0000
0000
0000
,
0001
0000
0001
0000
,
0001
0000
0000
0000
,
1000
0000
1000
0000
,
1000
0000
0000
0000
,
0100
0000
0000
0000
,
0010
0000
0000
0000
,
0001
0001
0000
1000
,
1000
0000
0000
0000
;

//---------------dance-single - Daff_4K----------------
#NOTES:
     dance-single:
     Daff_4K:
     Easy:
     4:
     0.199495,0.327434,0.051449,0.169046,0.000000,190.000000,183.000000,7.000000,23.000000,0.000000,0.000000,0.199495,0.327434,0.051449,0.169046,0.000000,190.000000,183.000000,7.000000,23.000000,0.000000,0.000000:
0000
0000
0000
0000
,
0000
0000
0000
0000
,
0000
0000
0000
0000
,
0000
0000
0000
0000
,
0000
0000
0000
0000
,
0000
0000
0000
0000
,
0000
0000
0000
0000
,
0000
0000
0000
0000
,
0000
0000
0000
0000
,
2000
0000
3100
0000
,
0001
0100
1000
0000
,
0020
0000
0130
0000
,
0010
1000
0001
0000
,
2000
0000
3100
0020
,
0000
0031
0000
0001
,
2000
0000
3010
0200
,
0000
0301
1000
0000
,
0002
0000
0013
0000
,
0001
0100
0001
0100
,
0020
0000
1030
0000
,
0001
0010
0001
1000
,
0020
0000
0200
0000
,
0330
0000
0000
0000
,
2002
0000
0000
0000
,
3003
0000
0000
0000
,
2000
0000
3010
0000
,
1000
0100
1000
0100
,
0020
0000
0031
0000
,
1000
0010
1000
0001
,
0020
0000
0200
0000
,
0330
0000
0000
0000
,
1000
0000
0001
0000
,
0200
0000
0000
0000
,
0000
0000
0300
0000
,
2001
0000
0000
0100
,
0000
0000
3100
0100
,
0020
0000
0000
0001
,
0000
0000
0031
0000
,
0002
0000
0000
0100
,
0000
0000
0103
0100
,
0020
0000
0000
1000
,
0000
0000
1030
0000
,
1000
0000
0100
0000
,
1000
0000
0100
0010
,
0001
0000
0100
0000
,
0001
0000
0100
0010
,
1000
1000
1000
1000
,
0001
0001
0001
0001
,
0020
0000
0000
0200
,
0000
0000
0330
0000
,
1001
0000
1000
0000
,
0010
0000
1000
0001
,
1000
0000
0100
0000
,
0010
0001
1000
0001
,
1000
0000
0001
0000
,
0010
0000
0001
1000
,
0001
0000
0100
0000
,
0010
1000
0001
1000
,
0100
0000
0010
0001
,
0100
0000
0010
1000
,
0100
0000
1000
0001
,
0010
0100
1000
0001
,
0100
0000
0010
1000
,
0100
0000
0010
0001
,
0100
0000
0010
0000
,
1000
0001
1000
0001
,
0010
0010
0010
0100
,
0100
0100
1000
0001
,
1000
1000
1000
0001
,
0001
0001
0100
0010
,
1000
0000
0001
0000
,
1000
1000
0100
0010
,
0001
0000
1000
0000
,
0001
0001
0100
0010
,
1000
0100
1000
0000
,
1000
0000
0001
0100
,
0001
0000
0001
0000
,
0010
0100
0010
0100
,
1000
0010
1000
0000
,
0001
0010
0001
0000
,
1001
1001
0000
1001
,
1001
0000
0000
0000
;

//---------------dance-single - Daff_4K----------------
#NOTES:
     dance-single:
     Daff_4K:
     Medium:
     7:
     0.296092,0.417377,0.073498,0.169046,0.000000,282.000000,272.000000,10.000000,23.000000,0.000000,0.000000,0.296092,0.417377,0.073498,0.169046,0.000000,282.000000,272.000000,10.000000,23.000000,0.000000,0.000000:
0000
0000
0000
0000
,
0000
0000
0000
0000
,
0000
0000
0000
0000
,
0000
0000
0000
0000
,
0000
0000
0000
0000
,
0000
0000
0000
0000
,
0000
0000
0000
0000
,
0000
0000
0000
0000
,
0000
0000
0001
1000
,
0002
0010
2000
3003
,
0001
0001
1000
1000
,
0020
1000
0200
0330
,
0100
0001
1000
0001
,
0020
0000
0000
0100
0000
0000
0100
0000
,
0000
0130
0000
0000
1000
0000
0001
0000
,
2000
0000
0000
0001
0000
0000
0001
0000
,
0000
3001
0000
0000
1000
0000
0000
0000
,
1020
0000
0130
0000
,
0010
1000
0001
1000
,
0200
0000
0310
0000
,
0100
1000
0001
1000
,
0020
0000
0100
0000
0000
0200
0000
0000
,
0330
0000
0000
0000
,
2002
0000
0000
0000
,
3003
0000
0000
0000
,
0021
0000
0130
0000
,
0010
0001
1000
0001
,
0200
0000
0310
0000
,
0100
0001
1000
0001
,
0020
0000
0100
0000
0000
0200
0000
0000
,
0330
0000
0000
0000
,
2000
0000
0000
0001
0000
0000
0002
0000
,
0000
0000
0000
0000
,
0000
0000
3003
0000
,
0002
0000
0000
0100
0000
0000
0100
0000
,
0000
1000
0000
0000
1003
0000
0001
0000
,
0020
0000
0000
0100
0000
0000
0100
0000
,
0000
0001
0000
0000
0031
0000
1000
0001
,
2000
0000
0000
0100
0000
0000
0100
0000
,
0000
0001
0000
0000
3001
0000
1000
0000
,
0020
0000
0000
0100
0000
0000
0100
0000
,
0000
1000
0000
0000
1030
0000
0001
1000
,
0001
0010
0001
0010
,
1000
0010
1000
0010
,
0001
0100
0001
0100
,
1000
0100
1000
0100
,
0001
0001
1000
1000
,
0100
0100
0010
0010
,
0001
1000
0001
1000
0001
1000
0001
1000
,
0200
0010
0010
0310
,
0001
0100
1000
0100
,
0001
0010
0100
1001
,
1000
0100
0001
0100
,
1000
0000
0010
0000
0100
0000
0001
1000
,
0001
0010
0100
1000
,
0010
0100
0001
1001
,
1000
0100
0010
0001
,
0100
0000
0010
0000
1000
0001
1000
0001
,
0010
1000
0010
0001
,
0100
0000
0010
0000
1001
0000
0001
1000
,
0010
0001
0010
1000
,
0100
0000
0010
0000
1001
0000
1000
0001
,
0010
0100
0010
0001
,
1000
0010
0100
0010
,
1000
0000
0100
0010
0100
0000
0001
0000
,
0100
0010
0100
0000
1000
0001
1000
0001
,
1000
1000
1000
0000
0010
0000
0100
0100
,
0100
0001
0110
1001
,
0001
0001
0001
0000
0010
0000
0100
0100
,
0100
1000
0001
1001
,
1000
0010
0001
0010
,
1000
0000
0100
0000
0001
0000
0100
0010
,
0100
1000
0001
0100
,
0010
0000
1000
0000
0100
0010
0100
0010
,
0100
0000
1000
0001
1000
0000
0010
0000
,
0100
0000
0001
0000
1000
0000
0100
0010
,
0100
0010
0001
1000
,
0010
0000
0100
0010
0100
0000
0001
1000
,
0001
0010
0100
1000
,
0010
0100
0001
1000
,
0100
0100
0100
0100
0000
1000
0001
1000
,
0001
1000
0000
0000
0000
0000
0000
0000
;

//---------------dance-single - Daff_4K----------------
#NOTES:
     dance-single:
     Daff_4K:
     Hard:
     11:
     0.450438,0.626066,0.646783,0.485087,0.011025,429.000000,341.000000,88.000000,66.000000,0.000000,0.000000,0.450438,0.626066,0.646783,0.485087,0.011025,429.000000,341.000000,88.000000,66.000000,0.000000,0.000000:
0000
0000
0000
0000
,
0000
0000
0000
0000
,
0000
0000
0000
0000
,
0000
0000
0000
0000
,
0000
0000
0000
0000
,
0000
0000
0000
0000
,
0000
0000
0000
0000
,
0000
0000
0000
0000
,
0000
0000
0000
0000
1000
0001
1000
0000
,
1010
0101
2002
3003
,
1000
0100
1000
0000
0001
0100
0001
0000
,
1001
0110
2002
3003
,
1000
0010
0100
0000
0001
0010
0100
0000
,
2000
0000
3010
0200
0000
0301
2000
0000
,
0100
0000
0001
0000
3010
0000
1000
0001
,
0020
0000
0130
2000
0000
3001
0200
0000
,
1000
0010
0301
1000
,
2200
3300
0022
0033
,
0001
1000
0001
0100
0010
1000
0100
0010
,
0220
0330
2002
3003
,
0001
1000
0010
0100
0010
0100
0001
0000
,
2000
0000
0100
0000
3001
1000
0020
0000
,
0100
0000
1030
0001
0020
0000
0130
0000
,
2002
3003
0220
0330
,
2002
0000
3003
0000
,
0202
0303
2020
3030
,
1000
0001
1000
0100
0010
0001
0100
0010
,
0220
0330
2002
3003
,
1000
0001
0010
0100
0010
0100
1000
0000
,
0002
0000
0100
0000
1000
2000
0000
0000
,
0000
0000
0000
0000
3003
0000
0001
1000
,
0020
0000
0000
0200
0000
0330
2002
0000
,
0000
0000
0000
0000
,
0000
0000
0000
3003
,
2001
0000
0000
0010
0000
0000
0001
0000
,
0000
0100
0000
0000
3010
0000
0110
0000
,
1002
0000
0000
0010
0000
0000
1000
0000
,
0000
0100
0000
0000
0013
0000
0110
0000
,
1020
0000
0000
0100
0000
0000
0001
0000
,
0000
0100
0000
0000
1030
0000
0110
0000
,
2001
0000
0000
0010
0000
0000
3002
0000
,
0000
0010
0000
0000
1003
0001
0100
0010
,
2010
0001
0100
0001
,
0010
3001
1100
0110
,
0012
1000
0100
1000
,
0010
1003
0101
1010
,
1000
0100
1000
0100
0001
0100
0001
0100
,
1000
0010
0100
0001
0010
0100
1000
0001
,
0200
0010
0010
0310
,
1001
1001
0110
0110
,
2001
0000
3010
0100
0001
0000
2001
0000
,
3100
0010
0001
0000
0101
0000
1010
0000
,
1002
0000
0013
0100
1000
0000
1002
0000
,
0103
0010
1000
0000
1100
0000
0011
0000
,
0201
1000
0010
1000
,
0301
1000
0100
0010
0001
0000
1001
0000
,
1200
0001
0010
0001
,
1300
0001
0100
0010
1000
0000
1001
0000
,
0021
0000
1030
0010
0001
0000
2001
0000
,
3010
0100
0001
0000
0011
0000
0100
1000
,
1020
0000
0031
0010
1000
0000
1002
0000
,
0013
0000
0100
0000
1000
0000
0010
0000
0100
0010
0000
0000
1000
0000
0001
0000
,
2001
0000
3100
0010
0002
0000
0203
0000
,
1000
0010
0001
0310
,
1002
0000
0013
0100
1000
0000
2001
0000
,
3010
0100
0001
0000
1000
0001
0010
0100
,
1000
0010
1010
0000
1001
0000
0001
0010
,
0011
1001
0110
1001
,
1000
0100
1100
0000
1001
0000
0001
0100
,
0101
1001
0110
1001
,
1000
0010
0100
0010
1000
0000
0001
0010
,
0100
0000
0010
0000
0001
0000
0000
0000
1001
0000
0000
0000
1000
0001
1000
0000
,
0020
0000
0130
0001
1000
0001
0020
0000
,
0130
1000
0001
1000
0010
0010
0100
0100
,
1001
0000
0011
0011
0011
0000
1001
0000
,
0100
0010
0100
0000
1001
0000
1010
1010
,
1010
0000
1001
0000
0010
0100
0010
0000
,
0001
0000
1000
0000
0001
0000
0100
0000
0010
0100
0010
0000
1000
0000
0001
0000
,
0011
1001
0101
1001
,
1010
1001
1100
1001
,
0001
0100
0001
0101
0000
0001
1000
0100
,
1000
1100
0000
0000
0000
0000
0000
0000
;

//---------------dance-single - 焼 全 打風 - Burn Full Daff----------------
#NOTES:
     dance-single:
     焼 全 打風 - Burn Full Daff:
     Challenge:
     14:
     0.583785,1.008072,0.801129,0.661483,0.169046,556.000000,447.000000,109.000000,90.000000,0.000000,0.000000,0.583785,1.008072,0.801129,0.661483,0.169046,556.000000,447.000000,109.000000,90.000000,0.000000,0.000000:
// measure 0
0000
0000
0000
0000
,  // measure 1
0000
0000
0000
0000
,  // measure 2
0000
0000
0000
0000
,  // measure 3
0000
0000
0000
0000
,  // measure 4
0000
0000
0000
0000
,  // measure 5
0000
0000
0000
0000
,  // measure 6
0000
0000
0000
0000
,  // measure 7
0000
0000
0000
0000
,  // measure 8
0000
0000
0000
0000
0001
0100
0010
1000
,  // measure 9
1100
0011
0201
0310
,  // measure 10
1000
0010
0100
0100
0001
0010
0100
1000
,  // measure 11
1010
0101
2010
3001
,  // measure 12
0001
1000
0100
0100
0010
0001
0100
0010
,  // measure 13
2000
0000
3100
0020
0000
0031
0200
0000
,  // measure 14
1000
0000
0310
0000
1001
0000
1000
0001
,  // measure 15
0020
0000
0130
2000
0000
3001
0100
0010
,  // measure 16
2000
3001
0110
1001
,  // measure 17
1020
0130
2010
3001
,  // measure 18
1000
0100
0010
0010
0001
1000
0010
0100
,  // measure 19
0002
0013
2001
3010
,  // measure 20
1000
0100
0001
0100
1000
0010
0100
0001
,  // measure 21
2000
0000
3001
0000
1000
0001
0200
0000
,  // measure 22
0310
0000
1000
0001
0020
0000
0130
0000
,  // measure 23
2002
3003
0220
0330
,  // measure 24
2002
0000
3003
0000
,  // measure 25
0021
0130
0012
1003
,  // measure 26
0001
0100
0010
0010
1000
0001
0010
0100
,  // measure 27
2000
3010
1002
0013
,  // measure 28
0001
0100
1000
0100
0001
0010
0100
1000
,  // measure 29
0002
0000
1003
0000
0001
1000
0200
0000
,  // measure 30
0020
0000
0000
0000
0330
0000
0001
1000
,  // measure 31
0020
0000
0000
0200
0000
0330
2002
0000
,  // measure 32
0000
3003
0020
0200
,  // measure 33
0000
0000
0000
0330
,  // measure 34
2002
0000
3003
2200
0000
3300
2002
0000
,  // measure 35
3003
2020
0000
3030
1001
0000
0110
0000
,  // measure 36
2002
0000
3003
0202
0000
0303
2002
0000
,  // measure 37
3003
0000
0022
0000
0000
0000
0033
0000
0110
0000
0000
0000
1000
0001
1000
0001
,  // measure 38
0200
0000
0300
2200
0000
3300
0220
0000
,  // measure 39
0330
0202
0000
0303
0110
0000
1001
0000
,  // measure 40
2200
0000
3300
0022
0000
0033
0202
0000
,  // measure 41
0303
0000
2020
0000
0000
0000
3030
0000
1000
0000
0001
0000
0010
0100
0010
0100
,  // measure 42
2000
0000
3010
0100
0002
0000
1003
0000
,  // measure 43
0001
0010
1000
0000
0110
0000
1001
0000
,  // measure 44
0102
0000
0013
0100
2000
0000
3001
0000
,  // measure 45
1000
0000
0010
0000
0001
0000
0000
0000
0110
0000
0000
0000
1000
0001
1000
0001
,  // measure 46
0010
0010
0010
0010
0100
0100
0100
0100
,  // measure 47
1000
1000
1000
1000
0001
0001
0001
0001
,  // measure 48
0100
0010
0100
0010
0100
0010
0100
0010
0100
0010
0100
0010
0100
0010
0100
0010
,  // measure 49
1000
0001
1000
0001
1000
0001
1000
0001
1000
0001
1000
0001
1000
0001
1000
0000
,  // measure 50
1002
0000
0013
0001
0100
0010
2010
0000
,  // measure 51
3001
0000
1000
0000
0100
0000
0010
0000
0001
1000
0000
0000
1000
0010
0000
0000
,  // measure 52
0210
0000
0301
0010
1000
0010
0120
0000
,  // measure 53
0031
0000
0100
0000
1000
0000
0100
0000
0010
0100
0000
0000
0100
0001
1000
0001
,  // measure 54
2000
0000
3010
1000
0100
0010
0012
0000
,  // measure 55
1003
0000
0001
0000
0100
0000
0010
0000
1000
0001
0000
0000
0001
0010
0000
0000
,  // measure 56
0210
0000
1300
0010
0001
0010
0120
0000
,  // measure 57
1030
0000
0001
0000
0010
0000
0100
0000
1000
0000
0010
0000
0100
0001
1000
0001
,  // measure 58
2000
0000
3100
0001
0100
0010
0210
0000
,  // measure 59
1300
0001
0100
0010
0110
0000
1001
1001
,  // measure 60
2001
0000
3100
0001
1000
0010
0012
0000
,  // measure 61
0103
0000
0010
0000
1000
0000
0001
0000
0010
0100
0000
0000
0110
0000
0110
0000
,  // measure 62
1002
0000
0103
1000
0100
0010
0210
0000
,  // measure 63
0301
0000
1000
0000
0001
0000
0010
0000
0100
1000
0000
0000
1000
0001
0000
0000
,  // measure 64
2001
0000
0000
0000
3010
0000
0100
0001
0100
0000
0001
0000
1002
0000
0000
0000
,  // measure 65
0013
0000
0100
1000
0100
0000
1000
0000
0001
0000
1000
0000
0010
0100
0010
0000
,  // measure 66
1010
1010
1010
0000
1001
0000
0011
0011
,  // measure 67
0011
0000
0000
0000
1001
0000
0000
0000
0100
0010
0000
0000
0010
0100
0000
0000
,  // measure 68
0101
0101
0101
0000
1001
0000
1100
1100
,  // measure 69
1100
0000
0000
0000
1001
0000
0000
0000
0110
0000
0000
0000
0001
1000
0001
1000
,  // measure 70
0002
0000
0013
1000
0010
0001
0100
1000
,  // measure 71
0100
0000
0001
0000
1000
0000
0100
0000
0120
0000
0000
0000
0031
1000
0001
0000
,  // measure 72
2001
0000
3010
0001
0010
1000
0100
0001
,  // measure 73
0100
0000
1000
0000
0001
0000
0100
0010
0100
0000
0110
0000
0110
0000
1001
0000
,  // measure 74
1001
0000
1100
0110
0011
0000
1001
0000
,  // measure 75
1000
0000
0001
1000
0001
0000
0000
0000
0110
0000
0000
0000
1001
0000
0110
0000
,  // measure 76
1001
0000
0000
0000
0001
0000
1000
0001
1000
0000
0000
0000
1001
0000
0000
0000
,  // measure 77
0001
0000
1000
0001
1000
0000
0100
0000
0010
0100
0000
0000
0110
0000
1001
0000
,  // measure 78
0101
0000
1010
1000
0010
0100
0001
1000
,  // measure 79
1100
0000
0011
0001
0010
0100
1000
0001
,  // measure 80
0101
0101
1010
1010
0000
1100
1100
0011
,  // measure 81
0011
2002
0000
0000
0000
0000
0000
0000
,  // measure 82
0000
0000
0000
0000
,  // measure 83
0000
3003
0000
0000
0000
0000
0000
0000
;
