#TITLE:Bring Me to Life;
#SUBTITLE:;
#ARTIST:Rochelle;
#TITLETRANSLIT:;
#SUBTITLETRANSLIT:;
#ARTISTTRANSLIT:;
#GENRE:EURODANCE;
#CREDIT:;
#BANNER:Bring Me to Life.png;
#BACKGROUND:Bring Me to Life-bg.png;
#LYRICSPATH:;
#CDTITLE:cdtitle.png;
#MUSIC:Bring Me to Life.ogg;
#OFFSET:-0.025000;
#SAMPLESTART:31.389999;
#SAMPLELENGTH:15.000000;
#SELECTABLE:YES;
#BPMS:0.000000=130.000000
;
#STOPS:
;
#BGCHANGES:;
#KEYSOUNDS:;
#ATTACKS:;

//---------------dance-single - Daff_4K----------------
#NOTES:
     dance-single:
     Daff_4K:
     Beginner:
     2:
     0.100320,0.153453,0.034679,0.000000,0.000000,81.000000,77.000000,4.000000,0.000000,0.000000,0.000000,0.100320,0.153453,0.034679,0.000000,0.000000,81.000000,77.000000,4.000000,0.000000,0.000000,0.000000:
0000
0000
0000
0000
,
0000
0000
0000
0000
,
0000
0000
0000
0000
,
0000
0000
0000
0000
,
0000
0000
0000
0000
,
0000
0000
0000
0000
,
0000
0000
0000
0000
,
0000
0000
0000
0000
,
1000
0000
0000
0000
,
1000
0000
0000
0000
,
0001
0000
0000
0000
,
0001
0000
0100
0000
,
0010
0000
0000
0000
,
0010
0000
0000
0000
,
1000
0000
0000
0000
,
0001
0000
0000
0000
,
1001
0000
0000
0000
,
1000
1000
0000
0000
,
0001
0001
0000
0000
,
0100
0100
0000
0000
,
0010
0000
1000
0000
,
0001
0001
0000
0000
,
1000
1000
0000
0000
,
0100
0100
0000
0000
,
0010
0000
0001
0000
,
1001
0000
0000
0000
,
1000
0000
0010
0000
,
1000
0000
0000
0000
,
0001
0000
0010
0000
,
0001
0000
0000
0000
,
1000
0000
0001
0000
,
0100
0000
0000
0000
,
0001
0000
1000
0000
,
0100
0000
0000
0000
,
0010
0000
0000
0000
,
0010
0000
0000
0000
,
0001
0000
0000
0000
,
1000
0000
0010
0000
,
0100
0000
0000
0000
,
0100
0000
0000
0000
,
0001
0000
0000
0000
,
1000
0000
0000
0000
,
1001
0000
0000
0000
,
0001
0001
0000
0000
,
1000
1000
0000
0000
,
0100
0100
0000
0000
,
0010
0000
0001
0000
,
1000
1000
0000
0000
,
0001
0001
0000
0000
,
0100
0100
0000
0000
,
0010
0000
0000
0000
,
1000
0000
0100
0000
,
1000
0000
0000
0000
,
1000
0000
0001
0000
,
0010
0000
0000
0000
,
0001
0000
0100
0000
,
0001
0000
0000
0000
,
0001
0000
1000
0000
,
0010
0000
0000
0000
,
1001
0000
0000
0000
;

//---------------dance-single - Daff_4K----------------
#NOTES:
     dance-single:
     Daff_4K:
     Easy:
     5:
     0.196925,0.234080,0.043348,0.242750,0.000000,159.000000,154.000000,5.000000,28.000000,0.000000,0.000000,0.196925,0.234080,0.043348,0.242750,0.000000,159.000000,154.000000,5.000000,28.000000,0.000000,0.000000:
0000
0000
0000
0000
,
0000
0000
0000
0000
,
0000
0000
0000
0000
,
0000
0000
0000
0000
,
0000
0000
0000
0000
,
0000
0000
0000
0000
,
0000
0000
0000
0000
,
0000
0000
0000
0000
,
1001
0000
0001
0100
,
0020
0000
0000
0030
,
1000
0000
0001
1000
,
0100
0000
0010
0000
,
0001
0000
1000
0010
,
0100
0001
0010
0100
,
1000
0000
0002
0003
,
2000
3000
0020
0030
,
0200
0000
0000
0300
,
0002
0003
0010
0100
,
2000
3000
0010
0100
,
0002
2003
3100
0000
,
0010
0001
1000
0001
,
2000
3000
0010
0100
,
0002
0003
0010
0100
,
2000
3002
0103
0000
,
0010
1000
0001
1000
,
1001
0000
0000
0000
,
0001
0100
0001
0000
,
0010
0010
0100
0100
,
1000
0001
1000
0000
,
0010
0010
0100
0001
,
1000
0100
1000
0000
,
0010
0010
0100
0100
,
0001
1000
0001
0000
,
0010
0010
0100
1000
,
0002
0003
0100
0000
,
0010
0010
1000
0001
,
0020
0030
0100
0000
,
1000
0001
0100
0001
,
2000
3000
0100
0000
,
0010
0010
0001
1000
,
0020
0030
0200
0300
,
0001
1000
0001
0000
,
1001
0000
0000
0000
,
2000
3000
0100
0010
,
0002
0003
0100
0010
,
2000
3002
0013
0100
,
1000
1000
0010
0100
,
0002
0003
0100
0010
,
2000
3000
0100
0010
,
0002
2003
3010
0100
,
1001
0000
0000
0000
,
0001
0100
0010
0000
,
1000
0100
0001
0100
,
1000
0100
0010
0000
,
0001
0001
0100
0010
,
1000
0100
0010
0000
,
0001
0100
1000
0100
,
0001
0100
0010
0000
,
1000
0100
0010
0001
,
2002
0000
0000
0000
,
3003
0000
0000
0000
;

//---------------dance-single - Daff_4K----------------
#NOTES:
     dance-single:
     Daff_4K:
     Medium:
     7:
     0.282383,0.338116,0.095366,0.303438,0.000000,228.000000,217.000000,11.000000,35.000000,0.000000,0.000000,0.282383,0.338116,0.095366,0.303438,0.000000,228.000000,217.000000,11.000000,35.000000,0.000000,0.000000:
0000
0000
0000
0000
,
0000
0000
0000
0000
,
0000
0000
0000
0000
,
0000
0000
0000
0000
,
0000
0000
0000
0000
,
0000
0000
0000
0000
,
0000
0000
0000
0000
,
0000
0000
0000
0000
,
0001
0100
1000
0100
,
0002
0000
2000
3003
,
1000
0100
0001
0100
,
2000
0000
0002
3003
,
0001
0100
0010
1000
,
0200
0000
0020
0330
,
0002
0000
2003
0000
,
3020
0000
0200
0330
,
1001
0000
0000
0000
,
2000
0000
3010
0000
1000
0100
1000
0000
,
0002
0000
0013
0000
0001
0100
0001
0000
,
2000
0000
3002
0000
0013
0100
0010
0000
,
0001
0101
1000
1010
,
0002
0000
0103
0000
0001
0010
0001
0000
,
2000
0000
3100
0000
1000
0010
1000
0000
,
0002
0000
2003
0000
3100
0010
0100
0000
,
1000
1010
0001
0101
,
2002
0000
0000
3003
,
1000
0100
0000
0010
0100
0000
1000
0000
,
0001
0000
0100
0000
1000
0000
0100
0001
,
1000
0001
0000
0010
0100
0000
1000
0001
,
1000
0000
0010
0000
0100
0000
0001
1000
,
0001
0010
0000
0100
0010
0000
0001
0000
,
1000
0000
0010
0000
0001
0000
0010
1000
,
0001
1000
0000
0100
0010
0000
0001
1000
,
0020
0100
0100
0130
,
0002
0010
1000
0013
,
0001
0100
0010
1000
,
0100
0010
0001
1000
,
0001
0100
0010
0000
1000
0000
0001
0000
,
2000
0100
0001
3100
,
1000
0010
0100
0001
,
0010
0000
0100
0000
1000
0010
1000
0000
,
0001
0010
0001
0000
1000
0000
0001
0000
,
1001
0000
0000
0000
,
2000
0000
3010
0000
0100
0001
0100
0000
,
0020
0000
1030
0000
0001
0010
0001
0000
,
0200
0000
0320
0000
1030
0001
1000
0000
,
0100
1001
0010
1001
,
0002
0000
0103
0000
0010
1000
0010
0000
,
0200
0000
0301
0000
1000
0100
1000
0000
,
0020
0000
0230
0000
0301
1000
0001
0000
,
2002
0000
0000
3003
,
1000
0100
0000
0001
0100
0000
1000
0000
,
0001
0000
0100
0000
1000
0000
0100
0010
,
0100
0001
0000
1000
0100
0000
0010
0100
,
0010
0000
0001
0000
1000
0000
0010
0100
,
0001
0010
0000
1000
0010
0000
0001
0000
,
1000
0000
0010
0000
0001
0000
0010
0100
,
0010
1000
0000
0001
0010
0000
0100
0010
,
0100
0000
1000
0000
0001
1000
0001
0000
,
2002
0000
0000
0000
,
3003
0000
0000
0000
;

//---------------dance-single - Daff_4K----------------
#NOTES:
     dance-single:
     Daff_4K:
     Hard:
     10:
     0.376510,0.442152,0.390134,0.242750,0.065022,304.000000,259.000000,45.000000,28.000000,0.000000,0.000000,0.376510,0.442152,0.390134,0.242750,0.065022,304.000000,259.000000,45.000000,28.000000,0.000000,0.000000:
0000
0000
0000
0000
,
0000
0000
0000
0000
,
0000
0000
0000
0000
,
0000
0000
0000
0000
,
0000
0000
0000
0000
,
0000
0000
0000
0000
,
0000
0000
0000
0000
,
0000
0000
0000
0000
,
1000
0000
0001
0000
1000
0000
0000
0010
0000
0000
0100
0000
0001
0000
0000
0000
,
2000
3100
0002
0013
,
1000
0000
0100
0000
1000
0000
0000
0001
0000
0000
1000
0000
0010
0000
0000
0000
,
0100
0001
1000
0000
0100
0000
0010
0000
,
0001
0000
1000
0000
0001
0000
0000
0100
0000
0000
0010
0000
1000
0000
0000
0000
,
0002
0013
2000
3100
,
0002
0013
2000
3010
,
0002
0103
2000
3100
,
1001
0000
0000
0000
,
0001
0010
0100
0000
0011
0000
1100
0000
,
1000
0010
0100
0000
1010
0000
0101
0000
,
0110
0000
1001
0000
1000
0100
0001
0000
,
0100
0010
0000
0000
0010
0100
0000
0000
0100
1000
0000
0000
1000
0001
0000
0000
,
1000
0100
0010
0000
1100
0000
0011
0000
,
0001
0100
0010
0000
0101
0000
1010
0000
,
0110
0000
1001
0000
0001
0010
1000
0000
,
0010
0100
0000
0000
0100
0010
0000
0000
0010
0001
0000
0000
0001
1000
0000
0000
,
2002
0000
0000
3003
,
0001
0010
0100
1000
0002
0000
1003
0000
,
0101
1010
0101
1010
,
1000
0100
0010
0001
2000
0000
3001
0000
,
1000
0010
0100
0000
0001
0010
0100
0000
,
1000
0100
0001
0100
2000
0000
3001
0000
,
1010
0101
1010
0101
,
0001
0010
0100
1000
0002
0000
1003
0000
,
0001
0100
0010
0000
1000
0100
0010
0000
,
0002
0100
1000
0013
,
0001
0100
0010
0000
1000
0001
0010
0000
,
0200
0000
1000
0000
0310
0001
0100
0000
,
0010
1000
0001
0000
0020
0000
0130
0000
,
2000
0010
0001
3100
,
1000
0010
0100
0000
0001
1000
0100
0000
,
0020
0000
0001
0000
0130
1000
0010
0000
,
0100
0001
0010
0000
0100
1000
0001
0000
,
1001
0000
0000
0000
,
1000
0100
0001
0000
1100
0000
0011
0000
,
0001
0100
1000
0000
0101
0000
1010
0000
,
0110
0000
1001
0000
0010
0100
0010
0000
,
1000
0010
0000
0000
0010
0100
0000
0000
0100
0001
0000
0000
0001
1000
0000
0000
,
0001
0010
1000
0000
0011
0000
1100
0000
,
1000
0010
0001
0000
1010
0000
0101
0000
,
0110
0000
1001
0000
0100
0010
0100
0000
,
2002
0000
0000
3003
,
0001
0100
1000
0100
0002
0000
1003
0000
,
0011
1010
0011
1001
,
1000
0010
0100
0001
0020
0000
0130
0000
,
1000
0010
0001
0010
1000
0100
0010
0001
,
1000
0010
0001
0010
2000
0000
3001
0000
,
1100
0101
1100
1001
,
0001
0100
0010
1000
0200
0000
0310
0000
,
0001
0100
1000
0100
0002
0000
1003
0000
,
2002
0000
0000
0000
,
3003
0000
0000
0000
;

//---------------dance-single - Daff_4K----------------
#NOTES:
     dance-single:
     Daff_4K:
     Challenge:
     13:
     0.453299,0.572196,0.121375,0.320777,0.377129,366.000000,352.000000,14.000000,37.000000,0.000000,0.000000,0.453299,0.572196,0.121375,0.320777,0.377129,366.000000,352.000000,14.000000,37.000000,0.000000,0.000000:
// measure 0
0000
0000
0000
0000
,  // measure 1
0000
0000
0000
0000
,  // measure 2
0000
0000
0000
0000
,  // measure 3
0000
0000
0000
0000
,  // measure 4
0000
0000
0000
0000
,  // measure 5
0000
0000
0000
0000
,  // measure 6
0000
0000
0000
0000
,  // measure 7
0000
0000
0000
0000
,  // measure 8
1000
0000
0100
0000
0010
0000
0000
0100
1000
0000
0001
0000
2000
0000
0000
0000
,  // measure 9
3002
0023
2030
3200
,  // measure 10
0301
0000
1000
0000
0100
0000
0000
0100
0010
0000
0001
0000
2000
0000
0000
0000
,  // measure 11
3020
0032
0203
2300
,  // measure 12
3001
0000
0010
0000
0100
0000
0000
0010
0001
0000
1000
0000
0002
0000
0000
0000
,  // measure 13
2003
3200
0302
0023
,  // measure 14
2030
0100
3002
0100
,  // measure 15
0023
0000
0100
0000
0031
1000
0001
0000
,  // measure 16
2002
0000
0000
3003
,  // measure 17
1000
0000
0010
0000
0100
0000
0000
1000
0000
0010
0000
0100
0000
0010
0000
1000
,  // measure 18
0001
0000
0010
0000
0100
0000
0000
0001
0000
0010
0000
0100
0000
0010
0000
0001
,  // measure 19
0100
0000
0000
1000
0100
0000
0000
0001
0000
1000
0000
0001
0000
0010
0100
0000
,  // measure 20
1000
0010
0000
0000
0010
0100
0000
0000
0100
0001
0000
0000
0001
1000
0000
0000
,  // measure 21
0001
0000
0100
0000
0010
0000
0000
0001
0000
0100
0000
0010
0000
0100
0000
0001
,  // measure 22
1000
0000
0100
0000
0010
0000
0000
1000
0000
0100
0000
0010
0000
0100
0000
1000
,  // measure 23
0010
0000
0000
0001
0010
0000
0000
1000
0000
0001
1000
0000
0100
0000
0010
0000
,  // measure 24
0001
0100
0000
0000
0100
0010
0000
0000
0010
1000
0000
0000
1000
0001
0000
0000
,  // measure 25
2002
0000
0000
3003
,  // measure 26
1000
0000
0010
0000
0001
0000
0010
0000
1000
0000
0000
0000
0100
0010
0100
1000
,  // measure 27
0001
0001
1000
1000
0010
0100
0001
1000
,  // measure 28
0001
0000
0010
0000
1000
0000
0010
0000
0100
0000
0000
0000
1000
0000
0001
1000
,  // measure 29
0010
0000
0010
0000
0100
0000
0001
0000
1000
0000
0100
0010
0100
0000
0010
0000
,  // measure 30
0001
0000
0100
0000
1000
0000
0100
0000
0001
0000
0000
0000
0010
0100
0010
0001
,  // measure 31
1000
1000
0001
0001
0100
0010
1000
0001
,  // measure 32
1000
0000
0100
0000
0001
0000
0100
0000
0010
0000
0000
0000
0001
0000
1000
0001
,  // measure 33
0100
0000
0100
0000
0010
0000
1000
0000
0001
0000
0010
0100
0010
0000
0100
0000
,  // measure 34
2000
0010
0000
3001
1000
0100
0000
0012
,  // measure 35
0000
1003
0001
0100
0000
0110
0000
2001
,  // measure 36
0000
3100
0000
0010
0001
1000
0000
1020
,  // measure 37
0000
0100
0000
0031
0010
1000
0100
0010
,  // measure 38
0002
0100
0000
1003
0001
0010
0000
2100
,  // measure 39
0000
3001
1000
0010
0000
0110
0000
1002
,  // measure 40
0000
0013
0000
0100
1000
0002
0000
0103
,  // measure 41
0010
2000
0000
3100
0010
0001
0100
0010
,  // measure 42
2002
0000
0000
3003
,  // measure 43
1000
0000
0100
0000
0001
0000
0000
1000
0000
0100
0000
0010
0000
0001
0000
1000
,  // measure 44
0001
0000
0100
0000
1000
0000
0000
0001
0000
0100
0000
0010
0000
1000
0000
0001
,  // measure 45
0010
0000
0000
1000
0010
0000
0000
0001
0000
0100
0000
0010
0000
1000
0001
0000
,  // measure 46
0010
0100
0000
0000
0100
1000
0000
0000
0010
0100
0000
0000
0100
0001
0000
0000
,  // measure 47
0001
0000
0010
0000
1000
0000
0000
0001
0000
0010
0000
0100
0000
1000
0000
0001
,  // measure 48
1000
0000
0010
0000
0001
0000
0000
1000
0000
0010
0000
0100
0000
0001
0000
1000
,  // measure 49
0100
0000
0000
0001
0100
0000
0000
1000
0000
0001
1000
0000
0010
0000
0100
0000
,  // measure 50
2002
0000
0000
3003
,  // measure 51
0001
0000
0100
0000
1000
0000
0100
0000
0001
0000
0010
0000
0100
0010
0100
1000
,  // measure 52
0001
0001
1000
1000
0010
0100
0001
1000
,  // measure 53
0001
0000
0010
0000
0100
0000
0010
0000
0001
0000
1000
0000
0010
0000
0010
0100
,  // measure 54
0001
0000
0001
0000
1000
0000
1000
0000
0100
0000
0010
0100
0010
0000
0001
0000
,  // measure 55
1000
0000
0010
0000
0001
0000
0010
0000
1000
0000
0100
0000
0010
0100
0010
0001
,  // measure 56
1000
1000
0001
0001
0100
0010
1000
0001
,  // measure 57
1000
0000
0100
0000
0010
0000
0100
0000
1000
0000
0001
0000
0100
0000
0100
0010
,  // measure 58
1000
0000
1001
0000
0001
0000
1001
0000
1000
0000
0100
0010
0001
0000
1000
0000
,  // measure 59
2002
0000
0000
0000
,  // measure 60
3003
0000
0000
0000
;
