#TITLE:Brazilian Fire;
#SUBTITLE:;
#ARTIST:Ben Franklin;
#TITLETRANSLIT:;
#SUBTITLETRANSLIT:;
#ARTISTTRANSLIT:;
#GENRE:;
#CREDIT:;
#MUSIC:Brazilian Fire.ogg;
#BANNER:;
#BACKGROUND:;
#CDTITLE:;
#SAMPLESTART:22.565;
#SAMPLELENGTH:15.000;
#SELECTABLE:YES;
#OFFSET:-0.411;
#BPMS:0.000=130.000;
#STOPS:;
#BGCHANGES:;
#FGCHANGES:;

//--------------- dance-single - eataninja ----------------
#NOTES:
     dance-single:
     eataninja:
     Beginner:
     2:
     0,0,0,0,0:
0000
0000
0000
0000
,
0000
0000
0000
0000
,
0000
0000
0000
0000
,
0000
0000
0000
0000
,
0001
0000
0000
0000
,
0001
0000
0000
0000
,
0001
0000
0000
0000
,
0100
0000
0100
0000
,
0010
0000
1000
0000
,
0010
0000
1000
0000
,
0001
0000
0010
0000
,
0100
0000
0000
0000
,
1000
0000
0001
0000
,
0100
0000
0000
0000
,
0001
0000
1000
0000
,
0100
0000
0100
0000
,
1000
0000
0001
0000
,
0010
0000
0000
0000
,
0001
0000
0100
0000
,
0010
0000
0000
0000
,
0010
0000
1000
0000
,
0100
0000
1000
0000
,
0010
0000
1000
0000
,
0100
0000
0000
0000
,
0010
0000
0001
0000
,
0100
0000
0001
0000
,
0010
0000
0001
0000
,
0100
0000
0000
0000
,
1000
0000
0100
0000
,
0001
0000
0100
0000
,
1000
0000
0100
0000
,
0001
0000
0000
0000
,
0010
0000
1000
0000
,
0010
0000
0001
0000
,
0010
0000
1000
0000
,
0010
0000
0000
0000
,
0200
0000
0000
0300
,
0100
0000
0000
0000
,
1000
0000
0001
0000
,
1001
0000
0000
0000
,
0200
0000
0000
0300
,
0100
0000
0000
0000
,
0001
0000
1000
0000
,
1001
0000
0000
0000
,
0001
0000
0010
0000
,
0100
0000
0010
0000
,
1000
0000
0010
0000
,
0100
0000
0000
0000
,
1000
0000
0010
0000
,
0100
0000
0010
0000
,
0001
0000
0010
0000
,
0100
0000
0000
0000
,
0001
0000
0010
0000
,
0100
0000
0010
0000
,
0001
0000
0100
0000
,
0010
0000
0000
0000
,
1000
0000
0010
0000
,
0100
0000
0010
0000
,
1000
0000
0100
0000
,
1001
0000
1001
0000
;

//--------------- dance-single - eataninja ----------------
#NOTES:
     dance-single:
     eataninja:
     Easy:
     5:
     0,0,0,0,0:
0000
0000
0000
0000
,
0000
0000
0000
0000
,
0000
0000
0000
0000
,
0000
0000
0000
0000
,
0100
0100
0000
0000
,
0100
0100
0000
0000
,
0100
0100
0000
0000
,
1001
0000
1001
0000
,
0001
0010
0001
0000
,
1000
0010
1000
0000
,
0001
0100
1000
0010
,
0002
0000
0000
0003
,
0100
0001
1000
1000
,
0100
0000
0100
0000
,
0010
0001
1000
1000
,
0010
0000
1001
0000
,
0100
1000
0001
0001
,
0100
0000
0100
0000
,
1000
0100
0001
0010
,
0200
0000
0000
0300
,
1000
0001
0010
0001
,
1000
0001
0010
0001
,
1000
0001
0010
0001
,
0100
0000
0000
0000
,
0001
1000
0100
1000
,
0001
1000
0100
1000
,
0001
1000
0100
1000
,
0010
0000
0000
0000
,
1000
0010
0100
0010
,
1000
0100
0010
0100
,
1000
0010
0100
0010
,
1000
0000
0000
0000
,
0001
0010
0100
0010
,
0001
0100
0010
0100
,
0001
0010
0100
0010
,
0001
0000
0000
0000
,
1000
0000
0110
0000
,
0002
0000
0000
0003
,
0001
0000
0110
0000
,
1001
0000
0000
0000
,
0010
0000
1001
0000
,
0200
0000
0000
0300
,
0100
0000
1001
0000
,
0110
0000
0000
0000
,
0100
0001
0010
0100
,
0010
0001
0100
0010
,
1000
0100
0010
0001
,
0100
0000
1001
0000
,
0010
1000
0100
0010
,
0100
1000
0010
0100
,
0001
0010
0100
1000
,
0010
0000
1001
0000
,
0001
0100
1000
0100
,
0001
0010
0100
1000
,
0001
0010
1000
0010
,
0100
0000
1000
0000
,
1000
0010
0001
0010
,
1000
0100
0010
0001
,
1000
0100
0001
0100
,
0010
0010
1001
1001
;

//--------------- dance-single - eataninja ----------------
#NOTES:
     dance-single:
     eataninja:
     Medium:
     9:
     0,0,0,0,0:
0000
0000
0000
0000
,
0000
0000
0000
0000
,
0000
0000
0000
0000
,
0000
0000
0000
0000
,
0001
0000
0000
0001
0000
0000
0000
0000
0010
0000
0100
0000
1000
0000
0000
0000
,
0001
0000
0000
0001
0000
0000
0000
0000
0100
0000
0010
0000
1000
0000
0000
0000
,
0001
0000
0000
0001
0000
0000
0000
0000
0010
0000
0100
0000
1000
0000
0000
0000
,
0010
0010
0000
0000
0100
0001
1000
0000
,
0100
0000
1100
0000
0001
1000
0010
0000
,
0100
0000
0101
0000
1000
0001
0010
0000
,
0100
0000
1000
0100
0000
0001
0100
0000
,
2000
0002
0000
3003
,
0001
0100
1000
0000
0100
0010
1000
0000
,
0001
0000
0000
0001
0000
0000
0000
0000
0010
0000
0001
0000
1000
0000
0000
0000
,
0001
0010
1000
0000
0010
0100
1000
0000
,
0010
0010
0000
0000
0100
0001
1000
0000
,
1000
0100
0001
0000
0100
0010
0001
0000
,
1000
0000
0000
1000
0000
0000
0000
0000
0010
0000
1000
0000
0001
0000
0000
0000
,
0011
0000
1100
0000
1020
0000
0130
0001
,
1000
0100
0001
0100
0010
0100
1000
0000
,
0001
0000
0100
0000
1000
0100
0001
0000
,
0001
0000
0100
0000
1000
0100
0001
0000
,
0001
0000
0100
0000
1000
0100
0001
0000
,
0010
0000
0100
2001
0000
0000
3010
0000
,
1000
0000
0000
1000
0000
0000
0010
0000
0001
0000
0010
0000
1000
0000
0000
0000
,
1000
0000
0000
1000
0000
0000
0010
0000
0001
0000
0010
0000
1000
0000
0000
0000
,
1000
0000
0000
1000
0000
0000
0010
0000
0001
0000
0010
0000
1000
0000
0000
0000
,
0100
1002
0000
0000
0013
0000
0100
0000
,
0010
0000
0001
0000
0100
1000
0100
0001
,
0010
0000
0001
0000
0100
1000
0100
0001
,
0010
0000
0001
0000
0100
1000
0100
0001
,
0010
0000
0000
0000
0100
0000
0000
0100
0000
0000
0000
0000
1001
0000
0000
0000
,
0010
0000
1000
0000
0100
0001
0100
1000
,
0010
0000
1000
0000
0100
0001
0100
1000
,
0010
0000
1000
0000
0100
0001
0100
1000
,
0010
0010
0100
0000
0001
1000
0100
0000
,
2000
0000
0001
0000
,
3020
0000
0000
0000
,
0032
0000
0000
0000
0023
0000
0000
0030
,
1010
0000
0000
0000
1000
0001
0100
0000
,
0002
0000
1000
0000
,
0203
0000
0000
0000
,
2300
0000
3200
0000
,
0310
0000
1000
0000
1000
0000
0000
0001
0000
0000
0020
0000
0000
0000
0000
0000
,
0031
1000
0100
0000
0001
0100
1000
0000
,
0010
0100
0001
0000
0010
0100
1000
0000
,
0001
0100
0001
0000
1000
0010
1000
0000
,
0001
0000
0000
0000
1001
0000
0000
0000
1000
0000
0000
0100
0000
0000
0000
0000
,
1000
0001
0100
0000
1000
0100
0001
0000
,
0010
0100
1000
0000
0010
0100
0001
0000
,
1000
0100
1000
0000
0001
0010
0001
0000
,
1000
0000
0000
0000
1001
0000
0000
0000
0001
0000
0000
0010
0000
0000
0000
0000
,
0001
1000
0010
0100
0001
0000
1000
0000
,
0001
0100
1000
0000
1000
0100
0001
0000
,
0010
0100
1000
0000
0010
0100
0001
0000
,
0010
0000
0000
0200
0000
0000
0000
0000
1300
0000
0000
0000
0001
0000
1000
0000
,
0010
0001
0010
1000
0010
0001
0010
0000
,
0100
1000
0100
0001
0100
1000
0100
0000
,
0010
1000
0200
0000
0320
0000
0032
0000
,
1003
0000
0000
1000
0010
0000
0000
0010
0100
0000
0010
0000
1001
0000
0000
0000
;

//--------------- dance-single - eataninja ----------------
#NOTES:
     dance-single:
     eataninja:
     Hard:
     13:
     0,0,0,0,0:
0000
0000
0000
0000
,
0000
0000
0000
0000
,
0000
0000
0000
0000
,
0000
0000
0000
0000
,
0101
0000
0000
0101
0000
0000
0001
0000
1000
0000
0100
0000
1000
0001
0000
0000
,
1100
0000
0000
1100
0000
0000
1000
0000
0001
0000
0100
0000
0010
0100
0000
0000
,
1010
0000
0000
1010
0000
0000
1000
0000
0001
0000
0010
0000
0001
1000
0000
0000
,
0100
0000
0100
0000
0010
0001
0010
0001
1000
0000
1000
0000
0010
0000
0000
0000
,
0100
0000
0000
0100
0001
0000
0000
0001
1000
0000
0100
0010
0000
0010
0000
0000
,
0100
0000
0000
0100
1000
0000
0000
1000
0001
0000
0100
0010
0000
0010
0000
0000
,
1000
0000
0000
1000
0001
0000
0010
0000
0000
0000
1000
0000
0010
0000
0100
0000
,
2000
0002
0000
3003
,
0001
0000
0000
0001
0100
0010
0000
0100
1000
0100
0000
0100
0001
0000
1000
0100
,
0010
0000
0000
0011
0000
0000
0001
0000
1000
0000
0010
0000
0100
0010
0000
0000
,
1000
0000
0000
1000
0100
0010
0000
0100
0001
0100
0000
0100
1000
0000
0001
0100
,
0010
0010
1001
0000
0010
0100
1001
0000
,
0001
0000
0000
0001
0010
0100
0000
0010
1000
0010
0000
0010
0001
0000
1000
0010
,
0100
0000
0000
0101
0000
0000
0001
0000
1000
0000
0100
0000
0010
0100
0000
0000
,
0101
0000
1100
0000
1020
0000
0130
1000
,
0100
0100
0010
1000
0001
0010
1001
0000
,
1000
0000
0200
0001
0000
0310
0000
0100
0000
1000
0000
1000
0001
0000
0010
0000
,
0001
0000
0200
1000
0000
0310
0000
0100
0000
0001
0000
0001
1000
0000
0010
0000
,
1000
0000
0200
0001
0000
0310
0000
0100
0000
1000
0000
1000
0001
0000
0100
0000
,
0010
0000
1010
1002
0000
0000
0013
0000
,
0001
0000
0020
1000
0000
0130
0000
0010
0000
0001
0000
0001
1000
0000
0100
0000
,
1000
0000
0020
0001
0000
0130
0000
0010
0000
1000
0000
1000
0001
0000
0100
0000
,
0001
0000
0020
1000
0000
0130
0000
0010
0000
0001
0000
0001
1000
0000
0010
0000
,
1010
1002
0000
0000
0013
0100
1000
0000
,
0001
0000
0200
1000
0000
0010
0000
1300
0000
0100
0000
0001
0010
0000
0100
0000
,
1000
0000
0200
0001
0000
0010
0000
0301
0000
0100
0000
1000
0010
0000
0100
0000
,
0001
0000
0200
1000
0000
0010
0000
1300
0000
0100
0000
0001
0010
0000
0100
0000
,
1000
0000
0000
0000
0011
0000
0000
0001
0000
1000
0000
0100
0010
0000
0001
0000
,
1000
0000
0020
0001
0000
0100
0000
0031
0000
0010
0000
1000
0100
0000
0010
0000
,
0001
0000
0020
1000
0000
0100
0000
1030
0000
0010
0000
0001
0100
0000
0010
0000
,
1000
0000
0020
0001
0000
0100
0000
0031
0000
0010
0000
1000
0100
0000
0010
0000
,
0001
0000
0100
0000
1001
0000
0000
1000
0000
0100
0000
1000
0010
0000
0100
0000
,
0002
0000
0000
0000
0010
0000
0000
0000
1003
0100
0000
0000
1000
0000
0010
0000
,
0100
0000
0100
0000
1000
0100
0001
0000
,
2000
0000
0000
0000
0100
0000
0000
0000
3001
0010
0000
0000
0001
0000
0100
0000
,
0110
0000
0000
0000
0100
0100
1001
0000
,
2000
0000
0000
0000
0010
0000
0000
0000
3001
0100
0000
0000
0010
0000
0100
0001
,
1000
0000
0100
0000
0001
0100
1000
0000
,
0002
0000
0000
0000
0100
0000
0000
0000
1003
0010
0000
0000
0100
0000
0010
1000
,
0001
0000
0010
0000
0010
0000
0000
1000
0000
0010
0002
0000
0000
0000
0000
0000
,
1003
0000
0020
0001
0000
1000
0000
0130
0000
0010
1000
0100
0000
0010
0000
0001
,
1000
0000
0200
0001
0000
0010
0000
2300
0000
0010
0000
3001
0010
0000
0100
0000
,
1000
0000
0020
0001
0000
0130
0000
0010
0000
1000
0000
1000
0100
0000
0010
0000
,
0001
0000
0000
0000
1100
0000
0000
0000
1000
0001
0100
0010
0000
0100
0000
0000
,
0001
0000
0200
1000
0000
0001
0000
0310
0000
0100
0001
0010
0000
0100
0000
1000
,
0001
0000
0020
1000
0000
0100
0000
0032
0000
0100
0000
1003
0100
0000
0010
0000
,
0001
0000
0200
1000
0000
0310
0000
0100
0000
0001
0000
0001
1000
0000
0100
0000
,
0010
0000
0010
0000
1001
0000
0000
0000
0001
1000
0010
0100
0000
0010
0000
0000
,
1000
0100
1000
0100
0010
0000
0001
0000
0100
0000
0000
1000
0000
0100
0000
0010
,
1000
0001
0000
0010
0000
0100
0000
0000
1000
0001
0000
0010
0000
0100
0000
0000
,
1000
0010
1000
0002
0000
0000
0000
0000
0103
0000
0010
1000
0200
0000
0000
0000
,
0302
0000
0000
2003
0000
0000
3010
0000
0001
0000
1000
0000
0010
0000
0100
0000
,
0001
0000
1000
0010
1000
0000
0010
0100
0010
0000
0100
0001
0100
0000
0001
1000
,
0001
0000
1000
0100
1000
0000
0100
0010
0100
0000
0010
0001
0010
0000
0001
1000
,
0010
0100
0010
0000
0002
0000
0000
0000
2003
0000
0000
0000
3200
0000
0000
0000
,
0301
0000
0000
0010
1000
0000
0000
0010
0001
0000
0100
0000
1001
0000
0000
0000
;

//--------------- dance-double - double ninja ----------------
#NOTES:
     dance-double:
     double ninja:
     Easy:
     6:
     0,0,0,0,0:
00000000
00000000
00000000
00000000
,
00000000
00000000
00000000
00000000
,
00000000
00000000
00000000
00000000
,
00000000
00000000
00000000
00000000
,
00000001
00000001
00000000
00000000
,
00000100
00000100
00000000
00000000
,
00001000
00001000
00000000
00000000
,
00011000
00000000
00011000
00000000
,
00010000
01000000
10000000
00000000
,
00100000
00010000
00001000
00000000
,
00011000
00000000
00001000
00000100
,
00000002
00000000
00000000
00000003
,
00000001
00000010
00000100
00001000
,
00000010
00000000
00000110
00000000
,
00000010
00010000
00001000
00000100
,
00000010
00000010
00000000
00000000
00010000
00010000
00000000
00000000
,
00010000
01000000
00100000
00010000
,
10000000
00000000
10010000
00000000
,
00100000
00000000
00010000
00000000
00001000
00000000
00000010
00000200
,
00000001
00000001
00000301
00000000
,
00000001
00000010
00001000
00000010
,
00000001
00000010
00001000
00000010
,
00000001
00000010
00001000
00010000
,
01000000
00000000
00100000
00020000
00000000
00000000
10030000
00000000
,
10000000
00100000
00010000
00100000
,
10000000
00100000
00010000
00100000
,
10000000
00100000
00010000
00001000
,
00000100
00000020
00000000
00000000
00000000
00010000
00010030
00000000
,
00000001
00000010
00001000
00010000
,
00001000
00000010
00000001
00000100
,
00001000
00010000
01000000
10000000
,
00100000
10010000
01000000
00000000
,
10000000
01000000
00010000
00001000
,
00010000
01000000
10000000
00100000
,
00010000
00001000
00000100
00000001
,
00000010
00000000
00000100
00000000
00001000
00000001
00001000
00000000
,
00000020
00000000
00010000
00000000
,
00002030
00000000
00000000
00000000
,
02003000
00000000
00000000
00000000
23000000
00000000
00000000
30000000
,
10010000
00000000
00000000
00000000
,
02000000
00000000
00001000
00000000
,
03020000
00000000
00000000
00000000
,
00030200
00000000
00000302
00000000
,
00000013
00000100
00000100
00000000
00001001
00000000
00000000
00000000
,
00000001
00000000
00000100
00000000
00000010
00000100
00000010
00000000
,
00001000
00010000
01000000
00001000
,
00010000
01000000
10000000
00100000
,
01000000
10010000
10000000
00000000
,
10000000
00000000
01000000
00000000
00100000
01000000
00100000
00000000
,
00010000
00001000
00000100
00010000
,
00001000
00000100
00000001
00000010
,
00000100
00000010
00000100
00000000
00001001
00000000
00000000
00000000
,
00000001
00000100
00000001
00000000
00001000
00000010
00010000
00000000
,
00001000
00100000
01000000
10000000
,
00100000
00010000
00001000
00000100
,
00000001
00000010
00000100
00000100
,
00001000
00000010
00001000
00000000
00000001
00000100
00000001
00000000
,
00000010
00001000
00000010
00000000
00000100
00010000
00000100
00000000
,
01000000
00100000
10000000
01000000
,
01100000
00000000
00011000
00000000
00001000
00000100
00000001
00000000
;

//--------------- dance-double - double ninja ----------------
#NOTES:
     dance-double:
     double ninja:
     Medium:
     11:
     0,0,0,0,0:
00000000
00000000
00000000
00000000
,
00000000
00000000
00000000
00000000
,
00000000
00000000
00000000
00000000
,
00000000
00000000
00000000
00000000
,
00000001
00000000
00000000
00000001
00000000
00000000
00000000
00000000
00000100
00000000
00000010
00000000
00010000
00000000
00000000
00000000
,
00001000
00000000
00000000
00001000
00000000
00000000
00000000
00000000
00100000
00000000
01000000
00000000
10000000
00000000
00000000
00000000
,
00010000
00000000
00000000
00010000
00000000
00000000
00000000
00000000
10000000
00000000
00100000
00000000
01000000
00000000
00000000
00000000
,
00001000
00001000
00000000
00000000
00010000
00001000
00001100
00000000
,
00000101
00000000
00001000
00000000
00000010
00010000
00001000
00000000
,
01010000
00000000
10000000
00000000
01000000
00100000
00010000
00000000
,
00110000
00000000
00010000
00000100
00000000
00000001
00000010
00000100
,
00020000
00002000
00000000
00033000
,
00001000
00000000
00010000
00000000
00000010
00000100
00000000
00000000
00000100
00000001
00000000
00000000
00000010
00000000
00000100
00000000
,
00010000
00000000
00000000
00010000
00000000
00000000
00000000
00000000
01000000
00000000
10000000
00000000
00010000
00000000
00000000
00000000
,
01000000
00000000
00100000
00000000
10000000
00010000
00000000
00000000
00010000
00100000
00000000
00000000
01000000
00000000
00100000
00000000
,
00001000
00001000
00000000
00000000
00010000
00000010
00001010
00000000
,
00000001
00000000
00001000
00000000
00000100
00000010
00000000
00000000
00000010
00000001
00000000
00000000
00000001
00000000
00001000
00000000
,
00000010
00000000
00000000
00000010
00000000
00000000
00000000
00000000
00010000
00000000
00100000
00000000
01000000
00000000
00000000
00000000
,
01010000
00000000
00110000
00000000
21000000
00000000
30100000
00010000
,
00001000
00001000
00010000
00000010
00001000
00000100
00001001
00000000
,
00000001
00000100
00001000
00010000
00001000
00000100
00000001
00000000
,
00000001
00000100
00001000
00010000
00001000
00000100
00000001
00000000
,
00000001
00000100
00001000
00010000
00001000
00000100
00000001
00000000
,
00000010
00000000
00010000
02000000
00000000
03000000
10010000
00000000
,
10000000
00100000
00010000
00001000
00010000
00100000
10000000
00000000
,
10000000
00100000
00010000
00001000
00010000
00100000
10000000
00000000
,
10000000
00100000
00010000
00001000
00010000
00100000
10000000
00000000
,
01000000
00020000
00000000
00000000
00031000
00000100
00000010
00000000
,
00010000
00000100
00000001
00000100
00010000
01000000
00100000
00000000
,
00010000
00000010
00000001
00000010
00001000
00100000
01000000
00000000
,
00010000
00000100
00000001
00000100
00010000
01000000
00100000
00000000
,
00010000
00000000
10010000
00000000
10000000
00100000
01000000
00000000
,
00001000
01000000
10000000
01000000
00001000
00000100
00000010
00000000
,
00001000
00100000
10000000
00100000
00001000
00000010
00000100
00000000
,
00001000
01000000
10000000
01000000
00001000
00000100
00000010
00000000
,
00001000
00000001
00000010
00000000
00000100
00000010
00001001
00000000
,
00000010
00000000
00000000
00000000
00000010
00000000
00000000
00000000
00010000
00001000
00000000
00000000
00010000
00000000
00100000
00000000
,
02000000
00000000
00000000
03000000
,
00020000
00000000
00000000
00000000
10000000
00000000
00000000
00000000
01030000
00001000
00000000
00000000
00100000
00000000
01000000
00000000
,
10010000
00000000
00000000
00000000
10000000
01000000
00010000
00000000
,
01000000
00000000
00000000
00000000
01000000
00000000
00000000
00000000
00010000
00001000
00000000
00000000
00010000
00000000
00000100
00000000
,
00000020
00000000
00000000
00000030
,
00000002
00000000
00000000
00000000
00001000
00000000
00000000
00000000
00000013
00010000
00000000
00000000
00000010
00000000
00000100
00000000
,
00001000
00000000
00000001
00000000
00000001
00000000
00000000
00000100
00000000
00000010
00000200
00000000
00000000
00000000
00000300
00000000
,
00000001
00000100
00001000
00010000
00000010
00000100
00000001
00000000
,
00000001
00000010
00001000
00010000
01000000
10000000
00100000
00000000
,
10000000
00100000
00010000
00001000
00010000
00100000
10000000
00000000
,
01000000
00000000
00000000
00000000
10010000
00000000
00000000
00000000
10000000
01000000
00000000
00100000
00000000
00010000
00000000
00000000
,
10000000
00100000
00010000
00001000
01000000
00100000
10000000
00000000
,
10000000
01000000
00010000
00001000
00000100
00000001
00000010
00000000
,
00000001
00000100
00001000
00010000
00001000
00000100
00000001
00000000
,
00000010
00000000
00000000
00000000
00001001
00000000
00000000
00000000
00000001
00000100
00000000
00000010
00000000
00001000
00000000
00000000
,
00000001
00000010
00001000
00000010
00000100
00000000
00010100
00000000
,
00010000
00001000
00000000
00100000
00000000
00010000
00000000
00000000
00100000
00010000
00000000
10000000
00000000
00100000
00000000
00000000
,
10000000
00100000
02000000
00000000
03002000
00000000
00003200
00000000
,
00000310
00000000
00000000
00000002
00000000
00000000
00000000
00000000
00001003
00000000
00000100
00000000
00000001
00000000
00000000
00000000
,
00000010
00000100
00010000
00000100
00000010
00000100
00010000
00001000
,
00000100
00000010
00010000
00000010
00000100
00000010
00010000
00001000
,
00000100
00000001
00000020
00000000
00000230
00000000
00010300
00000000
,
01010000
00000000
00010100
00000000
00000010
00000100
00001001
00000000
;

//--------------- dance-double - double ninja ----------------
#NOTES:
     dance-double:
     double ninja:
     Hard:
     14:
     0,0,0,0,0:
00000000
00000000
00000000
00000000
,
00000000
00000000
00000000
00000000
,
00000000
00000000
00000000
00000000
,
00000000
00000000
00000000
00000000
,
00000001
00000000
00000000
00000001
00000100
00000000
00000010
00000000
00000100
00000000
00010000
00000000
00000100
00000010
00000000
00000000
,
00010000
00000000
00000000
00010000
00001000
00000000
01000000
00000000
00001000
00000000
00100000
00000000
01000000
10000000
00000000
00000000
,
10000000
00000000
00000000
10000000
00100000
00000000
01000000
00000000
00100000
00000000
00001000
00000000
00100000
01000000
00000000
00000000
,
00001000
00001000
00010000
00000000
00010010
00000010
00000110
00000000
,
00000100
00000000
00000000
00000100
00000001
00000000
00000000
00000001
00000010
00000000
00000010
00000100
00000000
00000100
00000000
00000000
,
00010000
00000000
00000000
00010000
00001000
00000000
00000000
00001000
01000000
00000000
01000000
00100000
00000000
00100000
00000000
00000000
,
10000000
00000000
00000000
10000000
01000000
00000000
00010000
00000000
00000000
00000000
00001000
00000000
00000100
00000000
00000001
00000000
,
00000020
00000200
00000000
00000330
,
00000010
00000000
00000001
00000000
00001000
00000010
00000000
00010000
00001000
00010000
00000000
00001000
01000000
00000000
00100000
10000000
,
01000000
00000000
00000000
01100000
00000000
00000000
00100000
00000000
01000000
00000000
10000000
00000000
00010000
01000000
00000000
00000000
,
00100000
00000000
10000000
00000000
00010000
00100000
00000000
00001000
00010000
00001000
00000000
00010000
00000100
00000000
00000010
00000001
,
00001000
00001000
00000010
00000000
00001010
00000010
00011000
00000000
,
00010000
00000000
00000010
00000100
00000010
00010000
00000000
00001000
01000000
00100000
00000000
10000000
01000000
00000000
00100000
00010000
,
10000000
00000000
00000000
10010000
00000000
00000000
00010000
00000000
01000000
00000000
00100000
00000000
10000000
01000000
00000000
00000000
,
01100000
00000000
00110000
00000000
00010200
00000000
00000310
00000001
,
00001000
00001000
00000010
00010000
00001000
00000100
00000001
00000000
,
00000010
00000000
00000001
00000200
00000000
00001000
00000000
00000010
00000000
00010300
00000000
00010000
00000100
00000000
00000001
00000000
,
00000010
00000000
00000001
00000200
00000000
00001000
00000000
00000010
00000000
00010300
00000000
00010000
00000100
00000000
00000001
00000000
,
00000010
00000000
00000001
00000200
00000000
00001000
00000000
00000010
00000000
00010300
00000000
00010000
00000100
00000000
00000010
00000000
,
00010000
00000000
00011000
00210000
00000000
00000000
01300000
00000000
,
01000000
00000000
10000000
00200000
00000000
00010000
00000000
01000000
00000000
00301000
00000000
00001000
00100000
00000000
10000000
00000000
,
01000000
00000000
10000000
00200000
00000000
00010000
00000000
01000000
00000000
00301000
00000000
00001000
00100000
00000000
10000000
00000000
,
01000000
00000000
10000000
00200000
00000000
00010000
00000000
01000000
00000000
00301000
00000000
00001000
00100000
00000000
01000000
00000000
,
01001000
00021000
00000000
00000000
00031000
00000100
00000001
00000000
,
00000010
00000000
00000100
00020000
00000000
00001000
00000000
00000100
00000000
00030010
00000000
00000100
00001000
00000000
00010000
00000000
,
00100000
00000000
01000000
00002000
00000000
00010000
00000000
00100000
00000000
01003000
00000000
00100000
00010000
00000000
00001000
00000000
,
00000100
00000000
00000010
00020000
00000000
00001000
00000000
00000010
00000000
00030100
00000000
00000010
00001000
00000000
00010000
00000000
,
00010100
00000000
00000000
00000000
00110000
00000000
00000000
10000000
00000000
01000000
00000000
00100000
00010000
00000000
01000000
00000000
,
00100000
00000000
01000000
00002000
00000000
00010000
00000000
01000000
00000000
00103000
00000000
01000000
00001000
00000000
00010000
00000000
,
00000010
00000000
00000100
00020000
00000000
00001000
00000000
00000010
00000000
00030100
00000000
00001000
00010000
00000000
00100000
00000000
,
01000000
00000000
00100000
00002000
00000000
00010000
00000000
00100000
00000000
01003000
00000000
00010000
00001000
00000000
00000010
00000000
,
00000100
00000100
00000001
00000000
00000001
00000010
00001001
00000000
,
00000001
00000000
00000000
00000000
00000011
00000000
00000000
00000010
00000100
00001000
00000000
00000000
00010100
00000000
00000000
00000000
,
00020000
00000000
02030000
00000000
13000000
00100000
01000000
00000000
,
00010000
00000000
00000000
00000000
01010000
00000000
00000000
10000000
01000000
00100000
00000000
00000000
00001000
00000000
00010000
00000000
,
00000010
00000000
00000000
00000000
00000010
00000100
00000010
00000000
,
00000001
00000000
00000000
00000000
00000101
00000000
00000000
00000100
00000010
00001000
00000000
00000000
00010100
00000000
00000000
00000000
,
00020000
00000000
00230000
00000000
10300000
01000000
00100000
00000000
,
00010000
00000000
00000000
00000000
00110000
00000000
00000000
10000000
00100000
01000000
00000000
00000000
00001000
00000000
00010000
00000000
,
00000010
00000000
00000100
00000000
00000100
00000000
00000000
00000001
00000000
00000001
00000020
00000000
00000000
00000000
00000030
00000000
,
00000001
00000000
00000100
00001000
00000000
00010000
00000000
01000000
00000000
10000000
00100000
01000000
00000000
00010000
00000000
00100000
,
01000000
00000000
10000000
00100000
00000000
00010000
00000000
00001000
00000000
00000100
00000000
00000001
00000010
00000000
00000100
00000000
,
00010000
00000000
00000010
00000100
00000000
00000001
00000000
00000010
00000000
00001000
00000000
00010000
01000000
00000000
10000000
00000000
,
00100000
00000000
00000000
00000000
01100000
00000000
00000000
00000000
00001000
00010000
01000000
00100000
00000000
00010000
00000000
00000000
,
10000000
00000000
01000000
00010000
00000000
00001000
00000000
00000100
00000000
00000001
00000010
00000100
00000000
00001000
00000000
00000010
,
00000100
00000000
00000001
00000010
00000000
00001000
00000000
00010000
00000000
01000000
00000000
10000000
00100000
00000000
01000000
00000000
,
00001000
00000000
00100000
01000000
00000000
10000000
00000000
00100000
00000000
00010000
00000000
00001000
00000100
00000000
00000001
00000000
,
00000010
00000000
00000000
00000000
00000110
00000000
00000000
00000000
00010000
00001000
00000100
00000010
00000000
00001000
00000000
00000000
,
00000001
00000010
00000001
00001000
00000010
00000000
00000100
00010000
00000000
00001000
00000010
00010000
00000000
00011000
00000000
00001000
,
01000000
00000000
00100000
10000000
00000000
01000000
00000000
00010000
00000000
00001000
00000000
00000010
00000001
00000000
00000100
00000000
,
00000010
00000100
00000010
00010000
00000000
00001000
00000000
00000010
00000000
00000001
00000000
00000100
00000010
00000000
00010000
00000000
,
00002000
00000000
00000000
00203000
00000000
00000000
00000000
00000000
10300000
00000000
00100000
00000000
00010000
00000000
01000000
00000000
,
00100000
00000000
10000000
01000000
00100000
00000000
00001000
00100000
01000000
00000000
10000000
01000000
00100000
00000000
00001000
00010000
,
00000010
00000000
00000100
00000010
00010000
00000000
00001000
00010000
00000010
00000000
00000100
00000010
00001000
00000000
00000001
00000010
,
00000100
00001000
00200000
00000000
02300000
00000000
03002000
00000000
,
00103000
00000000
00000000
00100000
01000000
00000000
00000000
01000000
00100000
00001000
00010000
00000010
00000100
00000000
00000000
00000000
;

//--------------- dance-double - double ninja (ORIGINAL ESP) ----------------
#NOTES:
     dance-double:
     double ninja (ORIGINAL ESP):
     Edit:
     14:
     0,0,0,0,0:
00000000
00000000
00000000
00000000
,
00000000
00000000
00000000
00000000
,
00000000
00000000
00000000
00000000
,
00000000
00000000
00000000
00000000
,
00000101
00000000
00000000
00000101
00000000
00000000
00000001
00000000
00000100
00000000
00000001
00000000
00001000
00000100
00000000
00000000
,
00011000
00000000
00000000
00011000
00000000
00000000
00001000
00000000
01000000
00000000
00001000
00000000
00010000
01000000
00000000
00000000
,
11000000
00000000
00000000
11000000
00000000
00000000
10000000
00000000
00010000
00000000
01000000
00000000
00010000
10000000
00000000
00000000
,
01000000
00000000
01000000
00000000
00100000
00001000
00100000
00001000
01000000
00000000
01000000
00000000
00100000
00000000
00000000
00000000
,
00100000
00000000
00000000
00100000
01000000
00000000
00000000
01000000
00001000
00000000
00001000
00100000
00000000
00100000
00000000
00000000
,
01000000
00000000
00000000
01000000
00100000
00000000
00000000
00100000
00001000
00000000
00001000
01000000
00000000
01000000
00000000
00000000
,
00100000
00000000
00000000
00100000
00001000
00000000
00010000
00000000
00000000
00000000
00000100
00000000
00000001
00000000
00000010
00000000
,
00000200
00020000
00000000
00030300
,
00010000
00000000
00000000
00000100
00000010
00000001
00000000
00000100
00001000
00000100
00000000
00000100
00000001
00000000
00000010
00000100
,
00010000
00000000
00000000
00011000
00000000
00000000
00100000
00000000
00001000
00000000
00010000
00000000
01000000
00100000
00000000
00000000
,
00001000
00000000
00000000
01000000
00100000
10000000
00000000
01000000
00010000
01000000
00000000
01000000
10000000
00000000
00100000
01000000
,
00001000
00001000
00011000
00000000
00010000
00000010
00000110
00000000
,
00010000
00000000
00000000
00000010
00000100
00000001
00000000
00000010
00001000
00000010
00000000
00000010
00000001
00000000
00000100
00000010
,
00010000
00000000
00000000
00011000
00000000
00000000
01000000
00000000
00001000
00000000
00010000
00000000
00100000
01000000
00000000
00000000
,
11000000
00000000
00101000
00000000
00001200
00000000
00000310
00000001
,
00000100
00010000
00000100
00000001
00000010
00000100
00001001
00000000
,
00000001
00000000
00000200
00001000
00000000
00000310
00000000
00000100
00000000
00000001
00000000
00000001
00000010
00000000
00000100
00000000
,
00010000
00000000
00000200
00000010
00000000
00001300
00000000
00000100
00000000
00010000
00000000
00010000
01000000
00000000
10000000
00000000
,
00010000
00000000
02000000
10000000
00000000
03100000
00000000
01000000
00000000
00001000
00000000
00001000
00010000
00000000
01000000
00000000
,
00100000
00000000
00011000
00010200
00000000
00000000
00000310
00000000
,
00000001
00000000
00000020
00001000
00000000
00000130
00000000
00000010
00000000
00000001
00000000
00000001
00000100
00000000
00000010
00000000
,
00010000
00000000
00000020
00000100
00000000
00001030
00000000
00000010
00000000
00010000
00000000
00010000
00100000
00000000
10000000
00000000
,
00010000
00000000
00200000
10000000
00000000
01300000
00000000
00100000
00000000
00001000
00000000
00001000
00010000
00000000
00100000
00000000
,
01100000
10020000
00000000
00000000
01030000
00001000
00100000
00000000
,
00010000
00000000
02000000
10000000
00000000
00100000
00000000
13000000
00000000
01000000
00000000
00001000
00010000
00000000
01000000
00000000
,
00100000
00000000
00002000
00010000
00000000
00000100
00000000
00013000
00000000
00001000
00000000
00000100
00000010
00000000
00001000
00000000
,
00000001
00000000
00000020
00001000
00000000
00000100
00000000
00001030
00000000
00000010
00000000
00000001
00000100
00000000
00000010
00000000
,
00001000
00000000
00000000
00000000
00010100
00000000
00000000
00010000
00000000
01000000
00000000
00100000
00001000
00000000
01000000
00000000
,
00010000
00000000
00200000
10000000
00000000
01000000
00000000
10300000
00000000
00100000
00000000
00001000
00010000
00000000
00100000
00000000
,
01000000
00000000
00002000
00010000
00000000
00000010
00000000
00013000
00000000
00001000
00000000
00000010
00000100
00000000
00001000
00000000
,
00000001
00000000
00000200
00001000
00000000
00000010
00000000
00001300
00000000
00000100
00000000
00000001
00000010
00000000
00000100
00000000
,
00001000
00000000
00000010
00000000
00011000
00000000
00000000
00001000
00000000
00100000
00000000
00010000
01000000
00000000
00100000
00000000
,
20000000
00000000
00000000
00000000
01000000
00000000
00000000
00000000
30100000
01000000
00000000
00000000
00010000
00000000
10000000
00000000
,
01000000
00000000
00010000
00000000
00001000
00000100
00000001
00000000
,
00002000
00000000
00000000
00000000
00000010
00000000
00000000
00000000
00003100
00000010
00000000
00000000
00000001
00000000
00000100
00000000
,
00000110
00000000
00000000
00000000
00000100
00000100
00001001
00000000
,
00000002
00000000
00000000
00000000
00000010
00000000
00000000
00000000
00000103
00000010
00000000
00000000
00001000
00000000
00000100
00010000
,
00001000
00000000
00100000
00000000
10000000
00100000
00010000
00000000
,
20000000
00000000
00000000
00000000
01000000
00000000
00000000
00000000
30100000
01000000
00000000
00000000
00001000
00000000
00010000
00000010
,
00000100
00000000
00010000
00000000
00010000
00000000
00000000
00000100
00000000
00000010
00002000
00000000
00000000
00000000
00000000
00000000
,
00003100
00000000
00000020
00000001
00000000
00000100
00000000
00001030
00000000
00000010
00000001
00000100
00000000
00001000
00000000
00010000
,
01000000
00000000
00200000
00001000
00000000
00010000
00000000
00302000
00000000
01000000
00000000
00103000
01000000
00000000
10000000
00000000
,
00010000
00000000
02000000
10000000
00000000
03100000
00000000
01000000
00000000
00001000
00000000
00001000
00010000
00000000
00000010
00000000
,
00001000
00000000
00000000
00000000
00010100
00000000
00000000
00000000
00010000
00000100
00000010
00000001
00000000
00000100
00000000
00000000
,
00000010
00000000
00000200
00000001
00000000
00000010
00000000
00001300
00000000
00000100
00000001
00000010
00000000
00001000
00000000
00010000
,
00100000
00000000
02000000
00001000
00000000
00010000
00000000
03002000
00000000
00100000
00000000
01003000
00100000
00000000
10000000
00000000
,
00010000
00000000
00200000
10000000
00000000
01300000
00000000
00100000
00000000
00001000
00000000
00001000
00010000
00000000
00000100
00000000
,
00000010
00000000
00000010
00000000
00001001
00000000
00000000
00000000
00000001
00000100
00000010
00001000
00000000
00000001
00000000
00000000
,
00000010
00000001
00000010
00000001
00001000
00000000
00000010
00000000
00010000
00000000
00000000
01000000
00000000
10000000
00000000
00100000
,
01000000
00010000
00000000
10000000
00000000
01000000
00000000
00000000
00100000
00010000
00000000
10000000
00000000
00100000
00000000
00000000
,
01000000
00100000
01000000
00002000
00000000
00000000
00000000
00000000
00013000
00000000
00000010
00000100
00002000
00000000
00000000
00000000
,
00023000
00000000
00000000
00230000
00000000
00000000
10300000
00000000
01000000
00000000
00100000
00000000
00010000
00000000
01000000
00000000
,
10000000
00000000
01000000
00100000
01000000
00000000
00001000
00010000
00001000
00000000
01000000
00100000
01000000
00000000
00001000
00010000
,
00001000
00000000
00100000
01000000
00100000
00000000
00001000
00010000
00001000
00000000
00100000
01000000
00100000
00000000
00001000
00010000
,
00000010
00000100
00000010
00000000
00000002
00000000
00000000
00000000
00002003
00000000
00000000
00000000
00003200
00000000
00000000
00000000
,
00000310
00000000
00000000
00010000
00001000
00000000
00000000
00100000
01000000
00000000
01000000
00000000
10010000
00000000
00000000
00000000
;
