#VERSION:0.83;
#TITLE:Brazil;
#SUBTITLE:;
#ARTIST:Declan McKenna;
#TITLETRANSLIT:;
#SUBTITLETRANSLIT:;
#ARTISTTRANSLIT:;
#GENRE:;
#ORIGIN:;
#CREDIT:;
#BANNER:banner.png;
#BACKGROUND:Brazil-bg.png;
#PREVIEWVID:;
#JACKET:jacket.png;
#CDIMAGE:;
#DISCIMAGE:video_image-Ha0whizfQ.jpeg;
#LYRICSPATH:;
#CDTITLE:;
#MUSIC:Brazil.ogg;
#OFFSET:1.999000;
#SAMPLESTART:47.553894;
#SAMPLELENGTH:15.999995;
#SELECTABLE:YES;
#BPMS:0.000=121.000,
252.000=103.710,
256.000=89.000,
258.000=77.000,
262.000=47.000,
263.000=27.840;
#STOPS:;
#DELAYS:;
#WARPS:;
#TIMESIGNATURES:0.000=4=4;
#TICKCOUNTS:0.000=4;
#COMBOS:0.000=1;
#SPEEDS:0.000=1.000=0.000=0;
#SCROLLS:0.000=1.000,
226.000=0.500,
228.000=1.000;
#FAKES:;
#LABELS:0.000=Song Start;
#BGCHANGES:4.000=Brazil.avi=1.000=0=0=1=====,
99999=-nosongbg-=1.000=0=0=0 // don't automatically add -songbackground-
;
#KEYSOUNDS:;
#ATTACKS:
;

//---------------dance-single - ----------------
#NOTEDATA:;
#CHARTNAME:;
#STEPSTYPE:dance-single;
#DESCRIPTION:;
#CHARTSTYLE:;
#DIFFICULTY:Beginner;
#METER:2;
#RADARVALUES:0.108476,0.139334,0.007372,0.000000,0.000000,103.000000,102.000000,1.000000,0.000000,0.000000,0.000000,0.000000,0.000000,0.000000,0.108476,0.139334,0.007372,0.000000,0.000000,103.000000,102.000000,1.000000,0.000000,0.000000,0.000000,0.000000,0.000000,0.000000;
#CREDIT:;
#NOTES:
0000
0000
0000
0000
,
0000
0000
0000
0000
,
0000
0000
0000
0000
,
0000
0000
0000
0000
,
0000
0000
0000
0000
,
1000
0000
1000
0000
,
0001
0000
0001
0000
,
0100
0000
0100
0000
,
0010
0000
0010
0000
,
1000
0000
1000
0000
,
0100
0000
0000
0000
,
0010
0000
0010
0000
,
0001
0000
0000
0000
,
0100
0000
0100
0000
,
0010
0000
0000
0000
,
0100
0000
0100
0000
,
0001
0000
0000
0000
,
1000
0000
0100
0000
,
0010
0000
0001
0000
,
0001
0000
0100
0000
,
0010
0000
1000
0000
,
0001
0000
0001
0000
,
1000
0000
1000
0000
,
0010
0000
0010
0000
,
0100
0000
0000
0000
,
0001
0000
0001
0000
,
0010
0000
0000
0000
,
0100
0000
0100
0000
,
1000
0000
0000
0000
,
0010
0000
0010
0000
,
0100
0000
0000
0000
,
0001
0000
0001
0000
,
1000
0000
0000
0000
,
0100
0000
0100
0000
,
1000
0000
1000
0000
,
0010
0000
0010
0000
,
0100
0000
0100
0000
,
0001
0000
0001
0000
,
1000
0000
1000
0000
,
0100
0000
0100
0000
,
0010
0000
0010
0000
,
0001
0000
0001
0000
,
0001
0000
0000
0000
,
0100
0000
0100
0000
,
0100
0000
0000
0000
,
0010
0000
0010
0000
,
0010
0000
0000
0000
,
1000
0000
1000
0000
,
1000
0000
0000
0000
,
0001
0000
0001
0000
,
0010
0000
0010
0000
,
0100
0000
0100
0000
,
1000
0000
1000
0000
,
0001
0000
0001
0000
,
1000
0000
1000
0000
,
0010
0000
0010
0000
,
1001
0000
0000
0000
,
1000
0000
1000
0000
,
0100
0000
0100
0000
,
0010
0000
0010
0000
,
0001
0000
0000
0000
,
0001
0000
0001
0000
,
0100
0000
0100
0000
,
0010
0000
0000
0000
;

//---------------dance-single - ----------------
#NOTEDATA:;
#CHARTNAME:;
#STEPSTYPE:dance-single;
#DESCRIPTION:;
#CHARTSTYLE:;
#DIFFICULTY:Easy;
#METER:5;
#RADARVALUES:0.205368,0.244204,0.088466,0.014744,0.000000,195.000000,183.000000,12.000000,2.000000,0.000000,0.000000,0.000000,0.000000,0.000000,0.205368,0.244204,0.088466,0.014744,0.000000,195.000000,183.000000,12.000000,2.000000,0.000000,0.000000,0.000000,0.000000,0.000000;
#CREDIT:;
#NOTES:
0000
0000
0000
0000
,
0000
0000
0000
0000
,
0000
0000
0000
0000
,
0000
0000
0000
0000
,
0000
0000
0000
0000
,
1000
1000
0100
0100
,
0010
0010
0001
0001
,
1000
1000
0010
0010
,
0100
0100
0001
0001
,
1000
0000
1000
0000
,
0100
0000
0100
0000
,
0010
0000
0010
0000
,
0001
0000
0001
0000
,
0100
0000
0100
0000
,
0010
0010
0100
0000
,
0001
0000
1000
0000
,
0001
1000
0001
0000
,
1000
0000
0100
0000
,
0010
0001
0100
0000
,
0001
0000
0001
0000
,
1000
0100
1000
0000
,
0010
0010
1000
0000
,
0100
0100
0010
0000
,
0001
1000
0001
0001
,
0100
0100
0001
0000
,
1000
0010
1000
0100
,
0010
0001
1000
0000
,
0001
0010
0001
0100
,
0010
1000
0001
0000
,
1000
0100
1100
0000
,
0001
0100
0101
0000
,
0001
0010
0100
1000
,
0010
0100
0001
0000
,
1000
0100
1000
1000
,
0001
0100
0001
0001
,
1000
0010
1000
1000
,
0001
0010
0001
0001
,
1000
0100
0010
0010
,
0001
0100
0010
0010
,
1000
0010
0100
0100
,
0001
0010
0100
0100
,
1000
1000
1000
0000
,
0001
0100
0010
0000
,
0100
0100
0100
0000
,
0001
0010
0100
0000
,
1000
0001
0101
0000
,
0001
1000
1100
0000
,
1000
0001
0010
0000
,
0001
0000
1001
0000
,
1000
1000
1000
0000
,
0010
1000
0100
0000
,
0010
0010
0010
0000
,
0001
0100
0010
0000
,
0100
0100
1001
0000
,
0010
0010
1001
0000
,
1000
0010
0100
0000
,
0110
0000
1001
0000
,
0001
0001
0010
0010
,
0100
0100
1000
0000
,
1000
1000
0010
0010
,
0100
0100
0001
0000
,
1000
0100
1100
0000
,
0001
0010
0011
0000
,
2002
0000
0000
0000
,
0000
0000
0000
0000
,
0000
0000
0000
0000
,
0000
3003
0000
0000
;

//---------------dance-single - ----------------
#NOTEDATA:;
#CHARTNAME:;
#STEPSTYPE:dance-single;
#DESCRIPTION:;
#CHARTSTYLE:;
#DIFFICULTY:Medium;
#METER:7;
#RADARVALUES:0.325429,0.366305,0.199049,0.095838,0.000000,309.000000,282.000000,27.000000,13.000000,0.000000,0.000000,0.000000,0.000000,0.000000,0.325429,0.366305,0.199049,0.095838,0.000000,309.000000,282.000000,27.000000,13.000000,0.000000,0.000000,0.000000,0.000000,0.000000;
#CREDIT:;
#NOTES:
0000
0000
0000
0000
,
0000
0000
0000
0000
,
0000
0000
0000
0000
,
0000
0000
0000
0000
,
0000
0000
0000
0000
,
1000
0100
0010
0001
,
1000
0000
0001
0100
0000
0010
0000
1000
,
0001
0010
0100
1000
,
0001
0000
1000
0010
0000
0100
0000
0001
,
1000
0000
0001
0010
0001
0000
1000
0000
,
0010
0000
1000
0100
1000
0000
0001
0000
,
0100
0000
0001
0010
0001
0000
1000
0000
,
0100
0000
1000
0010
1000
0000
0001
0010
,
0100
0000
1000
0010
0100
0000
0001
0000
,
1000
0100
0110
1001
,
0001
0100
0010
1000
,
0011
1100
0100
1001
,
0001
0000
1000
0100
1000
0000
0001
0000
,
0010
0000
0001
0100
0001
0000
1000
0000
,
0010
0000
0100
0100
0100
0000
0010
1000
,
0001
0000
0010
0010
0010
0000
0001
0000
,
1000
0100
0010
0000
0110
0000
0011
0000
,
0001
0100
0010
0000
0110
0000
1010
0000
,
1000
0100
0010
0001
,
1000
0001
1000
0000
0010
0000
1001
0000
,
1000
0100
1000
0100
0010
0000
0001
0000
,
0100
0100
0020
0030
,
0100
0000
0001
0000
0001
0000
0010
0100
,
0010
0001
0200
0300
,
0010
1000
0100
0010
0001
0000
0001
0000
,
0010
0100
1000
0010
0100
0000
0100
0000
,
0001
0101
1000
1100
,
0001
1000
0001
0000
1010
0000
0101
0000
,
0001
0010
0100
1000
,
0010
0100
0010
0000
0100
0001
0100
0000
,
0001
0010
0100
1000
,
0010
1000
0010
0000
1000
0100
1000
0000
,
0100
0000
0010
0000
0001
0100
0001
0000
,
1000
0010
1000
0000
0001
1000
0001
0000
,
1000
0000
0100
0000
0010
0100
0010
0000
,
0100
1000
0100
0000
1000
0010
1000
0000
,
0002
0010
0100
1003
,
2000
0010
0100
3001
,
1000
0100
2000
0000
0010
0000
3001
0000
,
0001
0100
0002
0000
0010
0000
1003
0000
,
0001
0010
0100
0000
1100
0000
0011
0000
,
1000
0010
0100
0000
0101
0000
1010
0000
,
1000
0100
0010
0001
,
1000
0010
0100
0002
0000
0000
1003
0000
,
0001
0101
1000
1100
,
0001
0100
0001
0100
0010
0000
0010
0000
,
1000
1010
0001
0011
,
1000
0100
1000
0100
0010
0000
0010
0000
,
0001
0001
0001
0000
1000
1000
1000
0000
,
0010
0101
0010
1100
,
0001
1000
0100
0000
1000
0001
0100
0000
,
0010
0010
0010
0000
0200
0000
0000
0000
,
0301
0010
0001
0010
0100
0000
1000
0000
,
0001
0001
0101
0000
,
1000
0000
1000
0000
0010
0000
1000
0100
,
1000
0001
0020
0030
,
0001
1000
0010
0000
0100
0000
0100
0000
,
0010
1000
0001
0000
0010
0000
0010
0000
,
0220
0000
0000
0000
,
0000
0000
0000
0000
,
0000
0000
0000
0000
0000
0000
0000
0330
,
2002
3003
0000
0000
;

//---------------dance-single - ----------------
#NOTEDATA:;
#CHARTNAME:;
#STEPSTYPE:dance-single;
#DESCRIPTION:;
#CHARTSTYLE:;
#DIFFICULTY:Hard;
#METER:12;
#RADARVALUES:0.416002,0.463987,0.147444,0.317004,0.070036,395.000000,375.000000,20.000000,43.000000,0.000000,0.000000,0.000000,0.000000,0.000000,0.416002,0.463987,0.147444,0.317004,0.070036,395.000000,375.000000,20.000000,43.000000,0.000000,0.000000,0.000000,0.000000,0.000000;
#CREDIT:;
#NOTES:
// measure 0
0000
0000
0000
0000
,  // measure 1
0000
0000
0000
0000
,  // measure 2
0000
0000
0000
0000
,  // measure 3
0000
0000
0000
0000
,  // measure 4
0000
0000
0000
0000
,  // measure 5
2000
0000
3100
0010
0002
0000
0103
0010
,  // measure 6
2000
0000
3100
0001
0100
1000
0010
1000
,  // measure 7
0002
0000
0103
0010
2000
0000
3100
0010
,  // measure 8
0002
0000
0103
1000
0100
0001
0001
0100
,  // measure 9
2000
0000
3100
0001
2000
0000
3001
0010
,  // measure 10
2000
0000
3001
0100
2000
0100
3100
0010
,  // measure 11
0002
0000
0103
1000
0002
0000
0013
1000
,  // measure 12
0002
0000
0013
1000
0002
0100
0103
1000
,  // measure 13
0020
0000
1030
0100
0020
0000
0031
0100
,  // measure 14
1000
0100
1000
0100
0001
0100
0001
0100
,  // measure 15
0020
0000
1030
0100
0020
0000
0031
0001
,  // measure 16
1000
0000
0001
0100
1000
0100
1000
0100
,  // measure 17
0001
0000
1000
0100
0010
0000
1100
0000
,  // measure 18
0001
0000
1000
0010
0100
0001
0001
0100
,  // measure 19
0001
0000
0000
0000
1000
0000
0100
0000
0010
0000
0000
0000
0001
1000
0001
0000
,  // measure 20
0100
0010
1000
0001
1000
0100
0010
0010
,  // measure 21
0001
0100
0010
0100
0010
0000
1000
0001
,  // measure 22
1000
0100
0000
0010
0000
0000
0200
0000
0000
0000
1300
0000
0010
0000
0100
0000
,  // measure 23
0010
1000
0001
0001
0010
0000
0001
1000
,  // measure 24
0010
0100
0000
0010
0000
0000
0010
0000
0100
0000
0001
0000
1000
0000
0000
0000
,  // measure 25
0001
0010
1000
0001
0100
1000
0100
0001
,  // measure 26
1000
0010
0001
0000
0011
0000
1100
0000
,  // measure 27
0001
0100
1000
0001
0010
1000
0010
0001
,  // measure 28
1000
0100
0001
0000
1010
0000
0101
0000
,  // measure 29
0001
0100
1000
0010
0002
0000
1003
0000
,  // measure 30
1000
0100
0001
0010
2000
0000
3001
0000
,  // measure 31
0010
0000
1100
0001
1000
0000
0101
1000
,  // measure 32
0001
0010
0100
1000
0001
0000
1001
0000
,  // measure 33
0001
0100
0001
0100
1000
0100
1000
0100
,  // measure 34
0001
0010
2000
0000
3010
0001
2000
0000
,  // measure 35
3001
0100
1000
0100
0001
0010
0001
0100
,  // measure 36
1000
0100
0002
0000
1003
0100
0002
0000
,  // measure 37
0203
0000
1300
0010
0001
0010
0001
0010
,  // measure 38
1000
0100
0001
0100
1000
0001
2000
0000
,  // measure 39
3001
0100
1000
0100
1000
0100
0001
0010
,  // measure 40
1000
0010
0001
0010
1000
0010
0002
0000
,  // measure 41
2003
0010
3002
0010
,  // measure 42
2003
0100
3001
0101
,  // measure 43
0002
0100
2003
0010
,  // measure 44
3002
0010
1003
1100
,  // measure 45
0002
0100
0010
1003
,  // measure 46
2000
0010
0100
3001
,  // measure 47
0001
1000
0100
0000
1000
0001
0100
0000
,  // measure 48
0001
0100
0010
0100
0001
0000
1001
0000
,  // measure 49
1000
0100
0000
0100
0010
0000
0001
0100
0000
0100
0010
0000
1000
0000
0000
0000
,  // measure 50
0001
0010
1000
0001
0100
0000
1000
0000
,  // measure 51
0001
0100
0001
0100
0010
0000
0100
0001
0000
0001
1000
0000
0001
0000
0000
0000
,  // measure 52
1000
0010
0001
1000
0100
0000
0001
0000
,  // measure 53
1000
0000
0100
0000
0000
1100
0000
0000
0001
0000
0100
0000
0000
0101
0000
0000
,  // measure 54
0001
0010
0100
1000
0010
0000
1001
0000
,  // measure 55
0001
1000
0001
1000
0100
0000
1000
0010
0000
0010
0100
0000
0001
0000
0000
0000
,  // measure 56
1000
0100
0010
0001
0200
0000
0000
0000
,  // measure 57
0301
0010
1000
0001
0100
1000
0100
0001
,  // measure 58
1000
0010
0001
0000
0011
0000
1100
0000
,  // measure 59
1000
0010
0001
1000
0100
0001
0100
1000
,  // measure 60
0001
0010
1000
0000
1010
0000
0101
0000
,  // measure 61
0001
0010
1000
0100
0002
0000
1003
0000
,  // measure 62
0001
0100
1000
0010
0002
0000
1003
0000
,  // measure 63
0220
0000
0000
0000
,  // measure 64
0000
0000
0000
0000
,  // measure 65
0000
0000
0000
0000
0000
0000
0000
0330
,  // measure 66
2002
3003
0000
0000
;
