#TITLE:Bop To The Top;
#SUBTITLE:(High School Musical);
#ARTIST:Sharpay & Ryan Evans;
#TITLETRANSLIT:;
#SUBTITLETRANSLIT:;
#ARTISTTRANSLIT:;
#GENRE:;
#CREDIT:Melody Love;
#MUSIC:Bop To The Top.ogg;
#BANNER:Bop To The Top.png;
#BACKGROUND:Bop To The Top-bg.png;
#JACKET:Bop To The Top-jacket.png;
#CDTITLE:;
#SAMPLESTART:45.177;
#SAMPLELENGTH:25.826;
#SELECTABLE:YES;
#OFFSET:-0.307;
#BPMS:0.000=115.000;
#STOPS:;
#BGCHANGES:-0.807=Bop To The Top.avi=1.000=1=0=0=StretchNoLoop==CrossFade==,
99999.000=-nosongbg-=1.000=0=0=0=StretchNoLoop====
;
#FGCHANGES:;

//--------------- dance-single - Melody Love ----------------
#NOTES:
     dance-single:
     Melody Love:
     Beginner:
     3:
     0,0,0,0,0:
0000
0000
0000
0000
,
0000
0000
0000
0000
,
0000
0000
0000
0000
,
0000
0000
0000
0000
,
1000
0000
0000
0000
,
0100
0000
0000
0000
,
0010
0000
0000
0000
,
0001
0000
0000
0000
,
1000
0000
1000
0000
,
0010
0000
0010
0000
,
0100
0000
0100
0000
,
0001
0000
0001
0000
,
0010
0000
0010
0000
,
0100
0000
0100
0000
,
1000
0000
1000
0000
,
0001
0000
1001
0000
,
0100
0100
0100
0000
,
0001
0000
1000
0000
,
0010
0010
0010
0000
,
1000
0000
0001
0000
,
0000
0000
0000
0000
,
0000
0000
0000
0000
,
1001
0000
1001
0000
,
0010
0000
0100
0000
,
0110
0000
0110
0000
,
0001
0000
1000
0000
,
1001
0000
1001
0000
,
0100
0000
0010
0000
,
1000
1000
1000
0000
,
0001
0001
0001
0000
,
0100
0000
0010
0000
,
1000
0000
1000
0000
,
0010
0000
0100
0000
,
0001
0000
0001
0000
,
1000
0000
0100
0000
,
0010
0000
0001
0000
,
0010
0000
0100
0000
,
1000
0000
0001
0000
,
0000
0000
0000
0000
,
1001
0000
1001
0000
,
0100
0000
0010
0000
,
0110
0000
0000
0110
,
0001
0000
1000
0000
,
1001
0000
1001
0000
,
0010
0000
0100
0000
,
0001
0001
0001
0000
,
1000
1000
1000
0000
,
0010
0010
0010
0000
,
0200
0000
0000
0300
,
0010
0000
0000
0110
;

//--------------- dance-single - Melody Love ----------------
#NOTES:
     dance-single:
     Melody Love:
     Easy:
     6:
     0,0,0,0,0:
0000
0000
0000
0000
,
0000
0000
0000
0000
,
0000
0000
0000
0000
,
0000
0000
0000
0000
,
1001
0000
0000
0000
0100
0000
0100
0010
,
0100
0000
0000
0000
0001
0000
1000
0001
,
1000
0000
0000
0000
0100
0000
0010
0100
,
0010
0000
0001
1000
,
0110
0100
0010
1000
,
0010
0000
0100
0010
1000
0000
0000
0000
,
0100
0010
0001
0010
,
0100
0000
0010
0001
0100
0000
0000
0000
,
1001
0100
0010
1000
,
0100
0000
0010
0100
2000
0000
0010
0000
,
3001
0100
0001
0010
,
0200
0000
0000
0310
0000
0000
0000
0000
,
0100
0100
1000
1000
,
0001
1000
0010
0100
,
0001
0001
0010
0010
,
0100
0010
0100
1000
,
0002
0003
0001
1001
,
2000
3000
1000
1001
,
0010
0010
0010
0000
0100
0100
0100
0000
,
0001
0010
0100
1000
,
0001
0001
0001
0000
1000
1000
1000
0000
,
0020
0000
0230
0000
,
0301
0001
0001
0000
0100
0100
0100
0000
,
0010
1000
0001
0100
,
0001
0001
1000
1000
,
0020
0000
0000
0130
,
0110
0000
0001
0000
,
0010
0000
0100
0000
,
0110
0000
1000
0000
,
0001
0001
1000
1000
,
0010
0010
0100
0100
,
0001
1000
0100
0010
,
0001
0001
0010
0010
,
0110
0000
0000
0000
,
0000
0000
0001
1000
,
0100
0100
0100
0000
0010
0010
0010
0000
,
0001
0100
0010
1000
,
0100
0100
0100
0000
0000
0000
0010
0000
,
0200
0000
0320
0000
,
0031
0001
0001
0000
0010
0010
0010
0000
,
0100
1000
0001
0000
,
1000
1000
0001
0001
,
0200
0000
0320
0000
,
2030
0000
3002
1003
,
2002
0000
0000
3003
,
0001
1000
0100
0110
;

//--------------- dance-single - Melody Love ----------------
#NOTES:
     dance-single:
     Melody Love:
     Medium:
     9:
     0,0,0,0,0:
0000
0000
0000
0000
,
0000
0000
0000
0000
,
0000
0000
0000
0000
,
0000
0000
0000
0000
,
1001
0000
0000
0100
0000
0010
0000
1000
0000
0000
0000
0000
0100
0000
0000
0000
,
1001
0000
0000
0010
0000
0100
0000
0001
0000
0000
0000
0000
0010
0000
0000
0000
,
0101
0000
0000
0100
0000
0010
0000
1000
0000
0000
0000
0000
0100
0000
0000
0000
,
1010
0000
0000
0010
0000
0100
0000
0001
0000
0001
0000
0000
0101
0000
0000
0000
,
1200
0000
0000
1300
0000
0100
0000
0010
0000
0000
0100
0000
1000
0000
0010
0000
,
0100
0000
0000
0010
0000
1000
0000
0020
0000
0000
0000
0000
0130
0000
0001
0000
,
0001
0000
0000
0010
0000
0100
0000
0010
0000
0000
0001
0000
0001
0000
0100
0000
,
0020
0000
0000
0230
0000
0000
0320
0000
0000
0130
0000
0000
0110
0000
0000
0000
,
1020
0000
0000
0130
0000
0010
0000
1000
0000
0000
0100
0000
0010
0000
0100
0000
,
1000
0000
0000
0010
0000
0100
0000
2000
0000
0000
0100
0000
0100
3000
0100
0000
,
0001
0000
0000
0010
0000
0001
0000
0100
0000
0000
0010
0000
0000
0000
0100
0000
,
0101
0000
0000
1001
0000
0000
1010
0000
0000
0000
0000
0000
0100
0000
0010
0000
,
2000
0000
0100
3000
0020
0000
0130
0000
,
0100
0000
0100
0000
0001
0000
0001
0000
1000
0000
1000
0000
0010
1000
0010
0000
,
2000
0000
0100
3000
0002
0000
0010
0003
,
0100
0000
0100
0000
0010
0000
0000
0220
0000
0000
0000
0000
0000
0000
0330
0000
,
0100
0000
0000
0100
0000
0000
0001
1000
0000
0000
0010
0000
0010
0000
0100
0000
,
0001
0100
0000
0001
1000
0000
0010
1000
0000
0200
0000
0000
0020
0000
0330
0000
,
0110
0000
1001
0000
0110
0000
0000
0001
0000
1000
0000
0000
1001
0000
0000
0000
,
0001
0010
0000
0001
0000
0010
0000
0100
0000
0100
0000
1000
0000
1000
0000
0000
,
1100
0000
0010
0000
0001
0000
0000
0001
0000
0010
0000
0000
1100
0000
0000
0000
,
2000
0000
0010
3000
0002
0000
0013
0000
,
0110
0000
1001
0000
0110
0000
0000
1000
0000
0001
0000
0000
1001
0000
0000
0000
,
1000
0100
0000
1000
0000
0100
0000
0020
0000
0000
0000
0000
0031
0000
0000
0000
,
1000
0100
0001
0000
0001
0100
1000
0000
,
1000
0010
0001
0000
0001
0010
1000
0000
,
1100
0000
0000
0000
0010
0000
0000
0011
0000
0020
0000
0000
0031
0000
0000
0000
,
0101
0000
0000
0000
0010
0000
0000
1020
0000
0000
1000
0000
1000
0000
1030
0000
,
1100
0000
0000
0000
0010
0000
0000
0011
0000
0002
0000
0000
0013
0000
0000
0000
,
0000
0000
0100
1000
0100
0000
0000
0000
0000
0000
0010
0001
0010
0000
0000
0000
,
0200
0000
1000
0300
0020
0000
0031
0000
,
0010
0010
0100
0100
1000
0001
1000
0001
,
0200
0000
0010
0300
0002
0000
0013
0000
,
1100
0000
1000
0100
1000
0000
0000
0000
0000
0000
0001
0100
0001
0000
0000
0000
,
1000
0000
0001
0000
0100
0000
0010
0100
0000
0020
0000
0000
0200
0000
0330
0000
,
1001
0000
0110
0000
1001
0000
0000
0100
0000
0010
0000
0000
1001
0000
0000
0000
,
1000
0010
0000
1000
0000
0010
0000
0100
0000
0100
0000
0001
0000
0001
0000
0000
,
0101
0000
0101
0000
0101
0000
0000
0000
0000
2000
0000
0000
3010
0000
0000
0000
,
0200
0000
0001
0300
0020
0000
1030
0000
,
1001
0000
0110
0000
1001
0000
0000
0010
0000
0100
0000
0000
1001
0000
0000
0000
,
0001
0010
0000
0001
0000
0010
0000
0200
0000
0000
0000
0000
1300
0000
0000
0000
,
0100
0010
0001
0010
0100
1000
0100
0010
,
2002
3000
0010
0000
0200
0003
0010
0000
,
0002
0000
0300
0000
0013
0000
0000
0000
0000
0100
0000
0000
1000
0000
0001
0000
,
2002
0000
0000
0000
0000
0000
0000
0000
3003
0000
0000
0010
0100
0000
0000
0000
,
1010
0000
0000
0000
0101
0000
0000
1001
0000
0000
0000
0100
0010
0000
0000
0000
;

//--------------- dance-single - Melody Love ----------------
#NOTES:
     dance-single:
     Melody Love:
     Hard:
     13:
     0,0,0,0,0:
0000
0000
0000
0000
,
0000
0000
0000
0000
,
0000
0000
0000
0000
,
0000
0000
0000
0000
,
1001
0000
0000
0100
0000
0001
0000
1000
0000
0010
0000
0010
0100
0000
0001
0000
,
0010
0000
0000
0011
0000
0010
0100
0010
0100
0010
0100
0010
0100
0000
0110
0000
,
1100
0000
1000
0100
0000
0001
0000
0100
0000
1000
0000
0010
0001
0000
0010
0000
,
1000
0000
0001
1000
0001
1000
0000
0100
0000
0110
0000
0000
0101
0000
0000
0000
,
1200
0000
0310
0100
0000
1000
0000
0010
0000
0100
0000
1000
0100
0000
0010
0000
,
1000
0100
0000
0010
0000
0100
0000
0020
0000
0000
1000
0000
0100
0000
0031
0000
,
0010
0000
0001
0100
0000
0010
0000
0100
0000
0001
0020
0000
0000
0030
0000
0100
,
0010
0000
0010
0001
0000
0010
0001
0000
0000
0011
0000
0000
0110
0000
0000
0000
,
2100
0000
3010
0100
0000
1000
0000
0100
0000
0010
0000
1000
0100
0000
0010
0000
,
0100
0000
1000
0010
0000
0100
0000
0020
0000
1030
0010
1000
0100
1000
0010
1000
,
0001
0100
0000
0001
0000
0010
0000
0001
0000
0100
0020
0000
0000
0030
0100
0000
,
0101
0000
0100
0010
0000
0010
1010
0000
0000
0000
0000
0010
0100
0000
0001
0000
,
0010
1000
0001
0000
0001
0100
1000
0000
,
1000
1000
0000
0001
0000
1000
0001
1000
0000
1000
0000
0001
1000
0001
0001
0000
,
0100
1000
0001
0000
0001
0010
1000
0000
,
1000
0000
0010
0000
0100
0000
0001
2000
0000
0010
3000
0000
1010
0000
0000
1000
,
0010
0000
0100
0001
0000
0100
0010
1000
0000
0010
0000
0100
0001
0000
0010
0001
,
0100
0100
0000
0010
0010
0000
1000
1000
0000
0001
0000
0100
0010
0000
1000
0000
,
1100
0000
0101
0000
1100
0000
0000
0011
0000
1010
0000
0000
0011
0000
0000
0000
,
0010
0100
0000
0001
0000
1000
0000
0100
0000
0010
0000
1000
0000
0001
0000
0000
,
1010
0000
0011
0000
1010
0000
0000
0101
0000
1100
0000
0000
0101
0000
0000
0000
,
2000
0000
0010
3000
0002
0000
0013
0000
,
1100
0000
0011
0000
1100
0000
0000
0101
0000
1010
0000
0000
0101
0000
0000
0000
,
0100
0010
0000
0001
0000
1000
0000
0010
0000
0100
0000
0000
1000
0001
0000
0000
,
0100
0000
0001
0000
0010
0000
0001
0100
0000
0020
0000
0000
1030
0000
0100
0000
,
1000
0000
0010
0000
0100
0000
0001
0100
0000
0020
0000
0000
0130
0000
1001
0000
,
0110
0000
0000
0000
0100
0000
0010
0100
0000
0101
0000
0000
1100
0000
0000
0000
,
0110
0000
0000
0000
0100
0000
1000
0001
0000
1000
0001
1000
0001
1000
0001
0000
,
0110
0000
0000
0000
0100
0000
0010
0100
0000
1100
0000
0000
0101
0000
0000
0000
,
0000
0000
1000
0100
1000
0100
0000
0000
0M00
0000
0001
0100
0001
0100
0000
0000
,
1M00
0000
0100
0000
1000
0000
0010
0100
0000
0010
0100
0000
0100
0000
0001
0000
,
1000
0000
0100
0000
0001
0000
0010
0000
1000
0000
0001
1000
0001
1000
0001
0000
,
0100
0000
0000
0100
1000
0000
0100
0001
0000
0010
0000
1000
0000
0010
0001
0000
,
0101
0000
0001
0100
0001
0010
0000
0000
00M0
0000
1000
0100
1000
0010
0000
0010
,
1000
0001
0100
0001
0010
0000
0100
1000
0000
0010
0000
0100
0001
0000
1000
0000
,
0011
0000
0101
0000
0011
0000
0000
1010
0000
1100
0000
0000
1010
0000
0000
0000
,
0001
0010
0000
0100
0000
0001
0000
1000
0000
0100
0000
0010
0000
1000
0000
0000
,
1100
0000
0011
0000
1100
0000
0000
0000
0000
0010
0000
0100
0001
0000
0000
0000
,
0200
0000
1000
0300
0020
0000
0031
0000
,
1010
0000
0011
0000
1010
0000
0000
0101
0000
1100
0000
0000
0101
0000
0000
0000
,
1000
0100
0000
0010
0000
1000
0000
0001
0000
0010
0000
0000
0100
0001
0000
0000
,
0010
0000
0100
0000
1000
0000
0100
0010
0000
0001
0000
0001
0010
0000
0100
0000
,
2002
0000
3000
0003
1000
0001
0000
0100
0020
0000
0000
0030
0100
0010
0000
0000
,
1000
0001
1000
0000
0100
0001
0000
0100
0000
1000
0000
0010
0100
0000
0001
0000
,
2010
0000
0000
0000
3020
0000
0000
0200
0030
0000
0000
0301
1000
0000
0001
1000
,
1001
0000
0000
0000
1001
0000
0100
0010
0000
0000
0000
0110
0110
0000
0000
0000
;

//--------------- dance-single - Melody SHOCK ----------------
#NOTES:
     dance-single:
     Melody SHOCK:
     Challenge:
     12:
     0,0,0,0,0:
0000
0000
0000
0000
,
0000
0000
0000
0000
,
0000
0000
0000
0000
,
0000
0000
0000
0000
,
1001
0000
0000
0001
0000
1000
0000
0010
0000
0000
0000
0000
MMMM
0000
0000
0000
,
1001
0000
0000
0000
0000
0000
0100
0000
0000
0000
0040
0000
0400
0000
0000
0000
0000
0000
0000
0000
0000
0000
0030
0000
0300
M00M
M00M
M00M
M00M
0000
0000
0000
,
0110
0000
0000
1000
0000
0001
0000
0100
0000
0000
0000
0000
MMMM
0000
0000
0000
,
0110
0000
0000
0100
0000
0010
0000
1000
0000
0001
0000
0000
MMMM
0000
0000
0000
,
1000
0000
0000
0100
0000
MMMM
0000
0010
0000
0000
0000
0000
MMMM
0000
0100
0000
,
1000
0000
0000
0100
0000
MMMM
0000
0010
0000
0000
0400
0000
0010
0000
0301
0000
,
0001
0000
0000
0100
0000
MMMM
0000
0010
0000
0000
0000
0000
MMMM
0000
0100
0000
,
0001
0000
0000
1000
0000
0000
0002
0000
0000
0013
0000
0000
MMMM
0000
0000
0000
,
2100
0000
0000
3010
0000
MMMM
0000
0100
0000
0000
0000
0000
MMMM
0000
0010
0000
,
1000
0000
0000
0010
0000
MMMM
0000
0100
0000
0000
0400
0000
0010
0000
1300
0000
,
0001
0000
0000
0010
0000
MMMM
0000
0100
0000
0000
0010
0000
0000
0000
0100
0000
,
1001
0000
0000
MMMM
0000
0000
0110
0000
0000
0000
0000
0001
1000
0000
0000
0000
,
1000
0100
0001
0100
1000
0010
0001
0010
,
1000
0000
0000
0000
MMMM
000M
00M0
0M00
0000
000M
0000
M000
0M00
00M0
M000
0000
,
0001
0100
1000
0100
0001
0010
1000
0010
,
0002
2003
3020
M030
,
0010
0100
0000
0010
0200
0000
0000
0000
M3MM
0000
0000
0000
MMMM
0000
0000
0000
,
0001
1000
0000
0001
2000
0000
0000
0000
3MMM
0000
0000
0000
MMMM
0000
0000
0000
,
1001
0110
1001
0000
1001
0000
MMMM
0000
,
0010
MMMM
1000
MMMM
0100
MMMM
0001
MMMM
,
0010
0100
0010
0000
1000
0000
MMMM
0000
,
2000
3000
0000
MMMM
0000
0000
0002
0003
0000
MMMM
0000
0000
,
0110
1001
0110
0000
0110
0000
MMMM
0000
,
0010
MMMM
0001
MMMM
0100
MMMM
1000
MMMM
,
0010
0100
0010
00M0
0100
0000
MMMM
0000
,
2002
0000
3003
MMMM
,
1001
0000
0000
0000
MMMM
0000
0000
0020
0000
0030
0000
0000
MMMM
0000
0000
0000
,
0110
0000
0000
0000
MMMM
0000
0000
0200
0000
0300
0000
0000
MMMM
0000
0000
0000
,
1001
0000
0000
0000
MMMM
0000
0000
0020
0000
0030
0000
0000
MMMM
0000
0000
0000
,
0100
0001
0M00
000M
1000
0100
M000
0M00
,
1000
0001
1000
0001
0010
0100
0010
0100
,
4000
3400
0304
0043
,
1030
0000
0000
0010
0000
0000
MMMM
0000
0001
0000
0000
0100
0000
0000
MMMM
0000
,
1000
0000
0001
0100
0000
MMMM
0000
0000
0000
0000
1000
0100
0000
MMMM
0000
0000
,
0001
0100
0002
0000
0103
0000
MMMM
0000
,
1010
0110
1010
0000
1001
0000
MMMM
0000
,
0010
MMMM
1000
MMMM
0100
MMMM
0001
MMMM
,
0010
0100
0020
0000
0030
0000
M1MM
0000
,
0200
0300
0000
MMMM
0000
0000
0020
0030
0000
MMMM
0000
0000
,
0011
0110
0011
0000
0110
0000
MMMM
0000
,
0010
MMMM
0001
MMMM
0100
MMMM
1000
MMMM
,
0010
0100
0010
00M0
0100
0000
MMMM
0000
,
2002
0000
3003
MMMM
0220
0000
0330
MMMM
,
2200
0000
3300
MMMM
0202
0000
0303
MMMM
,
0110
0000
0000
0000
1010
0000
0000
0011
0000
0000
0000
0M0M
M0M0
0000
0000
0000
,
1001
0000
0000
0000
MMMM
0000
0000
0110
0000
0000
0000
00MM
MM00
0000
0000
0000
;
