#VERSION:0.83;
#TITLE:Boomy and The Boost;
#SUBTITLE:;
#ARTIST:Eagle;
#TITLETRANSLIT:;
#SUBTITLETRANSLIT:;
#ARTISTTRANSLIT:;
#GENRE:Neo Jungle;
#ORIGIN:;
#CREDIT:;
#BANNER:Boomy and The Boost.png;
#BACKGROUND:Boomy and The Boost-bg.png;
#PREVIEWVID:;
#JACKET:Boomy and The Boost-jacket.png;
#CDIMAGE:;
#DISCIMAGE:;
#LYRICSPATH:;
#CDTITLE:cdtitle.png;
#MUSIC:Boomy and The Boost.ogg;
#OFFSET:-1.879030;
#SAMPLESTART:34.982475;
#SAMPLELENGTH:11.034481;
#SELECTABLE:YES;
#BPMS:0.000=174.000;
#STOPS:;
#DELAYS:;
#WARPS:;
#TIMESIGNATURES:0.000=4=4;
#TICKCOUNTS:0.000=4;
#COMBOS:0.000=1;
#SPEEDS:0.000=1.000=0.000=0;
#SCROLLS:0.000=1.000;
#FAKES:;
#LABELS:0.000=Song Start;
#BGCHANGES:;
#KEYSOUNDS:;
#ATTACKS:
;

//---------------dance-single - ----------------
#NOTEDATA:;
#CHARTNAME:;
#STEPSTYPE:dance-single;
#DESCRIPTION:;
#CHARTSTYLE:;
#DIFFICULTY:Challenge;
#METER:15;
#RADARVALUES:0.707853,0.856991,0.467450,0.973854,0.436287,636.000000,576.000000,60.000000,125.000000,0.000000,0.000000,0.000000,0.000000,0.000000,0.707853,0.856991,0.467450,0.973854,0.436287,636.000000,576.000000,60.000000,125.000000,0.000000,0.000000,0.000000,0.000000,0.000000;
#CREDIT:;
#NOTES:
0000
0000
0000
0000
,
0000
0000
0000
0000
,
0000
0000
0000
0000
,
0000
0000
0000
0000
0000
0000
0000
0000
0000
0000
0000
0000
0000
0000
0001
0010
,
0001
0010
0001
2000
0000
0000
3000
0000
,
0001
0000
1000
0000
0001
0000
0200
0000
0000
0000
0000
0000
0300
0000
0001
0100
,
0001
0100
0001
0020
0000
0000
0030
0000
,
0001
0000
1000
0000
0010
0000
1000
0000
0100
0000
1000
0000
0001
0000
1000
0010
,
1000
0010
0100
0020
0100
0000
1030
0000
,
1000
0000
0100
0000
0010
0000
0200
0000
0010
0000
0000
0000
1300
0000
0010
1000
,
0010
0100
0010
2000
0001
0000
3100
0010
,
0100
0000
0000
0000
1001
0000
0000
0000
1000
0000
0010
0000
0100
0000
0001
0010
,
0001
0010
0100
0020
0100
0000
0031
0000
,
0001
0000
0100
0000
0010
0000
0200
0000
0010
0000
0000
0000
0301
0000
0010
0001
,
0010
0100
0010
0002
1000
0000
0103
0010
,
1000
0001
0010
0001
0100
0001
1000
0000
,
1002
0000
0000
0000
0023
0000
0000
0000
0230
0000
0000
0302
0000
0000
0203
0000
,
0000
0000
0320
0000
0032
0000
0000
0000
0013
0000
0000
0110
0000
0000
0011
0000
,
2001
0000
0000
0000
3020
0000
0000
0000
0230
0000
0000
2300
0000
0000
3200
0000
,
0000
0000
0320
0000
2030
0000
0000
0000
3010
0000
0000
0110
0000
0000
1010
0000
,
1001
0000
0000
0000
0011
0000
0000
0000
1010
0000
0000
1100
0000
0000
0101
0000
,
0000
0000
1001
0000
1001
0000
0000
0000
0011
0000
0000
1100
0000
0000
1010
0000
,
0102
0000
0000
0000
1000
0000
0000
0000
0010
0000
0000
0013
0100
0000
0010
0000
,
0012
2000
3003
2010
0002
0000
3003
0000
,
1002
0000
0000
0000
0010
0000
2003
0000
0000
0000
3100
0000
0010
0100
0010
0000
,
0200
0000
0001
0320
0000
0031
1000
0001
,
2001
0000
0000
0000
0010
0000
3002
0000
0000
0000
0103
0000
0010
0100
0010
0000
,
0200
0000
1000
0010
0000
0001
0302
0000
,
2003
3000
0200
0300
0002
0003
0200
0300
2000
3000
0001
0000
1000
0001
1000
0000
,
0020
0000
0100
0130
0000
0010
0100
0001
,
0011
0000
0000
0000
0110
0000
0000
0000
2100
0000
0000
0001
0000
0000
3010
0000
,
0000
1010
0110
0000
0102
0000
2003
0000
,
3200
0000
0000
0000
0310
0100
0020
0000
0000
0000
1000
0000
0000
0100
0000
0000
,
0031
0000
0000
0000
0012
0000
1000
0000
0000
0103
0001
0000
0100
0000
0001
0000
,
0200
0000
0000
0000
0310
0100
0020
0000
0000
0000
0001
0000
0000
0100
0000
0000
,
1030
0000
0000
1010
0000
0000
2010
0000
0000
0001
0000
0000
0010
0000
0010
0000
,
3002
0003
0020
0030
2000
3000
0020
0030
0002
0003
1000
0000
0001
1000
0001
0000
,
0100
0000
0000
0000
2001
0000
0010
0000
0000
3001
0010
0000
0100
0000
1000
0000
,
0002
0000
0000
0000
,
0010
0000
0000
0000
1000
0000
0000
0000
0100
0000
0000
0100
0000
0000
0103
0000
,
1002
0000
0000
0000
0023
0000
0000
0100
0000
0000
0032
0000
0000
1000
0000
0000
,
0203
0000
0000
0010
0000
0000
0301
0000
0000
0011
0000
0000
1000
0001
1000
0001
,
2000
0000
0000
0000
3020
0000
0000
0100
0000
0000
2030
0000
0000
0001
0000
0000
,
3200
0000
0000
0010
0000
0000
1300
0000
0000
1010
0000
0000
0001
1000
0001
0000
,
0020
0000
0000
0000
0230
0000
0000
0310
0000
0000
0012
0000
0000
0103
0000
0000
,
2010
0000
0000
3100
0000
0000
0012
0000
0000
0103
0000
0000
0001
1000
0001
1000
,
0002
0000
0000
0000
2003
0000
0000
3020
0000
0000
0032
0000
0000
0023
0000
0000
,
2030
3200
0302
0203
,
1300
0001
2000
0000
0000
0010
3002
0000
,
0103
0010
0100
1000
0000
0100
0010
0100
,
0002
0000
0003
0101
0000
0101
0000
0000
,
2000
0000
3000
1100
0000
1000
0010
0100
,
0001
1000
0002
0000
0000
0010
2003
0000
,
3100
0010
0100
0001
0000
0100
0010
0100
,
2000
0000
3000
1010
0000
1010
0000
0000
,
0002
0000
0003
0011
0000
0001
0010
0100
,
1000
0001
1000
0001
0100
0020
0001
0000
,
0130
0010
1000
0001
1000
0100
0010
0200
,
0001
0000
1300
1000
0001
0100
0001
0200
,
1000
0000
0301
0001
0100
0010
0010
1000
,
0001
1000
0001
1000
0100
0020
1000
0000
,
0130
0010
0001
1000
0001
0100
0010
0200
,
1000
0000
0310
0010
1000
0100
0010
0200
,
0001
0000
0310
0010
0001
0100
0010
1000
,
1010
0000
0000
0000
0011
0000
0000
0000
0101
0000
0000
1000
0100
0000
1000
0000
,
0010
0000
1000
0000
1100
0000
0000
0000
0101
0000
0000
0001
1000
0000
0001
0000
,
0011
0000
0000
0000
1010
0000
0000
0000
1100
0000
0000
0001
0100
0000
0001
0000
,
0010
0000
0001
0000
0101
0000
0000
0000
1100
0000
0000
1000
0001
0000
1000
0000
,
0010
0100
0010
0100
0001
0100
1000
0100
,
0001
0010
0100
1000
0001
0100
0010
1000
,
0200
0000
0000
0000
0320
0000
0000
0000
0032
0000
0000
2003
0000
0000
3001
0000
,
0102
0000
2000
0000
3003
0000
2100
0000
0002
0000
3003
0000
1000
0000
0001
1000
,
0002
0003
0000
0000
0000
0000
0000
0000
1000
0000
0001
0000
0010
0000
0002
0000
0000
0000
0000
0000
1003
0000
0001
0000
0100
0000
0002
0000
0000
0000
0000
0000
,
1003
0001
0010
0002
0000
0000
1003
0010
1000
0010
1000
0000
0010
1000
0001
1000
,
0100
0000
0000
0000
1000
0100
1000
0100
0010
0000
0100
0010
0002
0000
1000
0000
,
0103
0000
0001
0100
0001
0100
0010
0000
0100
0000
0001
1000
0200
0000
0010
0000
,
2300
3000
0000
0000
0000
0000
0000
0000
0001
0000
1000
0000
0010
0000
2000
0000
0000
0000
0000
0000
3001
0000
1000
0000
0100
0000
2000
0000
0000
0000
0000
0000
,
3001
1000
0010
2000
0000
0000
3001
0010
0001
0010
0001
0000
0010
0001
1000
0001
,
0100
0000
0000
0000
0001
0100
0001
0100
0010
0000
0100
0010
2000
0000
0001
0000
,
3100
0000
1000
0100
1000
0100
0010
0000
0100
0000
1000
0001
0100
0000
0010
0100
,
0020
0030
0000
0000
0000
0000
0000
0000
1000
0000
0010
0000
1000
0000
0200
0000
0000
0000
0300
0000
0100
0000
1000
0000
0010
0000
2000
0000
0000
0000
3000
0000
,
0001
0010
0001
0200
0000
0300
0100
0001
1000
0001
0010
0000
0100
1000
0001
1000
,
0010
0000
0000
0000
0100
0001
0100
0001
1000
0000
0001
0010
0200
0000
0010
0000
,
1300
0000
0100
1000
0100
1000
0001
0000
1000
0000
1000
0010
0200
0000
0010
0000
,
0302
0003
0000
0000
0000
0000
0000
0000
0001
0000
0100
0000
0001
0000
0020
0000
0000
0000
0030
0000
0010
0000
0001
0000
1000
0000
0020
0000
0000
0000
0030
0000
,
1000
0010
1000
0200
0000
0300
1000
0001
0100
0010
1000
0000
0001
1000
0100
0010
,
0001
0000
0100
0000
0010
0000
0100
0000
1010
0000
0000
1001
0000
0000
0011
0000
,
0220
0000
0000
0000
,
0330
0000
0000
0000
;

//---------------dance-single - ----------------
#NOTEDATA:;
#CHARTNAME:;
#STEPSTYPE:dance-single;
#DESCRIPTION:;
#CHARTSTYLE:;
#DIFFICULTY:Hard;
#METER:13;
#RADARVALUES:0.520873,0.617034,0.241516,0.864782,0.194771,468.000000,437.000000,31.000000,111.000000,0.000000,0.000000,0.000000,0.000000,0.000000,0.520873,0.617034,0.241516,0.864782,0.194771,468.000000,437.000000,31.000000,111.000000,0.000000,0.000000,0.000000,0.000000,0.000000;
#CREDIT:;
#NOTES:
// measure 0
0000
0000
0000
0000
,  // measure 1
0000
0000
0000
0000
,  // measure 2
0000
0000
0000
0000
,  // measure 3
0000
0000
0000
0000
,  // measure 4
0002
0000
0010
0000
,  // measure 5
2003
0000
0100
0000
,  // measure 6
3002
0000
0100
0000
,  // measure 7
1003
0010
0100
0001
,  // measure 8
1000
0000
0100
0010
0000
0010
0100
0000
,  // measure 9
0001
0000
0100
0010
0000
0010
0100
0000
,  // measure 10
1000
0000
0001
0100
0000
0010
1000
0000
,  // measure 11
0001
0000
1000
0100
0010
0100
1000
0000
,  // measure 12
0001
0000
0100
0010
0000
0010
0100
0000
,  // measure 13
1000
0000
0100
0010
0000
0010
0100
0000
,  // measure 14
0001
0000
1000
0100
0000
0010
0001
1000
,  // measure 15
0010
0000
0100
0000
0001
1000
0100
0010
,  // measure 16
0002
0000
0000
0000
0203
0000
0000
0000
0010
0000
0000
0010
0000
0000
0010
0000
,  // measure 17
0000
0000
0302
0000
0203
0000
0000
0000
0010
0000
0000
0010
0000
0000
0310
0000
,  // measure 18
2000
0000
0000
0000
3200
0000
0000
0000
0010
0000
0000
0010
0000
0000
0010
0000
,  // measure 19
0000
0000
2300
0000
3200
0000
0000
0000
0010
0000
0000
0010
0000
0000
0310
0000
,  // measure 20
0001
0000
0000
0000
0011
0000
0000
0000
1000
0000
0000
0010
0000
0000
0100
0000
,  // measure 21
0000
0000
0010
0000
1010
0000
0000
0000
0001
0000
0000
0010
0000
0000
0100
0000
,  // measure 22
2000
0000
0000
0000
0100
0000
0000
0000
0001
0000
0000
0001
0000
0000
3010
0000
,  // measure 23
2000
0010
0000
3002
0010
0000
0003
0000
,  // measure 24
1001
0000
0002
0000
0100
0203
0000
0010
,  // measure 25
0320
0000
0100
0100
0000
1030
0010
1000
,  // measure 26
0001
0000
2000
0000
0100
3200
0000
0010
,  // measure 27
0320
0000
0100
0100
0000
0031
0200
0000
,  // measure 28
0320
0030
2000
3000
0002
0003
2000
3000
0100
0000
0200
0000
0000
0000
0010
0000
,  // measure 29
0320
0000
0130
1000
0001
1000
0010
0000
,  // measure 30
2010
0000
0000
0000
0001
0000
0000
0000
0100
0000
0000
0100
0000
0000
3100
0000
,  // measure 31
0000
0012
1000
0000
0200
0000
0303
0000
,  // measure 32
0001
0010
0200
0000
0010
0010
0000
0010
,  // measure 33
2300
0000
3001
0010
0001
1000
0010
0000
,  // measure 34
1000
0010
0200
0000
0010
0010
0000
0010
,  // measure 35
0302
0000
0000
2003
0000
0000
0200
0000
0000
3000
0000
0000
0300
0000
0000
0000
,  // measure 36
0020
0030
0002
0003
2000
3000
0002
0003
0100
0000
0200
0000
0000
0000
0010
0000
,  // measure 37
0320
0000
0130
0001
1000
0001
0010
0000
,  // measure 38
0200
0000
0000
0000
,  // measure 39
0001
0000
0000
0000
0010
0000
0000
0000
1000
0000
0000
1000
0000
0000
1000
0000
,  // measure 40
1300
0000
0000
0000
0002
0000
0000
0103
0000
0000
0002
0000
0000
0103
0000
0000
,  // measure 41
0002
0000
0000
1003
0000
0000
0002
0000
0000
0013
0000
0000
0100
0000
0010
0000
,  // measure 42
0100
0000
0000
0000
2000
0000
0000
3100
0000
0000
2000
0000
0000
3100
0000
0000
,  // measure 43
2000
0000
0000
3001
0000
0000
2000
0000
0000
3010
0000
0000
0100
0000
0010
0000
,  // measure 44
0100
0000
0000
0000
0002
0000
0000
0103
0000
0000
0002
0000
0000
1003
0000
0000
,  // measure 45
0200
0000
0000
1300
0000
0000
0002
0000
0000
0103
0000
0000
0001
0000
1000
0000
,  // measure 46
0100
0000
0000
0000
0020
0000
0000
0032
0000
0000
0203
0000
0000
0320
0000
0000
,  // measure 47
2030
3002
0023
0230
,  // measure 48
2300
0000
0010
0000
0000
0001
0001
0000
,  // measure 49
3100
0000
0010
0001
0000
1000
0010
0000
,  // measure 50
0200
0000
0300
0001
0000
1000
0000
0000
,  // measure 51
0200
0000
0300
1000
0000
0001
1000
0000
,  // measure 52
0002
0000
0010
0000
0000
1000
1000
0000
,  // measure 53
0103
0000
0010
1000
0000
0001
0010
0000
,  // measure 54
0200
0000
0300
1000
0000
0010
0000
0000
,  // measure 55
0200
0000
0300
0001
0000
0010
0100
0000
,  // measure 56
1000
0001
2000
0010
0000
0001
3001
0000
,  // measure 57
0001
0010
0001
0100
0000
0001
0010
0000
,  // measure 58
1001
0000
1000
0100
0001
0100
1000
0000
,  // measure 59
1001
0000
0001
0100
1000
0100
0001
0000
,  // measure 60
0001
1000
0002
0010
0000
1000
1003
0000
,  // measure 61
1000
0010
1000
0100
0000
1000
0010
0000
,  // measure 62
1010
0000
0001
0010
1000
0010
0001
0000
,  // measure 63
0011
0000
1000
0010
0001
0010
1000
0000
,  // measure 64
2010
0000
0000
0000
0001
0000
0000
0000
0100
0000
0000
0100
0000
0000
0100
0000
,  // measure 65
0000
0000
0001
0000
0001
0000
0000
0000
3020
0000
0000
2030
0000
0000
3100
0000
,  // measure 66
0012
0000
0000
0000
1000
0000
0000
0000
0100
0000
0000
0100
0000
0000
0100
0000
,  // measure 67
0000
0000
1000
0000
1000
0000
0000
0000
0023
0000
0000
0032
0000
0000
0103
0000
,  // measure 68
1010
0101
0011
1100
,  // measure 69
0001
0010
0100
1000
0001
0100
0010
1000
,  // measure 70
0002
0000
0000
0000
0023
0000
0000
0000
0230
0000
0000
2300
0000
0000
3002
0000
,  // measure 71
2003
0010
0000
3002
0010
0000
0103
0010
,  // measure 72
2000
3000
0000
0000
0000
0000
0000
0000
2010
0000
0000
0000
0000
0000
3001
0000
0000
0000
0000
0000
2001
0000
0000
0000
0000
0000
3100
0000
0000
0000
0000
0000
,  // measure 73
2100
0000
0000
3001
0000
0000
2010
0000
0000
3100
0000
0000
0100
0010
0100
0000
,  // measure 74
0001
0000
0100
0001
0100
0010
0002
0000
,  // measure 75
0013
0100
0001
0100
0010
0001
0200
0010
,  // measure 76
0302
0003
0000
0000
0000
0000
0000
0000
0012
0000
0000
0000
0000
0000
1003
0000
0000
0000
0000
0000
1002
0000
0000
0000
0000
0000
0103
0000
0000
0000
0000
0000
,  // measure 77
0102
0000
0000
1003
0000
0000
0012
0000
0000
0103
0000
0000
0100
0010
0100
0000
,  // measure 78
1000
0000
0100
1000
0100
0010
2000
0000
,  // measure 79
3010
0100
1000
0100
0010
1000
0200
0010
,  // measure 80
2300
3000
0000
0000
0000
0000
0000
0000
2100
0000
0000
0000
0000
0000
3010
0000
0000
0000
0000
0000
2010
0000
0000
0000
0000
0000
3100
0000
0000
0000
0000
0000
,  // measure 81
2100
0000
0000
3001
0000
0000
1020
0000
0000
0130
0000
0000
0010
0100
0010
0000
,  // measure 82
0001
0000
0010
0100
1000
0100
0002
0000
,  // measure 83
0013
0100
0001
0100
1000
0001
0200
0010
,  // measure 84
0302
0003
0000
0000
0000
0000
0000
0000
0102
0000
0000
0000
0000
0000
0013
0000
0000
0000
0000
0000
0012
0000
0000
0000
0000
0000
0103
0000
0000
0000
0000
0000
,  // measure 85
0102
0000
0000
1003
0000
0000
0021
0000
0000
0130
0000
0000
0010
0100
0010
0000
,  // measure 86
1000
0000
0010
0000
0100
0000
0010
0000
0001
0000
0000
0100
0000
0000
1000
0000
,  // measure 87
2000
0000
0000
0000
,  // measure 88
3000
0000
0000
0000
;

//---------------dance-single - ----------------
#NOTEDATA:;
#CHARTNAME:;
#STEPSTYPE:dance-single;
#DESCRIPTION:;
#CHARTSTYLE:;
#DIFFICULTY:Medium;
#METER:9;
#RADARVALUES:0.368395,0.445636,0.225934,0.521986,0.003895,331.000000,302.000000,29.000000,67.000000,0.000000,0.000000,0.000000,0.000000,0.000000,0.368395,0.445636,0.225934,0.521986,0.003895,331.000000,302.000000,29.000000,67.000000,0.000000,0.000000,0.000000,0.000000,0.000000;
#CREDIT:;
#NOTES:
0000
0000
0000
0000
,
0000
0000
0000
0000
,
0000
0000
0000
0000
,
0000
0000
0000
0000
,
0002
0000
0000
0000
,
0203
0000
0000
0000
,
0320
0000
0000
0000
,
2030
0000
3001
1000
,
0001
0010
0000
0010
,
0001
1000
0000
1000
,
0001
0100
0000
0100
,
0001
0010
0001
0001
,
1000
0010
0000
0010
,
1000
0001
0000
0001
,
1000
0100
0000
0100
,
1000
0010
0100
0001
,
1002
0000
0010
0000
,
1000
1000
0013
0000
,
2001
0000
0010
0000
,
0001
0001
3010
0000
,
1000
0010
0100
0001
,
0010
0001
0100
0010
,
2000
3200
0320
0032
,
2003
0001
0000
3002
1000
0000
0003
0000
,
2001
0000
0010
0000
0000
0010
0000
0000
,
0001
0000
0000
0001
3000
0000
0001
0000
,
1002
0000
0010
0000
0000
0010
0000
0000
,
1000
0000
0000
1000
0003
0000
1001
0000
,
2000
3020
0230
0302
,
0013
0000
0000
0011
0000
0000
1100
0000
,
0002
0010
1003
0001
,
2000
0010
0002
3003
,
0021
0000
0100
0000
0000
0100
0000
0000
,
0031
0000
1000
0001
0000
0001
1000
0000
,
1020
0000
0100
0000
0000
0100
0000
0000
,
2030
0000
0000
3000
0000
1000
1000
0000
,
0002
0023
0230
2300
,
3010
0000
0000
1010
0000
0000
0101
0000
,
2000
0000
0000
0000
,
0010
0001
0100
3100
,
0010
0000
1100
0000
0000
0110
0000
0000
,
0011
0000
0000
1001
0000
0000
0001
1000
,
0010
0000
0101
0000
0000
0110
0000
0000
,
1010
0000
0000
1001
0000
0000
1000
0001
,
0010
0000
0000
0000
0012
0000
0000
0003
0000
0000
2010
0000
0000
3000
0000
0000
,
0102
0000
0000
0003
0000
0000
2100
0000
0000
3000
0000
0000
0001
0000
0100
0000
,
0020
0000
0100
0000
0000
0100
0000
0000
,
1030
0001
1000
0001
,
0020
0100
0000
0031
,
1000
0010
0100
0000
,
0002
0000
1003
1000
,
2000
0000
3001
0100
,
0020
0100
0000
1030
,
0001
0010
0100
0000
,
2000
0000
3001
0001
,
0002
0000
0103
0010
,
1000
0000
0100
0000
1000
0100
1000
0000
,
0100
0010
0001
0100
,
0020
0000
0130
0010
0100
0000
0001
0000
,
0020
0000
0130
0010
0100
0000
0010
0000
,
0001
0000
0100
0000
0001
0100
0001
0000
,
0100
0010
1000
0100
,
0020
0000
0130
0010
0100
0000
1000
0000
,
0020
0000
0130
0010
0100
0000
0010
0000
,
2000
0010
0001
0100
,
3200
0010
1000
0310
,
0002
0010
1000
0100
,
0203
0010
0001
0310
,
1010
1000
0011
0001
,
1000
0010
1000
0000
0001
0010
0001
0000
,
2000
3200
0320
0032
,
2003
0001
0000
3002
1000
0000
0103
0000
,
1020
0000
1000
0000
0000
1000
0000
0000
,
0100
0000
0000
0001
0000
0000
0031
0010
,
1000
0000
0001
0100
0000
0001
0100
0001
,
1000
0000
1000
0100
0000
1000
0100
0000
,
0021
0000
0001
0000
0000
0001
0000
0000
,
0100
0000
0000
1000
0000
0000
1030
0010
,
0001
0000
1000
0100
0000
1000
0100
1000
,
0001
0000
0001
0100
0000
0010
1000
0000
,
1002
0000
0023
0000
0000
2030
0000
0000
,
3002
0000
0000
0203
0000
0000
0310
0100
,
1000
0000
0001
0100
0000
0010
1000
0100
,
0010
0000
0001
0100
0000
0001
0010
0000
,
2001
0000
3020
0000
0000
0032
0000
0000
,
2003
0000
0000
3200
0000
0000
0310
0100
,
0001
0000
0000
0000
1000
0000
0000
0000
0100
0000
0000
0100
0000
0000
0100
0000
,
0200
0000
0000
0000
,
0300
0000
0000
0000
;

//---------------dance-single - ----------------
#NOTEDATA:;
#CHARTNAME:;
#STEPSTYPE:dance-single;
#DESCRIPTION:;
#CHARTSTYLE:;
#DIFFICULTY:Easy;
#METER:5;
#RADARVALUES:0.217030,0.274237,0.070117,0.428496,0.000000,195.000000,186.000000,9.000000,55.000000,0.000000,0.000000,0.000000,0.000000,0.000000,0.217030,0.274237,0.070117,0.428496,0.000000,195.000000,186.000000,9.000000,55.000000,0.000000,0.000000,0.000000,0.000000,0.000000;
#CREDIT:;
#NOTES:
0000
0000
0000
0000
,
0000
0000
0000
0000
,
0000
0000
0000
0000
,
0000
0000
0000
0000
,
0002
0000
0000
0000
,
0203
0000
0000
0000
,
0320
0000
0000
0000
,
2030
0000
0000
0000
,
3001
0000
0001
0000
,
0010
0000
0010
0000
,
0100
0000
1000
0000
,
0001
0000
0001
0000
,
1000
0000
1000
0000
,
0010
0000
0010
0000
,
0100
0000
0001
0000
,
1000
0000
0100
0000
,
0020
0000
0100
0000
,
0030
0001
1000
0000
,
0020
0000
0100
0000
,
0030
1000
0001
0000
,
1000
1000
0100
0000
,
0001
0001
0100
0000
,
2000
3002
2003
3002
,
1003
0000
0000
0000
,
1000
0000
1000
0000
,
1000
0000
0010
0100
,
0001
0000
0001
0000
,
0001
0000
0010
0100
,
2000
0000
0010
0000
,
3002
0000
0010
0000
,
1003
1000
0001
0001
,
0000
1000
0001
0000
,
0001
0000
0010
0000
,
0100
0000
1000
0010
,
0100
0000
0001
0000
,
0020
0000
0030
0000
,
0002
0000
0010
0000
,
2003
0000
0010
0000
,
0002
0000
3003
0000
,
0001
1000
0001
0000
,
0001
0000
0022
0000
0000
0030
0000
0000
,
2000
0000
0000
3000
0000
0000
0103
0000
,
0010
0000
2020
0000
0000
0030
0000
0000
,
0002
0000
0000
0003
0000
0000
3100
0000
,
0010
0000
0220
0000
0000
0330
0000
0000
,
2002
0000
0000
3003
0000
0000
1000
0000
,
0010
0200
0000
0000
,
0010
0010
0310
0000
,
1000
1000
0000
0010
,
1000
0000
0100
0000
,
0020
0000
0030
0000
,
0020
0000
0030
0000
,
0001
0001
0000
0010
,
0001
0000
0100
0000
,
0020
0000
0030
0000
,
0020
0000
0030
0000
,
1000
0010
1000
0000
,
0001
0010
0001
0000
,
0200
0300
1001
0000
,
0200
0300
1001
0000
,
1000
0001
0010
0000
,
0001
1000
0010
0000
,
0200
0300
1010
0000
,
0200
0300
0011
0000
,
2000
0000
0010
0000
,
0001
0001
0100
0000
,
3002
0000
0010
0000
,
1000
1000
0100
0000
,
1003
0010
1000
0000
,
0001
0010
0001
0000
,
2000
3002
2003
3002
,
1003
0000
0000
0000
,
2000
0000
0010
0000
0000
0010
0000
0000
,
0010
0000
0000
0010
0000
0000
0010
0000
,
3010
0000
0100
0000
,
0001
0000
1000
0000
,
0002
0000
0010
0000
0000
0010
0000
0000
,
0010
0000
0000
0010
0000
0000
0010
0000
,
0013
0000
0100
0000
,
1000
0000
0001
0000
,
0200
0000
0320
0000
0000
2030
0000
0000
,
3020
0000
0000
2030
0000
0000
0010
0000
,
3010
0000
1000
0000
,
0001
0000
1000
0000
,
0200
0000
0320
0000
0000
0032
0000
0000
,
0023
0000
0000
0032
0000
0000
0010
0000
,
0013
0000
0010
0000
,
2002
0000
0000
0000
,
3003
0000
0000
0000
;

//---------------dance-single - ----------------
#NOTEDATA:;
#CHARTNAME:;
#STEPSTYPE:dance-single;
#DESCRIPTION:;
#CHARTSTYLE:;
#DIFFICULTY:Beginner;
#METER:2;
#RADARVALUES:0.115749,0.239958,0.054536,0.194771,0.000000,104.000000,97.000000,7.000000,25.000000,0.000000,0.000000,0.000000,0.000000,0.000000,0.115749,0.239958,0.054536,0.194771,0.000000,104.000000,97.000000,7.000000,25.000000,0.000000,0.000000,0.000000,0.000000,0.000000;
#CREDIT:;
#NOTES:
0000
0000
0000
0000
,
0000
0000
0000
0000
,
0000
0000
0000
0000
,
0000
0000
0000
0000
,
0002
0000
0000
0000
,
0003
0000
0000
0000
,
2000
0000
0000
0000
,
3000
0000
0000
0000
,
0001
0000
0000
0000
,
0010
0000
0000
0000
,
0100
0000
0000
0000
,
1000
0000
0000
0000
,
0001
0000
0000
0000
,
0100
0000
0000
0000
,
0010
0000
0000
0000
,
1000
0000
0000
0000
,
0200
0000
0000
0000
,
0300
0000
0000
0000
,
0020
0000
0000
0000
,
0030
0000
0000
0000
,
0100
0000
0000
0000
,
0010
0000
0000
0000
,
0001
0000
0001
0000
,
0001
0000
0000
0000
,
1000
0000
0000
0000
,
0010
0000
0000
0000
,
0100
0000
0000
0000
,
0001
0000
0000
0000
,
0100
0000
0000
0000
,
0010
0000
0000
0000
,
2000
0000
3000
0000
,
0000
1000
1000
0000
,
0001
0000
0000
0000
,
0010
0000
0000
0000
,
0100
0000
0000
0000
,
1000
0000
0000
0000
,
0100
0000
0000
0000
,
0010
0000
0000
0000
,
0002
0000
0003
0000
,
1000
0000
0001
0000
,
0000
1001
0000
0000
,
1001
0000
0000
0010
,
0000
1001
0000
0000
,
1001
0000
0000
0100
,
0000
1001
0000
0000
,
1001
0000
0000
0010
,
0000
2002
0000
0000
,
3003
0000
0000
0000
,
1000
0000
0000
0000
,
0100
0000
0000
0000
,
0020
0000
0030
0000
,
0020
0000
0030
0000
,
0001
0000
0000
0000
,
0100
0000
0000
0000
,
0020
0000
0030
0000
,
0020
0000
0030
0000
,
1000
0000
1000
0000
,
1000
0000
0000
0000
,
0002
0000
0003
0000
,
2000
0000
3000
0000
,
0001
0000
0001
0000
,
0001
0000
0000
0000
,
2000
0000
3000
0000
,
0002
0000
0003
0000
,
0010
0000
0000
0000
,
0100
0000
0000
0000
,
0010
0000
0000
0000
,
0100
0000
0000
0000
,
0010
0000
0000
0000
,
0001
0000
0000
0000
,
1000
0000
1000
0000
,
1000
0000
0000
0000
,
0001
0000
0002
0000
0000
0003
0000
0000
,
0002
0000
0000
0003
0000
0000
0001
0000
,
0001
0000
0000
0000
,
0010
0000
0000
0000
,
1000
0000
2000
0000
0000
3000
0000
0000
,
2000
0000
0000
3000
0000
0000
1000
0000
,
1000
0000
0000
0000
,
0010
0000
0000
0000
,
0001
0000
0002
0000
0000
0003
0000
0000
,
0002
0000
0000
0003
0000
0000
0001
0000
,
0001
0000
0000
0000
,
0100
0000
0000
0000
,
1000
0000
2000
0000
0000
3000
0000
0000
,
2000
0000
0000
3000
0000
0000
1000
0000
,
1000
0000
0100
0000
,
0002
0000
0000
0000
,
0003
0000
0000
0000
;
