#TITLE:Boom Boom Dollar;
#SUBTITLE:(Red Monster Mix);
#ARTIST:King Kong & D'Jungle Girls;
#TITLETRANSLIT:;
#SUBTITLETRANSLIT:;
#ARTISTTRANSLIT:;
#GENRE:;
#CREDIT:;
#BANNER:Boom Boom Dollar (Red Monster Mix).png;
#BACKGROUND:Boom Boom Dollar (Red Monster Mix)-bg.png;
#LYRICSPATH:;
#CDTITLE:;
#MUSIC:Boom Boom Dollar (Red Monster Mix).ogg;
#OFFSET:-0.380000;
#SAMPLESTART:87.464996;
#SAMPLELENGTH:12.000000;
#SELECTABLE:YES;
#BPMS:0.000000=135.059998
,195.000000=134.505997
,195.125000=147.738998
,195.291672=138.227005
,195.395828=146.544006
,195.520828=109.680000
,195.625000=148.664993
,195.729172=144.738998
,195.875000=67.238998
,196.000000=135.059998
;
#STOPS:
;
#BGCHANGES:;
#KEYSOUNDS:;
#ATTACKS:;

//---------------dance-single - ----------------
#NOTES:
     dance-single:
     :
     Challenge:
     14:
     0.633937,0.877890,0.588656,0.081506,0.489037,490.000000,425.000000,65.000000,9.000000,108.000000,0.000000,0.633937,0.877890,0.588656,0.081506,0.489037,490.000000,425.000000,65.000000,9.000000,108.000000,0.000000:
// measure 0
0000
0000
0000
0000
,  // measure 1
0000
0000
0000
0000
,  // measure 2
0000
0000
0000
0000
,  // measure 3
0000
0000
0000
0000
,  // measure 4
0000
0000
0000
0000
,  // measure 5
0000
0000
0000
0000
,  // measure 6
0000
0000
0000
0000
,  // measure 7
0000
0000
0000
0000
,  // measure 8
1000
0000
0010
1000
0010
1000
0010
1000
0001
1000
0001
1000
0100
1000
0100
1000
,  // measure 9
0001
0000
0010
0001
0010
0001
1000
0001
1000
0001
0100
0001
0100
0001
1000
0001
,  // measure 10
1000
0000
0100
0010
0100
0010
0100
0010
0001
0010
0001
0010
0100
0010
0100
0010
,  // measure 11
0001
0000
1000
0010
1000
0010
0100
0010
0100
0010
1000
0010
1000
0010
0100
0010
,  // measure 12
0100
0101
1000
1100
,  // measure 13
0110
0000
0010
0001
1000
0010
1000
0001
0010
0100
1000
0001
1000
0100
0010
0001
,  // measure 14
1000
1010
0001
0101
,  // measure 15
0110
0000
0010
1000
0001
1000
0010
0100
0001
1000
0001
0100
0010
1000
0001
0010
,  // measure 16
0100
0110
1000
1001
,  // measure 17
1000
0000
0010
1000
0001
1000
0010
0100
0001
0010
0100
0010
0001
1000
0001
0010
,  // measure 18
0002
0100
1000
0013
,  // measure 19
0001
0000
0001
0000
1000
0000
1000
0000
0010
0000
0010
0000
0100
0010
0100
0010
,  // measure 20
0100
0000
0001
0000
0000
1000
0100
0000
0010
0001
0010
0001
0000
0001
0010
0000
,  // measure 21
0100
0000
1000
0010
0000
0010
0100
0000
0001
0000
0010
0100
0000
0100
1000
0000
,  // measure 22
0001
0000
0100
0000
0001
0100
0001
0100
0000
0000
0010
0000
1000
0000
0100
0000
,  // measure 23
0002
0000
0000
0000
0023
0000
0000
0000
2030
0000
0000
0000
3100
0010
0100
0010
,  // measure 24
0001
0000
0001
0000
0101
0000
0100
0010
0000
1000
0000
0100
1000
0000
1100
0000
,  // measure 25
1000
0000
1000
0000
1010
0000
0010
0100
0000
0001
0000
0010
0001
0000
0011
0000
,  // measure 26
0001
0100
0010
1000
0000
1000
0100
1000
0001
0100
0010
1000
0000
1000
0100
1000
,  // measure 27
0010
0000
0010
0000
0100
0000
0100
0000
0002
0000
0000
0013
0000
0000
0000
0000
,  // measure 28
0001
0010
0100
0010
1000
0010
0100
0010
0001
0100
0010
0100
1000
0100
0010
0100
,  // measure 29
0101
0000
0001
0010
0100
0000
0100
1000
1001
0000
0001
0100
0010
0100
0101
0000
,  // measure 30
1001
0000
1001
0000
1010
1000
0100
0000
,  // measure 31
0011
0000
0001
0000
0101
0000
0001
0000
0010
0100
2000
0000
3000
0000
0000
0000
,  // measure 32
1010
MMMM
1100
MMMM
0011
MMMM
0101
MMMM
,  // measure 33
0010
1000
0100
0001
0010
0001
0100
1000
,  // measure 34
1010
MMMM
0101
MMMM
0011
MMMM
1100
MMMM
,  // measure 35
0010
0001
0100
1000
0010
1000
0100
0001
,  // measure 36
0011
MMMM
1100
MMMM
1010
MMMM
0101
0000
,  // measure 37
0001
0000
0010
0000
0100
0000
1000
0000
0010
0000
0100
0001
0000
1000
0100
0000
,  // measure 38
0010
0000
0001
0000
0000
0000
0001
0000
0000
0000
1000
0001
0000
0001
0100
0000
,  // measure 39
0010
0000
0010
0000
1000
0000
1000
0000
0100
0000
0100
0000
0001
0100
0001
0000
,  // measure 40
0101
0100
1000
0000
0010
0010
0001
0001
,  // measure 41
0011
0010
1010
1000
1100
0100
0101
0100
,  // measure 42
1000
1000
0010
0010
0100
0100
1000
1000
,  // measure 43
1100
0100
0101
0001
0011
0010
1010
1000
,  // measure 44
0010
0001
0100
0000
1000
0000
0100
0000
0010
0000
0100
0000
0002
0000
0013
0000
,  // measure 45
0000
0000
0100
0000
1000
0000
0001
0000
0000
0000
0000
0100
0010
0000
0000
0000
,  // measure 46
2000
0100
0001
3010
,  // measure 47
1000
0000
0000
0000
0010
0000
0000
0000
0100
0000
0001
0100
0001
0000
1000
0100
,  // measure 48
1000
0000
0000
0000
1000
0000
0000
0000
1000
0000
0000
0000
2000
0000
0000
3000
,  // measure 49
1001
MMMM
0110
MMMM
1100
MMMM
1010
MMMM
,  // measure 50
0001
0000
1000
0000
0010
0000
0100
0000
1000
0000
1000
0100
0000
0001
0010
0000
,  // measure 51
0110
MMMM
1001
MMMM
1100
MMMM
0011
MMMM
,  // measure 52
0001
0000
0001
0000
0010
0000
0010
0000
1000
0010
0000
0010
0001
0000
1000
0000
,  // measure 53
1100
MMMM
0011
MMMM
0101
MMMM
1010
MMMM
,  // measure 54
0010
0000
1000
0000
0001
0000
0010
0000
0100
0000
0010
0001
0000
1000
0010
0000
,  // measure 55
0100
0000
0001
0000
0010
0000
0001
0000
0100
0000
0001
0010
0000
0010
0100
0000
,  // measure 56
1100
1000
1010
0010
0110
0100
0101
0001
,  // measure 57
1001
MMMM
1001
MMMM
1001
MMMM
1001
MMMM
,  // measure 58
1100
0100
0101
0100
1100
0000
1001
0000
;

//---------------dance-single - Copied from----------------
#NOTES:
     dance-single:
     Copied from:
     Edit:
     15:
     0.642994,0.877890,0.588656,0.072450,0.516206,497.000000,432.000000,65.000000,8.000000,108.000000,0.000000,0.642994,0.877890,0.588656,0.072450,0.516206,497.000000,432.000000,65.000000,8.000000,108.000000,0.000000:
0000
0000
0000
0000
,
0000
0000
0000
0000
,
0000
0000
0000
0000
,
0000
0000
0000
0000
,
0000
0000
0000
0000
,
0000
0000
0000
0000
,
0000
0000
0000
0000
,
0000
0000
0000
0000
,
1000
0000
0010
1000
0010
1000
0010
1000
0001
1000
0001
1000
0100
1000
0100
1000
,
0001
0000
0010
0001
0010
0001
1000
0001
1000
0001
0100
0001
0100
0001
1000
0001
,
1000
0000
0100
0010
0100
0010
0100
0010
0001
0010
0001
0010
0100
0010
0100
0010
,
0001
0000
1000
0010
1000
0010
0100
0010
0100
0010
1000
0010
1000
0010
0100
0010
,
0100
0101
1000
1100
,
0110
0000
0010
0001
1000
0010
1000
0001
0010
0100
1000
0001
1000
0100
0010
0001
,
1000
1010
0001
0101
,
0110
0000
0010
1000
0001
1000
0010
0100
0001
1000
0001
0100
0010
1000
0001
0010
,
0100
0110
1000
1001
,
1000
0000
0010
1000
0001
1000
0010
0100
0001
0010
0100
0010
0001
1000
0001
0010
,
0002
0100
1000
0013
,
0001
0000
0001
0000
1000
0000
1000
0000
0010
0000
0010
0000
0100
0010
0100
0010
,
0100
0000
0001
0000
0000
1000
0100
0000
0010
0001
0010
0001
0000
0001
0010
0000
,
0100
0000
1000
0010
0000
0010
0100
0000
0001
0000
0010
0100
0000
0100
1000
0000
,
0001
0000
0100
0000
0001
0100
0001
0100
0000
0000
0010
0000
1000
0000
0100
0000
,
0002
0000
0000
0000
0023
0000
0000
0000
2030
0000
0000
0000
3100
0010
0100
0010
,
0001
0000
0001
0000
0101
0000
0100
0010
0000
1000
0000
0100
1000
0000
1100
0000
,
1000
0000
1000
0000
1010
0000
0010
0100
0000
0001
0000
0010
0001
0000
0011
0000
,
0001
0100
0010
1000
0000
1000
0100
1000
0001
0100
0010
1000
0000
1000
0100
1000
,
0010
0000
0010
0000
0100
0000
0100
0000
0002
0000
0000
0013
0000
0000
0000
0000
,
0001
0010
0100
0010
1000
0010
0100
0010
0001
0100
0010
0100
1000
0100
0010
0100
,
0101
0000
0001
0010
0100
0000
0100
1000
1001
0000
0001
0100
0010
0100
0101
0000
,
1001
0000
1001
0000
1010
1000
0100
0000
,
0011
0000
0001
0000
0101
0000
0001
0000
0010
0100
2000
0000
3000
0000
0000
0000
,
1010
MMMM
1100
MMMM
0011
MMMM
0101
MMMM
,
0010
1000
0100
0001
0010
0001
0100
1000
,
1010
MMMM
0101
MMMM
0011
MMMM
1100
MMMM
,
0010
0001
0100
1000
0010
1000
0100
0001
,
0011
MMMM
1100
MMMM
1010
MMMM
0101
0000
,
0001
0000
0010
0000
0100
0000
1000
0000
0010
0000
0100
0001
0000
1000
0100
0000
,
0010
0000
0001
0000
0000
0000
0001
0000
0000
0000
1000
0001
0000
0001
0100
0000
,
0010
0000
0010
0000
1000
0000
1000
0000
0100
0000
0100
0000
0001
0100
0001
0000
,
0101
0100
1000
0000
0010
0010
0001
0001
,
0011
0010
1010
1000
1100
0100
0101
0100
,
1000
1000
0010
0010
0100
0100
1000
1000
,
1100
0100
0101
0001
0011
0010
1010
1000
,
0010
0001
0100
0000
1000
0000
0100
0000
0010
0000
0100
0000
0002
0000
0013
0000
,
0000
0000
0100
0000
1000
0000
0001
0000
0000
0000
0000
0100
0010
0000
0000
0000
,
2000
0100
0001
3010
,
1000
0000
0000
0000
0010
0000
0000
0000
0100
0000
0001
0100
0001
0000
1000
0100
,
1000
0000
0000
0000
0000
0000
0000
0000
1000
0000
0000
0000
0000
0000
0000
0000
1000
0000
0000
0000
0000
0000
0000
0000
0001
1000
0001
1000
0001
1000
0001
1000
,
1001
MMMM
0110
MMMM
1100
MMMM
1010
MMMM
,
0001
0000
1000
0000
0010
0000
0100
0000
1000
0000
1000
0100
0000
0001
0010
0000
,
0110
MMMM
1001
MMMM
1100
MMMM
0011
MMMM
,
0001
0000
0001
0000
0010
0000
0010
0000
1000
0010
0000
0010
0001
0000
1000
0000
,
1100
MMMM
0011
MMMM
0101
MMMM
1010
MMMM
,
0010
0000
1000
0000
0001
0000
0010
0000
0100
0000
0010
0001
0000
1000
0010
0000
,
0100
0000
0001
0000
0010
0000
0001
0000
0100
0000
0001
0010
0000
0010
0100
0000
,
1100
1000
1010
0010
0110
0100
0101
0001
,
1001
MMMM
1001
MMMM
1001
MMMM
1001
MMMM
,
1100
0100
0101
0100
1100
0000
1001
0000
;

//---------------dance-single - ----------------
#NOTES:
     dance-single:
     :
     Hard:
     13:
     0.534319,0.611863,0.443756,0.063394,0.208294,413.000000,364.000000,49.000000,7.000000,156.000000,0.000000,0.534319,0.611863,0.443756,0.063394,0.208294,413.000000,364.000000,49.000000,7.000000,156.000000,0.000000:
// measure 0
0000
0000
0000
0000
,  // measure 1
0000
0000
0000
0000
,  // measure 2
0000
0000
0000
0000
,  // measure 3
0000
0000
0000
0000
,  // measure 4
0000
0000
0000
0000
,  // measure 5
0000
0000
0000
0000
,  // measure 6
0000
0000
0000
0000
,  // measure 7
0000
0000
0000
0000
,  // measure 8
1000
0000
0001
0010
0001
0000
0100
0000
0010
0000
1000
0000
0001
0000
0010
0000
,  // measure 9
0001
0000
1000
0010
1000
0000
0001
0000
0010
0000
0100
0000
1000
0000
0001
0000
,  // measure 10
0100
0000
0001
0100
0001
0000
1000
0000
0001
0000
0010
0000
0100
0000
1000
0000
,  // measure 11
0001
0000
1000
0100
1000
0000
0001
0000
0100
0000
0010
0000
1000
0000
0100
0000
,  // measure 12
1100
MMMM
0110
MMMM
0011
MMMM
0101
MMMM
,  // measure 13
0100
0000
0010
1000
0001
0000
0010
0000
0100
0000
1000
0000
0001
0000
0100
0000
,  // measure 14
0101
MMMM
0110
MMMM
1010
MMMM
0011
MMMM
,  // measure 15
0010
0000
0100
1000
0001
0000
0100
0000
0010
0000
1000
0000
0100
0000
0010
0000
,  // measure 16
0011
MMMM
0101
MMMM
1010
MMMM
1100
MMMM
,  // measure 17
0001
0000
0100
0010
1000
0000
0100
0000
0010
0000
0001
0000
0100
0000
0010
0000
,  // measure 18
0110
0010
1000
0000
0001
0010
0100
0000
,  // measure 19
1000
0000
1000
0000
0100
0000
0100
0000
0010
0000
0010
0000
0001
0010
0001
0010
,  // measure 20
0001
0000
1000
0000
0000
0010
0100
0000
0001
0000
0000
0001
0000
0000
0010
0000
,  // measure 21
0100
0000
1000
0000
0000
0001
0100
0000
0010
0000
0000
0010
0100
0000
0100
0000
,  // measure 22
0001
0000
0001
0000
0000
0010
0100
0000
1000
0000
0010
0000
1000
0000
0010
0000
,  // measure 23
0002
0000
0203
0000
2300
0000
3001
0001
,  // measure 24
0100
0000
0100
0000
0010
0000
0010
1000
0000
1000
0000
0100
0010
0000
0010
0000
,  // measure 25
0001
0000
0001
0000
0100
0000
0010
1000
0000
1000
0000
0100
0010
0000
0010
0000
,  // measure 26
0001
0100
0010
0100
0000
0100
0001
0000
1000
0100
0010
0100
0000
0100
1000
0001
,  // measure 27
1000
0000
1000
0000
0010
0000
0010
0000
0120
0000
0000
0031
0000
0000
0000
0000
,  // measure 28
0001
0010
0100
0010
1000
0100
0010
0100
,  // measure 29
0101
0000
0001
0100
0001
0000
0100
0010
0100
0000
1000
0100
1000
0000
0001
1000
,  // measure 30
0001
0000
0001
0000
0101
0100
0010
0000
,  // measure 31
1000
0000
1000
0000
0100
0000
0100
0000
0010
0001
0200
0000
0300
0000
0000
0000
,  // measure 32
0101
MMMM
0110
MMMM
1010
MMMM
1001
MMMM
,  // measure 33
1000
0100
0001
0100
1000
0010
0001
0010
,  // measure 34
1010
MMMM
0110
MMMM
0101
MMMM
0011
MMMM
,  // measure 35
0001
0010
1000
0010
0001
0100
1000
0100
,  // measure 36
0101
MMMM
0110
MMMM
1010
MMMM
1100
MMMM
,  // measure 37
0010
0001
1000
0010
0100
0100
0000
0000
,  // measure 38
0001
0010
0001
1000
0001
0100
0101
0000
,  // measure 39
1000
1000
0010
0010
0100
0100
0001
0001
,  // measure 40
0101
1000
0100
0000
0010
0100
1000
0001
,  // measure 41
0101
0100
1000
0001
0010
1000
0000
0100
,  // measure 42
0010
0010
0001
0001
1000
1000
0010
0010
,  // measure 43
0011
0010
1000
0001
0100
1000
0100
0001
,  // measure 44
0010
0001
0010
0000
0100
0000
1000
0000
0001
0000
0100
0000
0020
0000
1030
0000
,  // measure 45
0000
0000
1000
0000
0100
0000
0010
0000
0100
0000
0000
1000
0001
0000
0000
0000
,  // measure 46
0100
0100
0100
0100
,  // measure 47
0010
0000
0000
0000
0010
0000
0000
0000
0010
0000
0100
0010
0100
0000
0010
0100
,  // measure 48
0010
0000
0000
0000
0010
0000
0000
0000
0010
0000
0000
0000
2000
0000
0000
3000
,  // measure 49
1010
MMMM
1001
MMMM
0011
MMMM
1001
MMMM
,  // measure 50
1000
0000
0100
0000
0001
0000
0100
0000
0010
0000
0001
1000
0000
0001
1000
0000
,  // measure 51
1010
MMMM
0110
MMMM
0101
MMMM
1001
MMMM
,  // measure 52
0001
0000
0010
0000
0110
0000
0000
0000
1000
0010
0000
0010
0100
0000
0100
0001
,  // measure 53
1000
MMMM
1100
MMMM
0110
MMMM
0011
MMMM
,  // measure 54
0001
0000
0100
0000
1000
0000
0100
0000
0010
0000
1000
0001
0000
1000
0001
0000
,  // measure 55
0010
0100
0010
0001
1000
0001
0011
0000
,  // measure 56
0010
0000
0010
0000
0100
0000
0100
0000
1000
0000
1000
0000
0001
0100
0001
0100
,  // measure 57
MMM1
M1MM
MM1M
1MMM
,  // measure 58
0101
0100
0110
0010
1010
0000
1001
0000
;

//---------------dance-single - ----------------
#NOTES:
     dance-single:
     :
     Medium:
     10:
     0.429525,0.478849,0.443756,0.117731,0.045281,332.000000,283.000000,49.000000,13.000000,0.000000,0.000000,0.429525,0.478849,0.443756,0.117731,0.045281,332.000000,283.000000,49.000000,13.000000,0.000000,0.000000:
// measure 0
0000
0000
0000
0000
,  // measure 1
0000
0000
0000
0000
,  // measure 2
0000
0000
0000
0000
,  // measure 3
0000
0000
0000
0000
,  // measure 4
0000
0000
0000
0000
,  // measure 5
0000
0000
0000
0000
,  // measure 6
0000
0000
0000
0000
,  // measure 7
0000
0000
0000
0000
,  // measure 8
1000
0000
0100
0000
0010
0000
0001
0100
,  // measure 9
0010
0000
1000
0000
0001
0000
0010
0100
,  // measure 10
1000
0000
0001
0000
0100
0000
0010
1000
,  // measure 11
0001
0010
0001
0010
0001
0100
0001
0100
,  // measure 12
0101
0101
1010
1010
,  // measure 13
0001
0010
0100
1000
0001
1000
0100
0010
,  // measure 14
0011
0011
1100
1100
,  // measure 15
1000
0001
0100
0010
1000
0010
0100
0001
,  // measure 16
0011
0011
1100
1100
,  // measure 17
0001
0100
0010
1000
0100
0010
0001
0100
,  // measure 18
0110
0000
1000
0000
0100
0010
0100
0000
,  // measure 19
1000
1000
0001
0001
0100
0100
0001
0001
,  // measure 20
1000
0000
0100
0000
0000
0010
0000
0000
0001
0000
0000
0001
0000
0000
0001
0000
,  // measure 21
0100
0000
0010
0000
0000
1000
0000
0000
0100
0000
0000
0100
0000
0000
0100
0000
,  // measure 22
0010
0000
0001
0000
0000
1000
0000
0000
0010
0000
0000
0010
0000
0000
0100
0000
,  // measure 23
0002
0023
2030
3200
,  // measure 24
0310
0010
0110
0000
0010
1000
1010
0000
,  // measure 25
1000
1000
1001
0000
0001
0010
0011
0000
,  // measure 26
0010
0000
0010
0100
0000
0000
0000
0000
1000
0000
1000
0001
0000
0000
0000
0000
,  // measure 27
0100
0000
0100
0000
0010
0000
0010
0000
1000
0000
0000
1000
0000
0000
0000
0000
,  // measure 28
0001
0010
0001
1000
0001
0100
0001
1000
,  // measure 29
1001
0000
1000
0100
0110
0000
0001
0100
,  // measure 30
0101
0000
0101
0000
0110
0100
0001
0000
,  // measure 31
1000
1000
0001
0001
0010
0200
0300
0000
,  // measure 32
1100
1100
0011
0011
,  // measure 33
1000
0010
1000
0100
1000
0010
1000
0100
,  // measure 34
1100
1100
0011
0011
,  // measure 35
0010
0001
0100
0001
0010
0001
0100
0001
,  // measure 36
0011
0011
1100
1100
,  // measure 37
0001
0100
0010
1000
0001
0001
0000
0000
,  // measure 38
0200
1000
0010
0301
,  // measure 39
0020
0100
1000
0100
,  // measure 40
0031
0000
0001
0000
0100
0100
0100
0100
,  // measure 41
0010
1000
0001
1000
0010
1000
0100
0010
,  // measure 42
0001
0000
0100
0000
0010
0010
0010
0010
,  // measure 43
1000
0100
0010
0100
0001
0100
0010
0100
,  // measure 44
1000
0100
1000
0000
0001
0000
0100
0000
0010
0000
1000
0000
0001
0000
0000
0000
,  // measure 45
0010
0100
1000
0000
0000
0000
1001
0000
,  // measure 46
0001
0001
0001
0001
,  // measure 47
1000
1000
1000
1000
,  // measure 48
0010
0000
0000
0000
0010
0000
0000
0000
0010
0000
0000
0000
0020
0000
0000
0030
,  // measure 49
0110
0101
1001
1100
,  // measure 50
1000
0010
0100
0001
0010
0010
0000
0000
,  // measure 51
0011
0110
1100
1001
,  // measure 52
0201
2300
3020
0031
,  // measure 53
0011
0011
1100
1100
,  // measure 54
0001
0100
0010
1000
0001
0001
0000
0000
,  // measure 55
0020
1000
0100
0031
,  // measure 56
0200
0010
1000
0010
,  // measure 57
0301
0001
1000
1000
,  // measure 58
0100
0010
0001
1000
0010
0000
1001
0000
;

//---------------dance-single - ----------------
#NOTES:
     dance-single:
     :
     Easy:
     6:
     0.258750,0.372438,0.244519,0.072450,0.004528,200.000000,173.000000,27.000000,8.000000,0.000000,0.000000,0.258750,0.372438,0.244519,0.072450,0.004528,200.000000,173.000000,27.000000,8.000000,0.000000,0.000000:
// measure 0
0000
0000
0000
0000
,  // measure 1
0000
0000
0000
0000
,  // measure 2
0000
0000
0000
0000
,  // measure 3
0000
0000
0000
0000
,  // measure 4
0000
0000
0000
0000
,  // measure 5
0000
0000
0000
0000
,  // measure 6
0000
0000
0000
0000
,  // measure 7
0000
0000
0000
0000
,  // measure 8
1000
0000
0100
0010
,  // measure 9
0001
0000
0100
0010
,  // measure 10
1000
0000
0001
0010
,  // measure 11
0100
1000
0100
0010
,  // measure 12
0001
0001
1000
1000
,  // measure 13
0010
0000
0100
0001
,  // measure 14
1000
1000
0100
0100
,  // measure 15
0010
0000
0001
0100
,  // measure 16
0010
0010
1000
1000
,  // measure 17
0001
0010
0011
0000
,  // measure 18
0020
0000
0000
0030
,  // measure 19
0100
0100
0100
0100
,  // measure 20
1001
0000
0001
0100
,  // measure 21
0010
0000
1000
0100
,  // measure 22
0010
0000
0100
1000
,  // measure 23
0001
0001
1000
1000
,  // measure 24
0010
1010
0010
0110
,  // measure 25
0100
0101
0001
1001
,  // measure 26
1001
0000
1001
0000
,  // measure 27
0001
0000
0000
0000
0001
0000
0000
0000
1000
0000
0000
1000
0000
0000
0000
0000
,  // measure 28
0100
0010
0100
1000
,  // measure 29
1100
1000
1001
0001
,  // measure 30
0101
0101
0110
0000
,  // measure 31
0010
0000
1000
0000
0100
0200
0300
0000
,  // measure 32
0010
0010
0001
0001
,  // measure 33
1000
0010
0001
0100
,  // measure 34
1000
1000
0001
0001
,  // measure 35
0010
1000
0100
0001
,  // measure 36
1000
1000
0100
0100
,  // measure 37
0010
0001
0100
0000
,  // measure 38
0020
0000
0000
0030
,  // measure 39
2000
0000
0000
3000
,  // measure 40
0001
0001
0010
0010
,  // measure 41
0100
1000
0010
1000
,  // measure 42
0100
0100
0010
0010
,  // measure 43
0001
0100
0010
0100
,  // measure 44
0101
1000
0100
0010
,  // measure 45
0000
0001
0000
0000
,  // measure 46
0200
0000
0000
0300
,  // measure 47
0020
0000
0000
0030
,  // measure 48
1000
1000
1000
1000
,  // measure 49
1010
1001
0011
1001
,  // measure 50
1000
0000
0010
0000
0100
0100
0000
0000
,  // measure 51
0101
0011
1100
1010
,  // measure 52
0010
0001
0100
1000
,  // measure 53
1100
0011
0101
1010
,  // measure 54
0010
0000
1000
0000
0100
0100
0000
0000
,  // measure 55
0020
0100
0001
0130
,  // measure 56
0200
1000
0010
1300
,  // measure 57
1000
1000
0010
0010
,  // measure 58
0100
0100
0100
1001
;

//---------------dance-single - ----------------
#NOTES:
     dance-single:
     :
     Beginner:
     3:
     0.128081,0.239425,0.027169,0.009056,0.000000,99.000000,96.000000,3.000000,1.000000,0.000000,0.000000,0.128081,0.239425,0.027169,0.009056,0.000000,99.000000,96.000000,3.000000,1.000000,0.000000,0.000000:
0000
0000
0000
0000
,
0000
0000
0000
0000
,
0000
0000
0000
0000
,
0000
0000
0000
0000
,
0000
0000
0000
0000
,
0000
0000
0000
0000
,
0000
0000
0000
0000
,
0000
0000
0000
0000
,
1000
0000
0000
0000
,
0100
0000
0000
0000
,
0010
0000
0000
0000
,
0001
0000
0000
0000
,
0100
0000
0100
0000
,
0010
0000
0000
0000
,
1000
0000
1000
0000
,
0001
0000
0000
0000
,
0010
0000
0010
0000
,
0100
0000
0000
0000
,
1000
0000
0000
0000
,
0001
0000
0000
0000
,
0100
0000
0000
0000
,
0100
0000
0000
0000
,
0100
0000
0000
0000
,
0010
0010
0010
0010
,
0010
0000
0000
0000
,
1000
0000
0000
0000
,
0001
0000
0001
0000
,
0010
0000
0100
0000
,
1000
0000
1000
0000
,
1001
0000
1001
0000
,
0001
0001
0001
0000
,
0100
0000
0000
0000
0200
0300
0000
0000
,
0010
0010
0010
0000
,
1000
0000
0100
0000
,
0010
0010
0010
0000
,
0001
0000
0100
0000
,
0010
0010
0010
0000
,
1000
0000
0100
0000
,
0010
0000
0000
0000
,
0001
0000
0000
0000
,
1000
0000
0000
0000
,
0010
0010
0010
0010
,
0010
0000
0000
0000
,
0100
0100
0100
0100
,
0100
0000
0000
0000
,
0000
0000
0000
0000
,
0001
0000
0000
0000
,
1000
0000
0000
0000
,
0100
0000
0000
0000
,
0010
0010
0010
0010
,
0010
0000
0010
0000
,
0001
0001
0001
0001
,
0001
0000
0001
0000
,
0100
0100
0100
0100
,
0100
0000
0100
0000
,
0010
0000
0000
0000
,
1000
0000
0000
0000
,
0001
0001
0001
0001
,
0001
0001
0001
1001
;
