#TITLE:Blue Monday;
#SUBTITLE:;
#ARTIST:New Order;
#TITLETRANSLIT:;
#SUBTITLETRANSLIT:;
#ARTISTTRANSLIT:;
#GENRE:;
#CREDIT:;
#MUSIC:Blue Monday.ogg;
#BANNER:Blue Monday-bn.png;
#BACKGROUND:Blue Monday-bg.png;
#CDTITLE:;
#SAMPLESTART:10.604;
#SAMPLELENGTH:14.739;
#SELECTABLE:YES;
#OFFSET:-0.005;
#BPMS:0.000=130.293;
#STOPS:;
#BGCHANGES:;
#FGCHANGES:;

//--------------- dance-single - Peter ----------------
#NOTES:
     dance-single:
     Peter:
     Beginner:
     3:
     0,0,0,0,0:
0000
0000
0000
0000
,
0000
0000
0000
0000
,
0000
0000
0000
0000
,
0000
0000
0000
0000
,
1000
0000
0001
0000
2000
0000
0000
3000
,
0001
0000
0000
0001
0000
0000
MMMM
0000
,
0001
0000
0010
0000
,
0100
0000
0000
0000
,
0001
0000
0100
0000
,
1000
0000
0000
0000
,
0010
0000
0001
0000
,
0010
0000
0000
0000
,
1000
0000
0100
0000
,
0010
0000
0000
0000
,
0001
0000
0100
0000
,
0010
0000
0000
0000
,
0001
0000
0010
0000
,
1000
0000
0000
0000
,
0100
0000
0001
0000
,
0100
0000
0000
0000
,
1000
0000
0010
0000
,
0100
0000
0000
0000
,
0001
0000
0010
0000
,
0100
0000
1000
0000
,
0001
0000
0100
0000
,
0010
0000
0001
0000
,
0010
0000
1000
0000
,
0100
0000
0010
0000
,
0001
0000
0100
0000
,
0010
0000
1000
0000
,
0001
0000
0001
0000
,
0001
0000
0000
0000
,
1000
0000
1000
0000
,
1000
0000
0000
0000
,
0000
1001
0000
0000
,
0000
1001
0000
0000
,
1000
0000
0000
0000
1000
0000
0000
0001
,
0000
0001
0000
0000
,
1000
0000
0010
0000
,
0001
0000
0010
0000
,
1000
0000
0100
0000
,
0001
0000
0100
0000
,
1000
0000
0010
0000
,
0001
0000
0010
0000
,
1000
0000
0100
0000
,
0001
0000
0100
0000
,
1000
1000
1000
0000
,
0010
0000
0100
0000
,
0001
0001
0001
0000
,
0010
0000
0100
0000
,
1000
1000
1000
0000
,
0100
0000
0010
0000
,
0001
0001
0001
0001
,
0001
0001
0001
0000
,
0200
0000
0000
0000
,
0010
0000
0000
0000
,
0302
0000
0000
0000
,
0010
0000
0000
0000
,
2003
0000
0000
0000
,
0100
0000
0000
0000
,
3020
0000
0000
0000
,
0100
0000
0000
0000
,
2030
0000
3200
0000
,
0302
0000
0000
0000
,
2003
0000
3020
0000
,
0032
0000
0000
0000
,
0203
0000
2300
0000
,
3002
0000
0000
0000
,
0023
0000
2030
0000
,
3002
0000
0000
0000
,
1003
1000
1000
0000
,
0100
0000
0010
0000
,
0001
0001
0001
0000
,
0100
0000
0010
0000
;

//--------------- dance-single - Peter ----------------
#NOTES:
     dance-single:
     Peter:
     Easy:
     6:
     0,0,0,0,0:
0000
0000
0000
0000
,
0000
0000
0000
0000
,
0000
0000
0000
0000
,
1001
0000
0000
0110
0000
0000
1001
0000
,
0110
0000
1001
0000
0002
0000
0000
0003
,
1000
0000
0000
1000
0000
0000
MMMM
0000
,
1000
0100
0001
0100
,
1000
0010
0000
0010
,
0100
1000
0100
0001
,
1000
0100
0000
0100
,
0010
0001
0010
1000
,
0010
0001
1000
0000
,
0010
0001
0010
0100
,
0001
0010
0100
0000
,
1000
0010
0001
1000
,
0100
0000
0001
0000
,
1000
0100
0010
1000
,
0010
0000
0001
1000
,
0001
0010
1000
0001
,
0100
0000
1000
0000
,
0001
0100
0010
0001
,
0010
0000
1000
0001
,
1000
0100
0010
0001
,
1000
0000
0010
0100
,
0001
0000
0000
0010
0000
1000
0000
0010
,
0000
0000
0001
1000
,
0001
0100
0010
1000
,
0001
0000
0010
0100
,
1000
0000
0000
0010
0000
0001
0000
0010
,
0000
1000
1000
1000
,
0001
0101
0000
0101
,
0000
1000
1000
1000
,
1000
1100
0000
1100
,
0000
0001
0001
0001
,
0001
1001
1000
1000
,
1000
0110
0000
1001
,
0001
0010
0001
1000
,
0010
1000
0001
1000
,
0000
0101
0000
0101
,
0000
0011
0000
0011
,
0000
1100
0000
1100
,
0000
1010
0000
1010
,
0000
0110
0000
0110
,
0000
0011
0000
0011
,
0000
0101
0000
0101
,
0000
0110
0000
0110
,
1000
0010
0100
1000
,
0100
0010
1000
0000
,
0001
0010
0100
0001
,
0100
0010
0001
0000
,
1000
0100
0010
1000
,
0010
0100
1000
0000
,
0001
0100
0010
0001
,
0010
0100
0001
0000
,
2000
0100
0000
0100
,
0000
0100
0000
0100
,
3002
0100
0000
0100
,
0000
0100
0000
0100
,
2003
0010
0000
0010
,
0000
0010
0000
0010
,
3002
0010
0000
0010
,
0000
0010
0000
0010
,
2003
3020
0032
0023
,
0000
0000
0000
0000
,
0230
0302
0023
2030
,
0000
0000
0000
0000
,
3020
0230
2300
3020
,
0000
0000
0000
0000
,
0230
2300
3200
0302
,
0000
0000
0000
0000
,
1003
0100
0001
0100
,
1000
0010
0100
0000
,
0001
0010
1000
0010
,
0001
0100
0010
0000
;

//--------------- dance-single - Peter ----------------
#NOTES:
     dance-single:
     Peter:
     Medium:
     9:
     0,0,0,0,0:
0000
0000
0000
0000
,
0000
0000
0000
0000
,
0000
0000
0000
0000
,
1001
0000
0000
0011
0000
0000
0110
0000
,
0101
0000
1100
0000
2000
0000
0000
3000
,
0001
0000
0000
0001
0000
0000
0001
0000
0000
0001
0000
0000
MMMM
0000
0000
0000
,
1000
0100
0001
0100
,
0010
0000
0001
0000
1000
0010
0100
0000
,
0001
0010
1000
0010
,
0001
0000
0100
0000
0010
1000
0001
0000
,
0010
1000
0010
0100
,
0010
0001
1000
0010
,
0100
1000
0100
0010
,
0100
0001
1000
0001
,
2000
0000
3000
1000
0200
0000
0300
0100
,
0002
0003
0200
1300
,
0002
0000
0003
0001
0200
0000
0300
0100
,
2000
0000
3000
0000
0200
0000
0302
0003
,
2000
0000
3000
0100
0002
0000
0003
0100
,
0020
0030
0002
1003
,
0020
0000
0030
0100
2000
0000
3000
0100
,
0002
0003
0020
0130
,
1000
0010
0001
0010
,
1000
0000
0100
0010
,
0001
0000
0000
0100
0000
1000
0000
0100
,
0001
0000
0010
0100
,
1000
0010
0100
1000
,
0100
0000
0001
0010
,
0100
0000
0000
0001
0000
0100
0000
1000
,
0010
0000
0100
0000
0100
0100
0100
0000
,
0001
0010
1000
0010
,
0001
0000
0100
0000
0100
0100
0100
0000
,
0010
0001
0010
1000
,
0100
0000
0010
0000
0010
0010
0010
0000
,
0001
0000
1001
0000
1000
0100
1000
0100
,
1000
0110
0010
1001
,
0001
0010
0001
1000
0001
0010
0001
1000
,
0010
1000
0100
0010
0100
1000
1000
0000
,
0001
0101
0100
0110
,
0010
1010
1000
1100
,
0100
0101
0100
0110
,
0010
0011
0001
1001
,
1000
1010
0010
0110
,
0100
0101
0001
0011
,
0010
0110
0100
0101
,
0100
1100
1000
1001
,
0001
0000
0001
0001
0010
0000
0010
0010
,
0100
1000
0001
0000
,
1000
0000
1000
1000
0010
0000
0010
0010
,
0100
0001
1000
0000
,
0001
0000
0001
0001
0100
0000
0100
0100
,
0010
1000
0001
0000
,
1000
0100
0100
0100
,
0100
0010
0010
0010
0001
0000
0000
1000
,
0002
0100
0000
1000
0000
0100
0000
0010
,
0000
1000
0000
0100
0000
1000
0003
0010
,
0200
0001
0000
0010
0000
1000
0000
0010
,
0000
0001
0000
1000
0000
0001
0300
1000
,
0020
0100
0000
0001
0000
0100
0000
1000
,
0000
0001
0000
0100
0000
1000
0030
0001
,
2000
0100
0000
0001
0000
0010
0000
0001
,
0000
0100
0000
0010
0000
0001
3000
0010
,
0002
0203
0320
0032
,
0000
0010
0000
0010
,
0023
2030
3200
0320
,
0000
0001
0000
0001
,
0032
0203
2300
3200
,
0000
0010
0000
0010
,
0320
2030
3200
0320
,
0000
0100
0000
0100
,
0130
0000
0100
0100
1000
0000
1000
1000
,
0001
0100
0010
0000
,
0100
0000
0100
0100
0001
0000
0001
0001
,
1000
0100
0010
0000
;

//--------------- dance-single - Peter ----------------
#NOTES:
     dance-single:
     Peter:
     Hard:
     11:
     0,0,0,0,0:
0000
0000
0000
0000
,
0000
0000
0000
0000
,
0000
0000
0000
0000
,
1001
0000
1000
1100
0000
0000
0101
0000
,
0110
0000
0010
0000
1001
0000
1000
0000
0001
1000
0001
1000
0001
1000
0001
0000
,
1000
0000
0000
1000
0000
0000
1000
0000
0000
1000
0000
0000
MMMM
0000
0000
0000
,
1000
0000
0100
0010
1000
0010
0001
0000
,
0100
0110
0010
1010
,
1000
0000
0100
0001
0100
0010
0001
1000
,
0010
0110
0100
0101
,
0001
0010
0000
1000
0010
0001
0000
1000
,
0010
0001
0010
1010
,
1000
0100
0001
0000
1000
0010
0001
1000
,
0001
0100
0010
1000
,
0001
0000
0010
0000
0M10
0000
1000
0100
,
0000
0001
0000
0000
0100
0000
0010
0000
,
0001
0000
0100
0000
01M0
0000
1000
0010
,
0100
1000
0100
0001
,
1000
0000
0100
0000
01M0
0001
0000
0010
,
0000
0100
0001
0100
,
1000
0000
0010
0000
M010
0001
0100
1000
,
0100
0010
1000
0001
,
1000
0100
1000
0010
0100
0001
0010
0002
,
0000
0003
0000
0000
0100
0000
0010
0000
,
1000
0000
0000
0000
0000
0000
1000
0100
0000
0000
0100
0001
0000
0000
0100
0000
,
2000
3000
0010
0100
,
0001
0010
0001
0100
0010
1000
0100
2000
,
0000
3000
0000
0000
0010
0000
0100
0000
,
0001
0000
0000
0000
0000
0000
0001
0010
0000
0000
0010
1000
0000
0000
0010
0000
,
0001
0000
0000
0000
1000
0010
0000
0000
0010
0000
0010
0000
0010
0000
0000
0000
,
1000
0100
01M0
0001
,
1000
0000
0000
0000
0001
0100
0000
0000
0100
0000
0100
0000
0100
0000
0000
0000
,
0001
0010
0M10
1000
,
0001
0000
0000
0000
1000
0100
0000
0000
0100
0000
0100
0000
0100
0000
0000
0000
,
1000
0000
1001
0000
0001
0001
0100
0100
,
0010
0110
1000
1001
,
0001
0010
0001
0010
0001
0000
1000
0000
0001
0010
0001
0010
0001
0000
1000
0010
,
1000
0010
1000
0000
0001
1000
0001
1000
0001
0000
0000
0000
1001
0000
0000
0000
,
1000
0100
0000
0100
0010
0100
0000
0100
,
0001
0100
0000
0100
0010
0100
0000
0100
,
1000
0010
0000
0010
0001
0010
0000
0010
,
0100
0010
0000
0010
1000
0010
0000
0010
,
1000
0100
0000
0100
0001
0100
0000
0100
,
0010
0100
0000
0100
0001
0100
0000
0100
,
1000
0010
0000
0010
0100
0010
0000
0010
,
0001
0010
0000
0010
0100
0010
0000
0010
,
1000
0100
1000
0100
1000
0100
1000
0100
,
1000
0010
1000
0000
,
0001
0010
0001
0010
0001
0010
0001
0010
,
0001
0010
0100
0000
,
1000
0010
1000
0010
1000
0010
1000
0010
,
1000
0100
1000
0000
,
0010
0100
0001
0100
0001
0100
0001
0100
,
0001
1000
0001
1000
0001
0000
0000
1000
,
0200
0000
0010
0010
0000
0001
0001
0000
,
0010
0010
0000
1000
1000
0000
0010
0010
,
0320
0001
0001
0000
0100
0100
0000
1000
,
1000
0000
0100
0100
0000
0001
0001
0000
,
0032
1000
0000
0100
0100
0000
1000
1000
,
0000
0010
0010
0000
1000
1000
0000
0100
,
0203
0000
0010
0010
0000
1000
1000
0000
,
0010
0010
0000
0001
0001
0000
0010
0010
,
0320
0000
0002
0030
0200
0003
2000
0300
,
0001
0100
0010
0100
,
3002
0000
0020
0003
2000
0030
0020
3000
,
0100
0001
0100
1000
,
0230
0000
0002
0300
0020
0003
2000
0030
,
0001
0010
0100
0010
,
3002
0000
0200
0003
2000
0300
0200
3000
,
0010
1000
0010
0001
,
0310
1000
0010
1000
0010
1000
0010
1000
,
0001
0010
0100
0000
,
0010
0001
0010
0001
0010
0001
0010
0001
,
0010
0100
1000
0000
;

//--------------- dance-single - Peter ----------------
#NOTES:
     dance-single:
     Peter:
     Challenge:
     13:
     0,0,0,0,0:
0000
0000
0000
0000
,
0000
0000
0000
0000
,
0000
0000
0000
0000
,
1100
0000
0001
0101
0001
0000
0110
0000
,
0101
0000
0000
0001
0000
0000
1001
0000
0000
1000
0000
0000
0001
1000
0001
1000
0001
1000
0001
1000
0001
1000
0000
0000
,
0001
0000
0000
0001
0000
0000
0001
0000
0000
0001
0000
0000
MMMM
0000
0000
0000
,
1000
0000
0100
0001
0100
0010
0001
1000
,
0000
0000
0010
0000
0110
0000
0000
0001
1000
0000
0000
0000
1001
0000
0000
0000
,
1000
0000
0000
0010
0000
0000
0001
0000
0000
0000
0010
0000
0100
0000
0001
0000
,
0010
0000
0000
0000
1100
0000
0000
1000
0001
0000
1000
0000
0010
0000
0100
0000
,
1000
0100
0000
0100
0001
0010
0000
0100
,
1000
0000
0001
0000
0100
1000
0100
0001
,
1000
0100
0010
0000
1000
0010
0001
0100
,
0010
0001
0020
1030
,
0002
0000
0013
0M10
2000
0000
3100
010M
,
0020
0000
0030
0000
0002
0000
0013
1000
,
0002
0000
0103
01M0
2000
0000
3010
001M
,
0200
0300
0000
0000
0002
0000
0103
1000
,
0002
0000
0003
0100
0020
0001
0030
0001
,
0020
0000
0030
0000
0200
0000
0301
0010
,
2000
3000
0000
0010
0002
0000
1003
0010
,
0200
0300
0000
0000
0002
0000
1003
0000
,
0000
0000
0100
1000
0010
0100
0001
0010
0001
1000
0010
1000
0100
0010
0002
0000
,
0000
0003
0000
0000
0200
0000
0320
0030
,
0000
0000
0000
0000
0000
0000
0001
0010
0000
0000
0100
1000
0000
0000
0100
0001
,
2000
0000
3000
0000
0020
0000
0230
0300
,
0000
0000
0010
1000
0100
0010
0001
0100
0001
1000
0100
1000
0010
0100
0002
0000
,
0000
0003
0000
0000
0020
0000
0130
0000
,
0000
0000
0000
0000
0000
0000
0001
0100
0000
0000
0010
1000
0000
0000
0010
0001
,
2000
0000
0000
0000
3001
0100
0000
0100
0010
0000
0010
0000
0010
0000
0010
0000
,
1000
0000
0100
01M0
0001
0000
0100
01M0
1000
0000
0010
0M10
0001
0000
0010
0M10
,
1000
0000
0100
01M0
0001
0100
0000
0100
0010
0000
0010
0000
0010
0000
0010
0000
,
1000
0000
0010
0M10
0001
0000
0010
0M10
1000
0000
0100
01M0
0001
0000
0100
01M0
,
1000
0000
0010
0M10
0001
0010
0000
0010
0100
0000
0100
0000
0100
0000
0100
0000
,
1000
0000
0000
0000
1001
0000
0000
0000
1000
0100
1000
0100
1000
0010
1000
0010
,
1000
1001
0001
1001
,
1000
0100
1000
0100
1000
0000
0001
0000
0100
0010
0100
0010
0100
0000
0001
0010
,
0001
0010
0001
0000
1000
0010
1000
0010
1000
0000
0001
0000
1001
0000
0001
0000
,
1000
0100
1000
0100
0001
0100
0001
0100
,
0010
0100
0010
0100
0010
0001
0010
0001
,
1000
0010
1000
0010
0100
0010
0100
0010
,
0001
0010
0001
0010
0100
0001
0100
0001
,
1000
0100
0010
0100
1000
0100
0001
0100
,
0010
0100
1000
0100
0010
0001
0010
0001
,
1000
0010
0001
0010
1000
0010
0100
0010
,
0001
0010
1000
0010
0100
0001
0100
0001
,
0010
0010
0001
0001
1000
1000
0010
0010
,
0001
0010
1000
0000
,
0001
0001
0010
0010
1000
1000
0010
0010
,
0100
1000
0001
0000
,
1000
1000
0010
0010
0100
0100
1000
1000
,
0100
0001
0010
0000
,
1000
0010
0010
0010
0010
0010
0010
0010
,
0010
0000
0001
0000
0001
0000
0001
0000
1000
0000
0000
0000
0000
0000
0001
0100
,
0002
0000
0010
1000
0000
1000
0100
0000
,
0100
1000
0000
1000
0010
0000
0013
0100
,
2000
0100
0001
0000
0001
0010
0000
0010
,
0001
0000
0001
0100
0000
3100
0020
0000
,
0032
0100
0000
0100
1000
0000
1000
0010
,
0000
0010
1000
0000
1000
0100
0003
0100
,
0020
0000
0100
0001
0000
0001
0100
0000
,
0100
1000
0000
1000
0100
0000
0130
0001
,
2000
0000
0200
3000
0002
0300
0023
0001
,
0100
0000
0100
1000
0000
1000
0130
0000
,
0002
0000
0020
0003
2000
0030
3020
1000
,
0000
1000
0100
0000
0100
0001
0000
0031
,
2000
0000
0020
3000
0002
0030
0203
0000
,
0001
0010
0000
0010
1000
0000
1000
0310
,
0002
0000
0200
0003
2000
0300
3200
1000
,
0010
0000
0010
0001
0000
0001
0310
0000
,
1000
1000
0100
0100
0001
0001
0100
0100
,
0010
0001
1000
0000
,
0001
0001
0010
0010
1000
1000
0010
0010
,
0100
1000
0001
0000
;
