#TITLE:Blue (Da Ba Dee);
#SUBTITLE:;
#ARTIST:Eiffel 65;
#TITLETRANSLIT:;
#SUBTITLETRANSLIT:;
#ARTISTTRANSLIT:;
#GENRE:;
#CREDIT:;
#MUSIC:Blue (Da Ba Dee).ogg;
#BANNER:Blue (Da Ba Dee)-banner.png;
#BACKGROUND:Blue (Da Ba Dee)-bg.png;
#CDTITLE:;
#SAMPLESTART:15.000;
#SAMPLELENGTH:12.657;
#SELECTABLE:YES;
#OFFSET:-0.468;
#BPMS:0.000=127.989;
#STOPS:;
#BGCHANGES:;
#FGCHANGES:;

//--------------- dance-single - Cremie ----------------
#NOTES:
     dance-single:
     Cremie:
     Beginner:
     1:
     0,0,0,0,0:
0000
0000
0000
0000
,
0000
0000
0000
0000
,
0000
0000
0000
0000
,
0000
0000
0000
0000
,
1000
0000
0000
0000
,
0000
0000
0000
0000
,
1000
0000
0000
0000
,
0000
0000
0000
0000
,
0001
0000
0000
0000
,
0000
0000
0000
0000
,
0001
0000
0000
0000
,
0000
0000
0000
0000
,
0100
0000
0000
0000
,
0000
0000
0000
0000
,
0100
0000
0000
0000
,
0000
0000
0000
0000
,
0010
0000
0000
0000
,
0010
0000
0000
0000
,
0010
0000
0000
0000
,
0000
0000
0000
0000
,
1000
0000
0000
0000
,
1000
0000
0000
0000
,
1000
0000
0000
0000
,
0000
0000
0000
0000
,
0001
0000
0000
0000
,
0001
0000
0000
0000
,
0001
0000
0000
0000
,
0000
0000
0000
0000
,
0010
0000
0000
0000
,
0010
0000
0000
0000
,
0010
0000
0000
0000
,
0000
0000
0000
0000
,
0100
0000
0000
0000
,
0100
0000
0000
0000
,
0100
0000
0000
0000
,
1000
0000
1000
0000
,
1000
0000
0000
0000
,
0001
0000
0001
0000
,
0001
0000
0000
0000
,
0100
0000
0100
0000
,
0100
0000
0000
0000
,
1001
0000
0000
0000
,
0001
0000
0000
0000
,
0001
0000
0000
0000
,
0001
0000
0000
0000
,
1000
0000
1000
0000
,
1000
0000
0000
0000
,
0010
0000
0010
0000
,
0010
0000
0000
0000
,
1001
0000
0000
0000
,
1000
0000
0010
0000
,
0100
0000
0000
0000
,
0010
0000
0100
0000
,
0001
0000
0000
0000
,
1000
0000
0001
0000
,
1000
0000
0000
0000
,
0001
0000
1000
0000
,
1001
0000
0000
0000
;

//--------------- dance-single - Cremie ----------------
#NOTES:
     dance-single:
     Cremie:
     Easy:
     4:
     0,0,0,0,0:
0000
0000
0000
0000
,
0000
0000
0000
0000
,
0000
0000
0000
0000
,
0000
0000
0000
0000
,
1000
0000
1000
0000
,
1000
0000
0000
0000
,
0001
0000
0001
0000
,
0001
0000
0000
0000
,
0011
0000
0001
0000
,
0100
0000
0010
0000
,
1010
0000
1000
0000
,
0100
0000
0010
0000
,
0011
0000
0001
0000
,
0010
0000
0100
0000
,
1100
0000
1000
0000
,
0001
0000
0000
0000
,
1000
0000
1000
0000
,
1000
0000
0010
0010
,
0100
0000
0100
0000
,
0100
0000
0001
0001
,
0010
0000
0010
0000
,
0010
0000
0001
0001
,
1000
0000
1000
0000
,
1000
0000
0000
0000
,
0001
0000
0000
0000
,
0001
0000
0000
0000
,
1000
0000
1000
0000
,
0001
0001
0001
0000
,
0100
0000
0010
0000
,
0100
0100
0100
0000
,
0010
0000
1000
0000
,
0001
0001
0001
0000
,
0010
0000
0100
0000
,
1000
1000
1000
0000
,
0001
0000
0100
0000
,
0001
1000
0001
0000
,
1000
0000
0010
0000
,
1000
0100
1000
0000
,
0100
0000
1000
0000
,
0010
0100
0010
0000
,
1000
0000
0001
0000
,
1001
0000
0000
0000
,
0001
0001
0001
0000
,
1000
0000
1000
0000
,
0010
0010
0010
0000
,
0100
0000
0100
0000
,
0001
0001
0001
0000
,
1000
0000
1000
0000
,
0010
0010
0010
0000
,
0100
0000
1001
0000
,
0001
1000
0001
0000
,
1000
0010
1000
0000
,
0010
0000
0100
0000
,
0001
1000
0001
1000
,
0001
0000
0010
0000
,
0100
0000
1000
0100
,
1000
0000
0001
1000
,
0001
0000
0000
0000
;

//--------------- dance-single - Cremie ----------------
#NOTES:
     dance-single:
     Cremie:
     Medium:
     7:
     0,0,0,0,0:
0000
0000
0000
0000
,
0000
0000
0000
0000
,
0000
0000
0000
0000
,
0000
0000
0000
0000
,
1000
1000
1000
0000
,
0001
0001
0001
0000
,
0100
0100
0100
0000
,
0010
0010
0010
0000
,
1000
1000
0100
1000
,
0100
0100
0100
0000
,
0010
0001
0010
0010
,
0001
0001
0001
0000
,
0100
0001
0100
0100
,
0010
1000
0010
0000
,
1000
0001
0100
0100
,
0001
1000
0100
0000
,
0010
0001
0100
0001
,
0010
0001
0100
0000
,
0010
1000
0100
1000
,
0010
1000
0100
0000
,
1000
1000
0001
0001
,
0100
0010
0100
0000
,
0001
1000
0100
1000
,
0010
0100
0001
0000
,
0200
0300
0002
0003
,
2000
3000
0200
0300
,
1000
0100
1000
0100
,
1000
0010
2000
3000
,
0001
0100
0001
0100
,
0001
0010
0002
0003
,
1000
0010
1000
0010
,
0100
0001
0200
0300
,
0001
1000
0001
0000
,
0010
0100
0010
0100
,
1000
0000
0010
0000
1000
0000
0001
0100
,
0001
1000
0020
0030
,
1000
0000
0100
0000
1000
0000
0010
0100
,
0010
1000
0002
0003
,
0010
0000
0100
0000
1000
0000
0001
0100
,
0001
1000
0020
0030
,
0100
0010
1000
0100
,
2200
0000
0000
3300
,
1000
1000
0001
0001
,
0100
0001
0010
0000
,
0001
0001
1000
1000
,
0100
0010
0100
0000
,
1000
1000
0010
0010
,
0100
0001
0100
0000
,
0001
0001
1000
1000
,
0010
0100
0010
0000
,
1000
0100
1000
0010
,
0100
0010
1000
0000
,
0001
0100
0001
0010
,
0001
0100
0001
0000
,
1000
0100
0010
0001
,
0010
0100
1000
0000
,
0010
0100
0010
1000
,
1001
0000
0000
0000
;

//--------------- dance-single - Cremie ----------------
#NOTES:
     dance-single:
     Cremie:
     Hard:
     9:
     0,0,0,0,0:
0000
0000
0000
0000
,
0000
0000
0000
0000
,
0000
0000
0000
0000
,
0000
0000
0000
0000
,
1000
1000
0001
0001
,
0100
0100
0001
0001
,
0010
0010
0100
0100
,
1000
1000
1001
0000
,
0001
0000
0100
0001
0100
0000
0001
0200
,
0000
0000
0310
1000
0200
0000
0310
0001
,
2000
0000
3001
1000
0001
0000
1000
0020
,
0000
0000
0130
0001
0020
0000
0130
0010
,
0002
0000
1003
0100
1000
0000
1000
0002
,
0000
0000
0103
0001
0020
0000
0130
1000
,
0020
0000
0130
0001
0100
0000
0001
0020
,
1000
0000
0100
0000
0031
0000
0100
0001
,
1000
0000
0010
1000
0100
0000
1000
0100
,
0000
1000
0010
1000
0010
0000
0101
0000
,
0001
0000
0010
0001
0010
0000
0001
0100
,
0000
0010
0100
0010
0100
0000
1010
0000
,
1000
0000
0100
1000
0001
0000
1000
0001
,
0000
0100
0010
0100
0010
0000
0101
0000
,
0001
0000
0100
0010
0100
0000
0002
1000
,
0000
0010
0000
1000
0000
0100
0000
0003
,
1000
0010
1000
0000
0010
1000
0010
0000
,
0100
0001
0100
0000
0001
0100
0001
0000
,
1000
0100
0010
0001
,
0100
0010
0100
0000
0010
0000
0110
0000
,
0001
0010
0100
1000
,
0010
1000
0010
1000
0000
0000
1100
0000
,
1000
0001
0010
0001
,
0100
0010
0100
0000
0001
0000
1001
0000
,
1000
0100
1000
0010
,
0100
0001
0100
0001
0000
0000
0011
0000
,
0001
0000
0100
0000
0010
1000
0010
0000
,
1000
0010
1000
0000
0001
0000
1001
0000
,
1000
0000
0100
0000
0010
0001
0010
0000
,
0001
1000
0001
1000
0000
0000
1001
0000
,
0001
0000
0100
0000
0001
1000
0001
0000
,
1000
0010
1000
0000
0100
0000
0110
0000
,
0010
0000
0001
0000
0100
0001
0100
0000
,
0010
1000
0010
1000
0000
0000
0100
0000
,
1100
0000
1000
0010
1000
0000
0100
1000
,
0000
0001
0100
0001
0100
0000
0001
1000
,
0001
0000
1000
0100
1000
0000
0100
0010
,
0000
0001
0010
0001
0010
0000
0001
0100
,
0001
0000
0100
0010
0100
0000
0010
1000
,
0000
0100
1000
0100
1000
0000
0001
1000
,
0001
0000
1000
0010
1000
0000
0001
0200
,
1000
0010
0301
0101
,
0001
0000
1000
0100
0010
0000
0100
1000
,
0000
0001
0010
0100
1000
0000
0001
0100
,
0001
0000
0100
0010
1000
0000
0100
1000
,
0000
0100
0010
0001
1000
0000
0001
0100
,
0001
0000
1000
0001
0100
0000
0001
0010
,
0000
0001
0100
0010
1000
0000
0100
1000
,
0100
0000
1000
0100
0010
0000
0002
2000
,
0000
3003
0000
0000
;

//--------------- dance-single - Cremie ----------------
#NOTES:
     dance-single:
     Cremie:
     Challenge:
     11:
     0,0,0,0,0:
0000
0000
0000
0000
,
0000
0000
0000
0000
,
0000
0000
0000
0000
,
0000
0000
0000
0000
,
0101
0000
0001
1000
0100
1000
0001
0010
,
MMMM
0010
1000
0100
0010
MMMM
0010
1000
,
0001
0100
0010
0001
0010
1000
0002
2000
,
0000
0000
3003
0000
MMMM
0000
1000
0001
1000
0000
0001
0000
0110
0000
MMMM
0000
,
1000
0010
0100
0010
1000
0001
0010
0100
,
MMMM
0100
0001
1000
0010
MMMM
0010
0001
,
1000
0100
0001
0100
1000
0001
0100
0010
,
MMMM
0010
0001
1000
0100
MMMM
0100
0001
,
1000
0100
0001
1000
0010
0001
1000
0100
,
MMMM
0100
0001
0100
0010
MMMM
0010
0001
,
0100
MMMM
0100
1000
0001
0010
0200
2000
,
0000
0000
3300
0000
MMMM
0000
1000
0001
1000
0000
0001
0000
0011
0000
MMMM
0000
,
0001
0100
0010
1000
0001
0010
0100
0010
,
MMMM
0010
1000
0001
0100
MMMM
0100
0010
,
0001
1000
0100
0010
0001
1000
0010
0100
,
MMMM
0100
1000
0001
0010
MMMM
0010
1000
,
0100
1000
0001
0010
1000
0001
0100
0010
,
MMMM
0010
1000
0001
0100
MMMM
0100
1000
,
0001
1000
0010
0001
0010
1000
0001
0200
,
0000
0010
0000
0010
0000
0310
MMMM
0000
,
1000
1100
0001
0101
,
1000
0000
0000
0000
1010
0000
0000
0000
0001
0000
0010
0000
0100
1000
0000
1000
,
0001
0100
0001
0010
0100
1000
0010
1000
,
0001
0100
0020
0000
0130
0001
1001
0000
,
MMMM
1000
0001
0010
0100
0010
MMMM
0010
,
1000
0001
0100
0020
1000
0030
1001
0000
,
0001
1000
0001
0100
0001
0010
1000
0010
,
0100
2000
0002
3000
0103
0001
0011
0000
,
MMMM
0001
0100
0001
1000
0010
MMMM
0010
,
0001
0100
0020
2000
0030
3100
0110
MMMM
,
0010
0001
0010
0100
1000
0010
0001
0010
,
0100
0000
0001
0000
1000
0000
MMMM
0000
0001
1000
0001
0000
0101
0000
MMMM
0000
,
0001
1000
0010
1000
0001
0010
MMMM
0010
,
1000
0001
1000
0200
0010
0300
1001
MMMM
,
1000
0010
0100
0001
1000
0001
0010
1000
,
0010
0000
0001
0000
0100
0000
MMMM
0000
0100
1000
0100
0000
1100
0000
MMMM
0000
,
1000
0001
0100
1000
0100
0010
MMMM
0010
,
0001
0000
0010
0000
0100
0000
1000
0001
1000
0000
0000
0000
MMMM
0000
0000
0000
,
1000
0001
0100
0001
0010
1000
0010
0100
,
MMMM
0100
0001
1000
0010
MMMM
0010
0001
,
0100
MMMM
0100
1000
0001
0010
1000
0010
,
MMMM
0010
1000
0001
0100
MMMM
0100
1000
,
0001
1000
0100
1000
0010
0001
0010
0100
,
MMMM
0100
1000
0001
0010
MMMM
0010
1000
,
0100
MMMM
0100
0001
1000
0010
0001
0020
,
1000
0000
0100
0000
0001
0030
MMMM
0000
,
0100
0001
0010
1000
0001
0100
1000
0010
,
MMMM
0010
0100
1000
0100
MMMM
0100
0001
,
0010
MMMM
0010
1000
0100
0010
0001
0100
,
MMMM
0100
1000
0001
0010
MMMM
0010
1000
,
0100
1000
0010
0001
1000
0100
0001
0010
,
MMMM
0010
0100
0001
0100
MMMM
0100
1000
,
0010
MMMM
0010
0001
1000
0100
1000
2002
,
0000
3003
0000
0000
;
