#TITLE:Bloody Tears;
#SUBTITLE:(IIDX EDITION);
#ARTIST:DJ YOSHITAKA;
#TITLETRANSLIT:;
#SUBTITLETRANSLIT:;
#ARTISTTRANSLIT:;
#GENRE:HARD RENAISSANCE;
#CREDIT:;
#MUSIC:Bloody Tears (IIDX EDITION).ogg;
#BANNER:Bloody Tears (IIDX EDITION).png;
#BACKGROUND:Bloody Tears (IIDX EDITION)-bg.png;
#CDTITLE:;
#SAMPLESTART:38.348;
#SAMPLELENGTH:15.000;
#SELECTABLE:YES;
#OFFSET:1.005;
#BPMS:0.000=170.000;
#STOPS:240.000=1.059;
#BGCHANGES:0.000=Bloody Tears (IIDX EDITION).avi=1.000=0=0=0=StretchNoLoop====,
99999.000=-nosongbg-=1.000=0=0=0=StretchNoLoop====
;
#FGCHANGES:;

//--------------- dance-single - P1989 ----------------
#NOTES:
     dance-single:
     P1989:
     Beginner:
     3:
     0,0,0,0,0:
0000
0000
0000
0000
,
0000
0000
0000
0000
,
0000
0000
0000
0000
,
0000
0000
0000
0000
,
0000
0000
0000
0000
,
1000
0000
0000
0000
,
1000
0000
0000
0000
,
0001
0000
0000
0000
,
0100
0000
0000
0000
,
1001
0000
0000
0000
,
0001
0000
0000
0000
,
0010
0000
0000
0000
,
0001
0000
0000
0000
,
0100
0000
0000
0000
,
0010
0000
0000
0000
,
1000
0000
1000
0000
,
0001
0000
0001
0000
,
0010
0000
0000
0000
,
1001
0000
0000
0000
,
0000
0000
0000
0000
,
1000
0000
0000
0000
,
0000
0000
0000
0000
,
1001
0000
0000
0000
,
0000
0000
0000
0000
,
0001
0000
0000
0000
,
0001
0000
0000
0000
,
0010
0000
0000
0000
,
0100
0000
0100
0000
,
1001
0000
0000
0000
,
1000
0000
0010
0000
,
0100
0000
0000
0000
,
0001
0000
0010
0000
,
0100
0000
0000
0000
,
1000
0000
0001
0000
,
0100
0000
0000
0000
,
0001
0000
1000
0000
,
0100
0000
0100
0000
,
0100
0000
0010
0000
,
0001
0000
0001
0000
,
0001
0000
0100
0000
,
0010
0000
0010
0000
,
0010
0000
1000
0000
,
0100
0000
0100
0000
,
0100
0000
0010
0000
,
1001
0000
0000
0000
,
1000
0000
0000
0000
,
0010
0000
0000
0000
,
1000
0000
0000
0000
,
0100
0000
0000
0000
,
0010
0000
0000
0000
,
0001
0000
0001
0000
,
0100
0000
0001
0000
,
1000
0000
0000
0000
,
0000
0000
0000
0000
,
0100
0000
0000
0000
,
0000
0000
0000
0000
,
0010
0000
0000
0000
,
0000
0000
0000
0000
,
0001
0000
0000
0000
,
0100
0000
0000
0000
,
0000
0010
0000
1000
,
0000
1001
0000
0000
,
0000
0001
0000
0010
,
0000
1001
0000
0000
,
0000
1000
0000
0100
,
0000
1001
0000
0000
,
0000
0001
0000
0100
,
0000
1001
0000
0000
,
0000
1000
0000
1000
,
0000
1000
0000
0010
,
0000
0100
0000
0100
,
0000
0100
0000
0001
,
0000
0010
0000
0010
,
0000
0010
0000
0100
,
0000
1000
0000
1000
,
0000
1000
0000
0010
;

//--------------- dance-single - P1989 ----------------
#NOTES:
     dance-single:
     P1989:
     Easy:
     7:
     0,0,0,0,0:
0000
0000
0000
0000
,
0000
0000
0000
0000
,
0000
0000
0000
0000
,
0000
0000
0000
0000
,
0000
0000
0000
0000
,
0001
0000
1000
0000
,
0010
0100
0010
0100
,
0001
0000
1000
0000
,
0100
0010
0100
0010
,
0001
0000
0100
0010
,
1000
0001
1000
0001
,
0010
0000
0100
0010
,
0001
1000
0001
1000
,
0010
0000
0100
0001
,
0010
0100
0010
0100
,
1000
1000
0001
0001
,
0100
0010
0100
0000
,
2002
0000
0000
3003
,
0001
0000
0000
0000
,
0100
0000
0000
0000
,
0010
0000
0000
0000
,
1000
0000
0001
0000
,
2002
0000
0000
0000
,
0000
0000
3003
0000
,
0110
0000
1001
0000
,
1000
1000
0001
0001
,
0010
0000
0100
0100
,
1000
0000
0001
0000
1000
0001
0000
0000
,
0100
0001
0010
0000
,
0110
0000
0100
1000
,
0001
1000
0010
0000
,
0110
0000
0100
0001
,
1000
0100
0010
0000
,
1001
0000
1000
0010
,
0100
0001
0010
0000
,
1001
0000
0001
0000
,
0100
0000
0000
0100
0000
0000
0000
0000
0010
0000
0000
0010
0000
0000
0000
0000
,
0100
0000
0000
0100
0000
0000
0000
0000
0001
0000
0000
0000
0000
0000
0000
0000
,
1000
0000
0000
1000
0000
0000
0000
0000
0001
0000
0000
0001
0000
0000
0000
0000
,
1000
0000
0000
1000
0000
0000
0000
0000
0100
0000
0000
0000
0010
0000
0000
0000
,
0001
0000
0000
0001
0000
0000
0000
0000
0100
0000
0000
0100
0000
0000
0000
0000
,
0001
0000
0000
0001
0000
0000
0000
0000
1000
0000
0000
0000
0010
0000
0000
0000
,
1000
0000
0000
1000
0000
0000
0000
0000
0100
0000
0000
0100
0000
0000
0000
0000
,
1000
0000
0000
1000
0000
0000
0000
0000
0010
0000
0000
0000
0000
0000
0000
0000
,
0110
0000
0100
0000
,
0001
1000
0001
1000
,
0100
0000
0010
0000
,
0001
1000
0001
1000
,
0001
0000
0100
0000
,
0010
0100
0010
0100
,
0001
0001
1000
1000
,
0100
0010
0100
0010
,
0002
0000
0000
0003
,
0200
0000
0000
0300
,
0020
0000
0000
0000
,
1030
0000
0000
0000
,
2000
0000
0000
3000
,
0200
0000
0000
0300
,
0020
0000
0000
0030
,
0002
0003
2000
3000
,
0000
0001
0100
0010
,
1000
1001
0000
0001
,
0010
0001
1000
0010
,
0100
0110
0000
0010
,
1000
0001
0010
0100
,
1000
1001
0000
1000
,
0001
0100
0001
0010
,
0100
0110
0000
0010
,
0001
0000
0000
0000
1000
0000
0000
1000
0000
0000
0000
0000
0010
0000
0000
0010
,
0000
0000
0000
0000
0100
0000
0000
0100
0000
0000
0000
0000
0001
0000
0000
0000
,
0010
0000
0000
0000
0001
0000
0000
1000
0000
0000
0000
0000
0001
0000
0000
1000
,
0000
0000
0000
0000
0001
0000
0000
1000
0000
0000
0000
0000
0010
0000
0000
0000
,
0100
0000
0000
0000
0001
0000
0000
0001
0000
0000
0000
0000
0010
0000
0000
0010
,
0000
0000
0000
0000
0100
0000
0000
0100
0000
0000
0000
0000
1000
0000
0000
0000
,
0010
0000
0000
0000
1000
0000
0000
0001
0000
0000
0000
0000
1000
0000
0000
0001
,
0000
0000
0000
0000
1000
0000
0000
0001
0000
0000
0000
0000
0010
0000
0000
0000
,
0100
0000
0000
0000
;

//--------------- dance-single - chronon ----------------
#NOTES:
     dance-single:
     chronon:
     Medium:
     12:
     0,0,0,0,0:
0000
0000
0000
0000
,
0000
0000
0000
0000
,
0000
0000
0000
0000
,
0000
0000
0000
0000
,
0000
0000
0000
0000
,
1000
0010
0100
0001
,
1000
0100
0010
0000
0010
0100
1000
0000
,
0001
0100
0010
1000
,
0002
0010
0000
0010
0000
1000
0000
0103
,
0101
0000
0100
1000
0100
0000
0100
0010
,
0100
0000
0100
0001
0010
0000
0010
0100
,
0010
0000
0010
1000
0010
0000
0010
0100
,
0010
0000
0010
0001
0100
0010
1000
0000
,
0100
0000
0100
0001
0100
0000
0100
0010
,
0100
0000
0100
1000
0010
0000
0010
0100
,
0001
0001
1000
0010
1000
1000
0001
0010
,
0001
0010
0100
1000
0001
1000
0010
0000
,
2002
0000
0000
3003
,
1000
0010
0100
0000
0100
0001
1000
0000
,
0001
0010
0100
0000
0010
0000
0001
1000
,
0001
0100
0010
0000
0010
1000
0001
0000
,
1000
0100
0010
0000
0100
0000
0100
0000
,
1100
1000
0001
0000
0001
1000
0010
0000
,
0100
0001
0010
0000
0100
0000
1000
0001
,
0101
0000
0001
1000
1100
0000
1000
0001
,
1001
0000
1001
0000
1001
1000
0100
0010
,
0001
1000
0100
1000
0001
1000
0010
0000
,
1000
0000
1000
0000
0010
0000
0010
0000
0100
0000
0010
0100
0000
0000
0000
0000
,
0001
0000
1000
0100
0000
0000
0010
0000
0100
0000
1000
0000
0001
0000
1000
0000
,
0020
0000
0130
0000
0010
0100
0001
0000
,
1000
0000
0001
0010
0000
0000
0100
0000
0010
0000
0001
0000
1000
0000
0001
0000
,
0200
0000
0310
1000
0100
0000
0010
0001
,
1000
0000
0001
0100
0000
0000
0010
0000
0100
0000
0001
0000
1000
0000
0001
0000
,
0020
0000
0130
0000
0010
0100
1000
0000
,
0001
0000
1000
0010
0000
0000
0100
0000
0010
0000
1000
0000
0001
0000
1000
0000
,
0200
0000
0310
0000
0100
1000
0010
0100
,
0101
0000
0000
0100
0000
0000
0010
0000
0101
0000
0000
0100
0000
0000
0010
0000
,
0101
0000
0000
0100
0000
0000
0010
0000
0001
0000
0010
0000
1000
0000
0000
0000
,
0100
0000
0000
0002
0000
0000
0103
0000
0010
0000
0000
2000
0000
0000
3010
0000
,
0100
0000
0000
0002
0000
0000
0103
0000
0010
0000
0001
0000
1000
0000
0010
0000
,
1010
0000
0000
0010
0000
0000
0100
0000
1010
0000
0000
0010
0000
0000
0100
0000
,
1010
0000
0000
0010
0000
0000
0100
0000
1000
0000
0100
0000
0001
0000
0010
0000
,
0100
0000
0000
0002
0000
0000
0103
0000
0010
0000
0000
2000
0000
0000
3010
0000
,
0100
0000
0000
0002
0000
0000
0103
0000
0010
0000
0001
0000
0100
0000
0000
0000
,
0001
0100
0010
1000
,
0001
1000
0100
0000
0100
1000
0001
0000
,
1000
0010
0100
0001
,
1000
0001
0010
0000
0010
0001
1000
0000
,
0001
0010
0100
1000
,
0001
1000
0010
0000
0010
1000
0001
0000
,
1000
1000
0001
0100
0001
0001
1000
0100
,
1000
0100
0010
0001
1000
0001
0200
0000
,
0302
0000
0203
0000
,
1000
0320
2030
0000
,
3200
0000
0000
0000
,
0001
0000
0000
0000
,
2300
0000
3200
0000
,
0001
0320
0032
0000
,
0203
0000
0000
0000
,
1000
0000
0320
0000
,
0000
0000
0030
0000
1000
0000
0001
0010
0000
0010
0100
0000
0010
0000
0001
0000
,
1000
0000
0001
0000
0200
0000
0000
0310
0000
0000
0010
0000
0100
0000
0010
0000
,
1000
0000
0000
0000
0001
0000
1000
0100
0000
0100
0010
0000
0100
0000
1000
0000
,
0001
0000
1000
0000
0020
0000
0000
0130
0000
0000
0001
0000
0010
0000
0000
0100
,
0000
0000
1000
0000
0001
0000
1000
0010
0000
0010
0100
0000
0010
0000
1000
0000
,
0001
0000
1000
0000
0200
0000
0000
0310
0000
0000
0010
0000
0100
0000
0010
0000
,
0001
0000
0000
0000
1000
0000
0001
0100
0000
0100
0010
0000
0100
0000
0001
0000
,
1000
0000
0001
0000
0020
0000
0000
0130
0000
0000
0100
0000
0010
0000
0001
0000
,
1000
0000
0100
0000
1100
0000
0000
1000
0000
0000
0001
0000
1010
0000
0000
1000
,
0000
0000
0001
0000
1100
0000
0000
0100
0000
0000
0010
0000
1000
0000
0010
0000
,
0001
0000
0000
0000
0100
0000
0000
2000
0000
0000
3100
0000
0010
0000
0000
0002
,
0000
0000
0013
0000
0100
0000
0000
2000
0000
0000
3100
0000
0010
0000
1000
0000
,
0001
0000
0010
0000
0011
0000
0000
0001
0000
0000
1000
0000
0101
0000
0000
0001
,
0000
0000
1000
0000
0011
0000
0000
0010
0000
0000
0100
0000
0001
0000
0100
0000
,
1000
0000
0000
0000
0010
0000
0000
0002
0000
0000
0013
0000
0100
0000
0000
2000
,
0000
0000
3100
0000
0010
0000
0000
0002
0000
0000
0013
0000
0100
0000
0001
0000
,
0010
0000
0000
0000
;

//--------------- dance-single - chronon+P1989 ----------------
#NOTES:
     dance-single:
     chronon+P1989:
     Hard:
     16:
     0,0,0,0,0:
0000
0000
0000
0000
,
0000
0000
0000
0000
,
0000
0000
0000
0000
,
0000
0000
0000
0000
,
0000
0000
0000
0000
,
0001
1100
1000
0102
,
1003
0010
0100
0010
1000
0010
0100
0010
,
1000
0011
0001
2010
,
3001
0020
0000
0230
0000
0320
0000
0130
,
1000
0000
1000
0010
0001
0000
0001
0010
,
0100
0001
0010
0001
1000
0001
0100
0100
,
0001
0000
0001
0010
1000
0000
1000
0010
,
0100
1000
0010
1000
0001
1000
0100
0100
,
1000
0000
1000
0010
0001
0000
0001
0010
,
1000
0100
0010
0100
0001
0100
0010
0010
,
0001
0100
0001
0001
1000
0100
1000
1000
,
0001
0100
0010
0100
0001
1000
0010
1000
0001
0010
0100
1000
0010
0000
0000
0000
,
2002
0000
0000
3003
,
1000
0010
0100
0010
1000
0100
0010
0100
,
0010
0001
0100
0010
0100
0001
1000
0001
,
0001
0100
0010
0100
0001
0010
0100
0010
,
0100
1000
0010
0100
0010
1000
0001
0000
,
1001
1000
0100
0010
0100
1000
0001
1000
,
0001
0100
1000
0100
0001
1000
0001
0010
,
0011
0000
0001
0100
0102
0000
1003
0100
,
1100
0000
0110
0000
0011
0001
1000
1000
,
0001
0000
0100
0001
1000
0000
0010
1000
0001
0010
0100
0010
0001
1000
0000
1000
,
0001
0100
0010
1000
0001
0100
0010
1000
0001
0010
0100
1000
0000
0000
0001
1000
,
0001
0000
0010
0001
0000
0010
0100
0000
1000
0000
0010
0000
0100
0000
0001
0000
,
0012
0000
0013
0100
0000
1000
0001
1000
0001
0100
0010
0000
1000
0000
0001
0000
,
0010
0000
0100
0010
0000
0001
1000
0001
1000
0010
0100
0000
0001
1000
0100
0000
,
0210
0000
0310
0001
0000
1000
0001
0100
0001
0000
0100
0010
0000
1000
0010
0000
,
0100
0000
0001
1000
0000
0100
0010
0100
0010
0001
1000
0000
0100
0000
1000
0000
,
2010
0000
3010
0100
0000
0001
0100
0001
1000
0100
1000
0000
0010
0000
0100
0000
,
0001
0000
1000
0100
0000
0010
0001
1000
0010
1000
0001
0000
0100
0010
1000
0000
,
2001
0000
3001
0010
0000
0100
0010
0000
0001
0000
1000
0000
0010
0000
0001
0000
,
0021
0000
0000
0100
0000
0000
1030
0000
0102
0000
0000
1000
0000
0000
0013
0000
,
0021
0000
0000
0001
0000
0000
0130
0000
0001
0000
0100
0000
1000
0000
0001
0000
,
1000
0000
0100
0002
0000
0103
0010
0000
0001
0000
0100
2000
0000
3100
0010
0000
,
1000
0000
0010
0002
0000
0013
0100
0000
0001
0000
0010
0000
0100
0001
0000
0000
,
0201
0000
0000
0010
0000
0000
1300
0000
0012
0000
0000
1000
0000
0000
0103
0000
,
0201
0000
0000
0001
0000
0000
0310
0000
0001
0000
0010
0000
1000
0000
0001
0000
,
1000
0000
0010
0002
0000
0013
0100
0000
0001
0000
0010
2000
0000
3010
0100
0000
,
1000
0000
0100
0002
0000
0103
0010
0000
0001
0000
0100
0000
0020
0001
0000
0000
,
1030
0000
0010
1000
0010
0100
0001
0000
,
2000
0100
3002
0100
2003
0100
3002
0100
,
1003
0000
0001
0010
0001
1000
0100
0000
,
2000
0010
3002
0010
2003
0010
3002
0010
,
1003
0000
0001
0100
0010
1000
0001
0000
,
0020
0001
0230
1000
0320
0001
0230
1000
,
0310
0001
0100
0100
0010
1000
0100
0100
,
1000
0100
0010
0100
1000
0001
0100
0001
1000
0100
0010
0001
0200
0000
0000
0000
,
0310
0100
0001
1000
0100
0000
0020
0000
,
1000
0000
0130
1000
0010
0000
1000
0010
,
0200
0000
0000
0000
,
1000
0000
0302
0000
,
0013
0100
1000
0001
0100
0000
0020
0000
,
0001
0000
0130
0001
0010
0000
0001
0010
,
0200
0000
0000
0000
0000
0000
0310
0100
,
0001
0100
1000
0000
0001
1000
0010
2000
,
0000
0000
3000
0000
0001
0000
1000
0001
0000
0010
0100
0000
1000
0000
0010
0000
,
0001
0000
0010
0000
0120
0000
0130
0001
0000
0010
0100
1000
0010
1000
0100
0000
,
0010
0000
0001
0000
0100
0000
0010
1000
0000
0001
0010
0001
1000
0100
1000
0001
,
0010
0001
1000
0000
2010
0000
3010
0100
0000
0001
0010
0001
0100
0000
0010
1000
,
0000
0100
0010
0001
1000
0000
0010
0100
0000
0001
0010
0000
0100
1000
0001
0100
,
0001
1000
0100
0000
0210
0000
0310
0001
0000
1000
0010
0100
0001
1000
0100
0000
,
0010
0000
0001
0000
0100
0000
0010
1000
0000
0100
0010
0001
0010
0100
1000
0001
,
0100
0010
1000
0000
2100
0000
3100
0010
0000
0100
1000
0001
0010
0000
0001
0000
,
0100
0000
1000
0000
1200
0000
0000
0010
0000
0000
0301
0000
0021
0000
0000
0100
,
0000
0000
1030
0000
1020
0000
0000
0100
0000
0000
0130
0000
0001
0000
0100
0000
,
1000
0000
0001
0000
1000
0000
0010
0002
0000
0013
1000
0000
0001
0000
0010
2000
,
0000
3010
0001
0000
1000
0000
0100
0002
0000
0103
1000
0000
0001
0000
0100
0000
,
0010
0001
0000
0000
0021
0000
0000
0100
0000
0000
1030
0000
1200
0000
0000
0010
,
0000
0000
0301
0000
0201
0000
0000
0010
0000
0000
0310
0000
1000
0000
0010
0000
,
0001
0000
1000
0000
0001
0000
0100
2000
0000
3100
0001
0000
1000
0000
0100
0002
,
0000
0103
1000
0000
0001
0000
0010
2000
0000
3010
0001
0000
1000
0000
0010
0000
,
0100
1000
0000
0000
0000
0000
0000
0000
0000
0000
0000
0000
0000
0000
0000
0000
;
