#VERSION:0.83;
#TITLE:Blend W;
#SUBTITLE:;
#ARTIST:MowtenDoo;
#TITLETRANSLIT:;
#SUBTITLETRANSLIT:;
#ARTISTTRANSLIT:;
#GENRE:;
#CREDIT:;
#MUSIC:Blend W.ogg;
#BANNER:Blend W-bn ITG.png;
#BACKGROUND:Blend W-bg.png;
#CDTITLE:;
#SAMPLESTART:46.476;
#SAMPLELENGTH:12.632;
#SELECTABLE:YES;
#OFFSET:0.892;
#BPMS:0.000=152.000;
#STOPS:;
#BGCHANGES:1.250=Blend W.mp4=1.000=0=0=0=StretchNoLoop====,
99999.000=-nosongbg-=1.000=0=0=0=StretchNoLoop====
;
#FGCHANGES:;

//--------------- dance-single - chrononical ----------------
#NOTEDATA:;
#STEPSTYPE:dance-single;
#DESCRIPTION:chrononical;
#DIFFICULTY:Beginner;
#METER:2;
#RADARVALUES:0,0,0,0,0;
#CREDIT:chrononical;
#NOTES:
0000
0000
0000
0000
,
0000
0000
0000
0000
,
0000
0000
0000
0000
,
0000
0000
0000
0000
,
0001
0000
1000
0000
,
0001
0000
0100
0000
,
0020
0000
0000
0030
,
1000
0000
0100
0000
,
0010
0000
0001
0000
,
1000
0000
0010
0000
,
0010
0000
0010
0000
,
0100
0000
0001
0000
,
2000
0000
0000
3000
,
1001
0000
0000
0000
,
1001
0000
0000
0000
,
1001
0000
0000
0000
,
1001
0000
0000
0000
,
0001
0000
0020
0030
,
0000
0000
0200
0300
,
0000
0000
2000
3000
,
0001
0000
1000
0000
,
0001
0000
0100
0000
,
0010
0000
0000
0000
,
1000
0000
0100
0000
,
0010
0000
0000
0000
,
0001
0000
1000
0000
,
0001
0000
0000
0000
,
0100
0000
0100
0000
,
0100
0000
0000
0000
,
2002
0000
0000
0000
,
3003
0000
0000
0000
,
1000
0000
0100
0000
,
0010
0000
0000
0000
,
0001
0000
0100
0000
,
0010
0000
0000
0000
,
1000
0000
0001
0000
,
1000
0000
0100
0000
,
0010
0000
0001
0000
,
1000
0001
1000
0000
,
0001
0000
0100
0000
,
0010
0000
0000
0000
,
1000
0000
0100
0000
,
0010
0000
0000
0000
,
0001
0000
1000
0000
,
0001
0000
1000
0000
,
0001
0000
0010
0000
,
0100
0000
0000
0000
,
1000
0000
0100
0000
,
0001
0000
0010
0000
,
1000
0000
0100
0000
,
0010
0000
0001
0000
,
1000
0000
0010
0000
,
0001
0000
0100
0000
,
1000
0000
0001
0000
,
1000
0000
0000
0000
,
0001
0000
1000
0000
,
0002
0000
0000
0000
,
0003
0000
0000
0000
;

//--------------- dance-single - chrononical ----------------
#NOTEDATA:;
#STEPSTYPE:dance-single;
#DESCRIPTION:chrononical;
#DIFFICULTY:Easy;
#METER:5;
#RADARVALUES:0,0,0,0,0;
#CREDIT:chrononical;
#NOTES:
0000
0000
0000
0000
,
0000
0000
0000
0000
,
0000
0000
0000
0000
,
0000
0000
0000
0001
,
1000
0001
1000
0100
,
0010
0001
1000
0010
,
0001
0010
1000
0010
,
0100
0001
0010
0100
,
0001
0100
0010
0100
,
1000
0001
0100
2000
,
3100
0002
0103
2000
,
3100
0010
0010
0100
,
0000
0020
0000
0000
0000
0000
0030
0000
,
1000
0100
0010
0001
,
1000
0010
0100
0010
,
1000
0001
1000
0100
,
0010
0001
1000
0001
,
1000
0010
0002
0013
,
1000
0100
0002
0103
,
1000
0010
0002
0013
,
1000
0000
0100
0000
,
0001
0100
0010
0100
,
1000
0001
0100
0010
,
0001
0010
0100
0010
,
1000
0001
1000
1000
,
1000
0100
0010
0001
,
1000
0010
0100
0000
,
0001
0000
0010
0000
0100
0000
0000
1000
,
0000
0010
0100
0000
,
2002
0000
0000
0000
,
3003
0000
0000
0000
,
0002
0000
0013
0100
,
1000
0001
1000
0010
,
0100
0000
0100
0001
,
0010
0100
1000
0001
,
1000
0010
0100
0010
,
1000
0100
0010
1000
,
0010
0001
1000
0001
,
0100
0010
0100
0001
,
2000
0000
3100
0010
,
0001
1000
0001
0100
,
0010
0000
0010
0100
,
1000
0100
0001
1000
,
0001
0010
0100
0100
,
1000
0010
0100
0100
,
0001
0000
1000
0000
0001
0000
0000
0010
,
0000
0001
1000
0001
,
1000
0010
0100
0001
,
1000
0100
0001
0100
,
0110
0000
1001
0000
,
0110
0000
1001
0000
,
0001
0100
0010
1000
,
0001
0010
1000
0010
,
0001
1000
0001
0100
,
0001
0100
0010
1000
,
1000
0001
1000
0100
,
0000
0020
0000
0000
0000
0000
0000
0000
,
0030
0000
0000
0000
;

//--------------- dance-single - chrononical ----------------
#NOTEDATA:;
#STEPSTYPE:dance-single;
#DESCRIPTION:chrononical;
#DIFFICULTY:Medium;
#METER:9;
#RADARVALUES:0,0,0,0,0;
#CREDIT:chrononical;
#NOTES:
0000
0000
0000
0000
,
0000
0000
0000
0000
,
0000
0000
0000
0000
,
0000
0000
0000
1000
,
0020
1030
0200
0310
,
0001
1000
0001
0000
0100
0010
1000
0000
,
0001
0010
0100
1000
0001
1000
0001
0000
,
1000
0001
1000
0000
0010
0100
0001
0000
,
0101
0011
0110
1100
,
1000
0100
0010
0000
0100
0000
0002
0003
,
0001
0000
0200
0300
0010
0000
2000
3000
,
0010
0001
1000
0000
0010
1000
0001
0000
,
0000
0000
0100
0000
0000
0100
0000
0000
0200
0000
0000
0000
0000
0000
0000
0000
,
0301
0100
0010
1000
,
0001
0010
0100
1000
,
0100
0000
0010
0000
0001
1000
0001
0000
,
0100
0010
1000
0001
,
1000
0100
0002
0103
,
1000
0010
0002
0013
,
1000
0100
0002
0103
,
0110
0000
0011
0010
,
1000
0000
0000
0010
0000
0000
0001
0000
1000
0000
0000
0010
0000
0000
0001
0000
,
0010
0100
0001
1000
0001
0000
0100
0000
,
1000
0000
0000
0100
0000
0000
0001
0000
1000
0000
0000
0100
0000
0000
0001
0000
,
0100
0010
0001
1000
1001
0000
1001
0000
,
1000
0020
0100
0000
1030
0020
0100
0000
,
1030
0001
0010
0100
,
0110
0000
1100
0000
1001
0000
1000
1010
,
0000
0000
0000
0000
0110
0000
0000
0000
0101
0000
0000
0001
0000
0000
0010
0000
,
0100
0000
1000
0000
0100
0000
0000
0000
1000
0000
0000
0001
0000
0000
1000
0000
,
2002
0000
0000
3003
,
0001
0000
0010
0000
0100
0000
0000
0000
1000
0000
0000
0010
0000
0000
0200
0000
,
0001
0010
1000
0301
,
0101
0000
0000
0000
0001
0000
0010
0000
0100
0000
0000
0010
0000
0000
0100
0000
,
0001
0100
1000
0001
,
1000
0010
0100
0000
0010
0100
0001
0000
,
1000
0001
1000
0100
0010
0001
1000
0000
,
0010
1000
0001
0000
0010
0001
1000
0000
,
0020
0000
0001
0000
0100
0000
1030
0001
,
1000
0000
0100
0000
0010
0000
0000
0000
0001
0000
0000
0100
0000
0000
0020
0000
,
1000
0100
0001
1030
,
1010
0000
0000
0000
1000
0000
0100
0000
0010
0000
0000
0100
0000
0000
0010
0000
,
1000
0010
0001
1000
,
0001
0100
0010
0000
1000
0100
0010
0000
,
0001
0010
0100
0000
1000
0010
0100
0000
,
0101
0000
0000
0000
1001
0000
0000
0000
1100
0000
0000
0100
0000
0000
0010
0000
,
0000
0010
0001
0000
1000
0010
0100
0001
,
2000
0100
3002
0100
,
1003
0010
0100
0010
0001
0000
0010
0000
,
0100
0000
0000
0100
0000
0000
0100
0000
0010
0000
0000
0010
0000
0000
0010
0000
,
1000
0000
0000
1000
0000
0000
1000
0000
0001
0000
0000
0001
0000
0000
0001
0000
,
2000
0010
3002
0010
,
1003
0100
0010
0100
0001
0000
0100
0000
,
0110
1000
0110
0001
,
1001
1000
0010
0100
,
0110
0001
0110
1000
,
1001
0000
1000
0000
0000
0001
0000
0000
2000
0000
0000
0000
0000
0000
0000
0000
,
3000
0000
0000
0000
;

//--------------- dance-single - chrononical & talkion ----------------
#NOTEDATA:;
#STEPSTYPE:dance-single;
#DESCRIPTION:chrononical & Talkion;
#DIFFICULTY:Hard;
#METER:12;
#RADARVALUES:0,0,0,0,0;
#CREDIT:chrononical & Talkion;
#NOTES:
0000
0000
0000
0000
,
0000
0000
0000
0000
,
0000
0000
0000
0000
,
0000
0000
0000
0012
,
0103
0000
2010
0000
3200
0000
0310
0001
,
0100
0010
1000
0001
1000
0010
0100
0001
,
2000
0100
3002
0100
2003
0100
3001
0010
,
0100
0000
0000
1000
0000
0000
0001
0000
0100
0000
0000
0010
0000
0000
0001
0000
,
0011
0000
1010
0000
1001
1000
0100
1000
,
0001
0010
0100
0010
0001
0100
2000
3000
,
1000
0100
0002
0003
0001
0010
2000
3010
,
0100
1000
1020
0000
0130
0001
0021
0000
,
0130
0000
1100
0000
0000
1100
0000
0000
2002
0000
0000
0000
3003
0000
0000
0000
,
0001
0000
1000
0000
0100
1000
0010
0000
,
1000
0001
0001
0100
0010
1000
0100
1000
,
0001
0010
0000
0010
0100
0000
1000
0000
0010
0000
1000
0000
0001
0000
0000
0000
,
0100
0000
0001
0000
0010
0000
0100
0000
1000
0000
0000
1000
0000
0000
1000
0000
,
0001
0000
0100
0000
0010
0000
0100
0000
2000
0000
0000
0000
3100
0000
0000
0101
,
0000
0001
0010
0100
0002
0000
0103
0010
,
0001
1000
0010
0100
2000
0000
3100
0000
,
0110
0000
0000
0000
0000
0000
0000
0000
1001
0000
0000
0001
0000
0000
0020
0000
,
1000
0000
0000
0100
0000
0000
0032
0000
1000
0000
0000
0103
0000
0000
0010
0000
,
1000
0000
0010
0000
0100
0000
0001
0000
0010
0000
0000
0010
0000
0000
0200
0000
,
0001
0000
0000
0010
0000
0000
2300
0000
0001
0000
0000
3010
0000
0000
0100
0000
,
0001
0100
0010
1000
1100
0000
0011
0000
,
0002
0000
0100
0000
1003
0000
0001
0000
2000
0000
0100
0000
3001
0000
0000
0001
,
0000
0000
0100
0000
0010
0000
1000
0000
0100
0000
0000
0100
0000
0000
0010
0000
,
0011
0000
1100
0000
2001
0010
3010
0101
,
0000
0000
0100
0000
0001
0000
0010
0000
0200
0000
0000
0302
0000
0000
2003
0000
,
3010
0000
0100
0000
1000
0000
0010
0000
0200
0000
0000
0320
0000
0000
1030
0000
,
1002
0023
0001
0100
,
1030
0000
0010
0000
0001
0000
0100
0000
1000
0000
0000
0100
0000
0000
0010
0000
,
2000
0100
3002
0100
2003
0010
3002
0010
,
1003
0000
0000
0000
0001
0000
0100
0010
0100
0000
0000
0200
0000
0000
1300
0000
,
1100
0000
0101
0000
1001
0001
0010
0100
,
0100
0000
1000
0000
1000
0000
0020
0000
0100
0000
0000
0031
0000
0000
0010
0000
,
0010
0000
1000
0000
1000
0000
0200
0000
0010
0000
0000
0301
0000
0000
0100
0000
,
0010
0001
0201
0000
0310
1000
1200
0000
,
0320
0000
2030
0000
3010
0001
0100
0010
,
0001
0000
0010
0000
1000
0000
0100
0000
0001
0000
0000
0100
0000
0000
0010
0000
,
0002
0100
2003
0100
3002
0010
2003
0010
,
3001
0000
0000
0000
1000
0000
0100
0010
0100
0000
0000
0200
0000
0000
0301
0000
,
0101
1100
1010
0011
,
0001
0200
0010
0301
1000
0200
0010
1300
,
0100
2000
0010
3001
0100
0002
0010
1003
,
1100
0000
0000
0000
1001
0000
0000
0000
0201
0000
0000
0310
0000
0000
2010
0000
,
0000
3001
0010
0100
1000
0010
0100
0001
,
2000
0000
3100
0010
0002
0000
0103
0010
,
0001
0010
1000
0100
0210
0000
1300
0020
,
1000
0000
0000
0100
0000
0000
0230
0000
0001
0000
0000
0010
0000
0000
0310
0000
,
2000
0000
0000
0001
0000
0000
0100
0000
3200
0000
0000
1000
0000
0000
0310
0000
,
0002
0000
0103
0010
2000
0000
3100
0010
,
1000
0010
0001
0100
0210
0000
0301
0000
,
0021
0000
1030
0000
1010
0010
0001
0000
,
1000
0010
0100
0001
1000
0001
0010
0100
,
1200
0301
0201
1300
,
0001
0000
0101
0000
0000
0110
0000
0000
1200
0000
0000
0000
0000
0000
0000
0000
,
0300
0000
0000
0000
;

//--------------- dance-single - chrononical & talkion ----------------
#NOTEDATA:;
#STEPSTYPE:dance-single;
#DESCRIPTION:chrononical & Talkion;
#DIFFICULTY:Challenge;
#METER:15;
#RADARVALUES:0,0,0,0,0;
#CREDIT:chrononical & Talkion;
#NOTES:
0000
0000
0000
0000
,
0000
0000
0000
0000
,
0000
0000
0000
0000
,
0000
0000
0000
2010
,
3100
0000
0012
0000
0203
0000
0310
1000
,
0100
0010
0100
0000
1000
0000
0010
0000
0100
0000
0001
1000
0001
0000
0010
0000
,
0200
0001
0320
1000
0230
0001
0310
0001
,
1000
0000
0010
0100
0000
0001
0010
0001
1000
0000
0010
0200
0000
0000
1300
0000
,
1100
0000
0000
0000
0101
0000
0000
0000
1002
0000
0010
0000
0013
0000
0100
1000
,
0001
0000
0100
0010
0100
0000
0001
0000
1000
0100
0010
0100
0002
0000
0103
0000
,
0001
0100
0010
0100
2000
0000
3001
0000
1000
0010
0100
0010
0002
0000
0013
0000
,
1000
0001
1100
0000
0001
1000
0102
0000
,
0013
0000
0011
0000
0000
1100
0000
0000
1000
0001
0100
0001
0020
0000
0030
0000
,
1001
0000
0000
0000
0001
0000
0000
0000
1000
0100
1000
0100
0010
0000
0000
0000
,
0011
0000
0001
1000
0010
1000
0001
0100
0010
1000
0010
0100
0001
0000
1000
0100
,
1000
0000
0000
0001
0000
0000
0000
0000
0000
0001
0000
0000
0010
0000
0000
0100
0000
0000
0000
0000
0000
0100
0000
0000
1000
0000
0000
0000
0001
0000
0000
0000
0100
0000
0000
0000
0000
0000
0000
0010
0000
0000
0100
0000
0000
0010
0000
0000
,
1000
0000
0001
0010
0001
0000
1000
0000
0100
0010
0001
0010
0100
1000
0001
0000
,
0100
0010
1000
0010
0100
0000
0100
0010
0002
0000
0000
0000
0013
0100
0010
1000
,
0000
0001
0000
0001
1000
0100
0010
0100
0002
0000
0000
0000
0103
0000
0010
0000
,
0002
0000
0010
0000
1003
0010
0100
0000
2000
0000
0000
0000
3100
0010
0100
0001
,
0010
0100
1000
0100
0010
0001
1000
0000
1010
0000
0000
0010
0000
0100
1000
0000
,
1200
0000
0000
0001
0000
0000
0310
0000
1200
0000
0000
0001
0000
0000
0310
0000
,
1000
0000
1000
0000
0001
0000
0010
0100
1000
0001
0000
0010
0000
0000
1000
0000
,
1020
0000
0000
0001
0000
0000
0130
0000
1020
0000
0000
0001
0000
0000
0130
0000
,
1000
0001
0100
0010
0001
0010
1000
0000
1100
0000
0000
0000
0011
0000
0000
0000
,
1001
0000
1010
0000
0010
0100
0001
0000
1001
0000
0011
0000
0010
0100
1000
0001
,
0000
0001
0100
0010
0100
0000
0001
1000
0100
0010
0100
1000
0000
1000
0001
0000
,
0101
0000
1010
0000
2001
0100
3100
0011
,
0000
0000
0011
0000
1001
0000
1000
0000
0020
0000
0000
0032
0000
0000
2003
0000
,
3200
0000
0301
0000
0100
0010
1000
0000
1001
0000
0000
0011
0000
0000
1100
0000
,
2001
3020
1000
0100
,
0031
0000
0010
0000
1000
0000
0100
0000
0001
0000
0100
1000
0000
1000
0010
0000
,
0101
0010
1100
0010
0101
0010
2100
0000
,
3010
0000
0100
0000
0001
0000
0010
0100
0010
0000
0001
0200
0000
0000
1300
0000
,
1100
0000
0101
0000
1002
0010
0023
0100
,
0031
0000
1000
0010
0100
0000
0001
1000
0100
0010
0200
0001
0000
0000
2300
0000
,
0100
0000
3002
0000
0100
0000
1003
0001
0100
0010
0200
1000
0000
0000
0310
0000
,
1000
0001
1100
0000
0001
1000
0101
0000
,
0011
0000
0000
1010
0000
0000
0011
0000
0001
1000
0010
0100
0001
1000
0100
0010
,
1000
0000
0010
0000
0001
0000
0100
0000
1000
0000
0100
0001
0000
0001
0010
0000
,
1100
0010
0101
0010
1100
0010
0102
0000
,
0013
0000
0100
0000
1000
0000
0010
0000
1020
0000
0000
0100
0000
0000
0031
0000
,
0011
0000
0000
0000
1010
0000
0000
0000
1000
0001
0010
0001
0200
0000
0300
0000
,
0001
1000
0100
0020
0001
0000
0130
0000
1000
0001
0100
0020
1000
0000
0130
0000
,
0010
1000
0001
2000
0100
0000
3001
0000
0010
0001
1000
0002
0100
0000
1003
0000
,
1100
0000
0100
0000
0110
0000
0010
0000
0012
0000
0000
0103
0000
0000
2010
0000
,
0000
3100
0010
0100
1000
0000
0001
0010
0001
1000
0010
0100
0001
1000
0100
0010
,
0002
0000
0103
0010
2000
0000
3100
0010
,
1000
0000
0010
0000
0001
0000
0100
0000
2000
0000
0000
0000
3100
0010
1000
0000
,
1010
0000
0000
0011
0000
0000
1020
0000
1000
0000
0000
0001
0000
0000
1030
0000
,
1100
0000
0000
0101
0000
0000
1200
0000
1000
0000
0000
0001
0000
0000
1300
0000
,
2001
0000
3100
0010
0002
0000
0103
0010
,
0001
0000
0010
0000
1000
0000
0100
0000
0002
0000
0000
0000
0103
0010
0001
0000
,
1002
0000
0000
0000
0103
0000
0000
0000
1001
0000
1000
0000
0100
0000
0000
0100
,
0010
0000
0001
0100
0001
0000
1000
0100
1000
0000
0010
0000
0100
0000
0001
1000
,
0002
0000
0010
0000
1003
0000
0000
0000
1001
0000
1000
0010
0100
0000
0001
0010
,
0100
0000
1100
0000
0000
0110
0000
0000
0201
0000
0000
0000
0000
0000
0000
0000
,
0300
0000
0000
0000
;
