#TITLE:Bleep Beep Bop;
#SUBTITLE:(Akira Complex vs kiraku 'Sweet&Spicy' Remix);
#ARTIST:kors k;
#TITLETRANSLIT:;
#SUBTITLETRANSLIT:;
#ARTISTTRANSLIT:;
#GENRE:;
#CREDIT:;
#MUSIC:Bleep Beep Bop.ogg;
#BANNER:Bleep Beep Bop-banner.png;
#BACKGROUND:;
#CDTITLE:;
#SAMPLESTART:67.199;
#SAMPLELENGTH:14.400;
#SELECTABLE:YES;
#OFFSET:-0.005;
#BPMS:0.000=200.000;
#STOPS:;
#BGCHANGES:;
#FGCHANGES:;

//--------------- dance-single - Cremie ----------------
#NOTES:
     dance-single:
     Cremie:
     Beginner:
     7:
     0,0,0,0,0:
0000
0000
0000
0000
,
0000
0000
0000
0000
,
0000
0000
0000
0000
,
0000
0000
0000
0000
,
0000
0000
0000
0000
,
0000
0000
0000
0000
,
0000
0000
0000
0000
,
0000
0000
0000
0000
,
1000
0010
1000
0000
,
0010
0100
0010
0000
,
0100
0001
0100
0000
,
0001
0010
0001
0000
,
1000
1000
0010
0010
,
0100
0100
0001
0001
,
0010
0010
0100
0100
,
1000
0000
0000
0000
,
0010
1000
0010
0000
,
0100
0100
0100
0000
,
0001
0010
0001
0000
,
0100
0100
0100
0000
,
0001
1000
0001
0000
,
0010
0010
0010
0000
,
0100
1000
0100
0010
,
0001
0001
0001
0000
,
1000
0000
1000
0010
,
0100
0000
0010
0100
,
0001
0000
0010
0001
,
0100
0010
1000
0000
,
0010
0010
1000
1000
,
0001
0001
0100
0100
,
0001
0010
0100
1000
,
0000
0000
0000
0000
,
0001
0000
0100
0001
,
0010
0000
0110
0000
,
1100
0000
2000
3000
,
0002
0003
0200
0320
,
1030
0000
0100
0000
,
0010
0001
0010
0000
,
0002
0003
2000
3000
,
0020
0130
0200
0310
,
1000
0000
0100
1000
,
0010
0000
0110
0000
,
0101
0000
0002
0003
,
2000
3000
0200
0320
,
0031
0001
0100
0100
,
0010
0010
1000
1000
,
2000
3010
0020
0130
,
0200
0301
1001
0000
,
0001
0000
0000
0000
,
0000
0000
0000
0000
,
0000
0000
0000
0000
,
0000
0000
0000
0000
,
2000
0000
0000
3000
0000
0000
0002
0000
,
0003
0010
0010
0010
,
0220
0000
0000
0330
0000
0000
1001
0000
,
0001
0100
0010
1000
,
0100
0100
0100
0000
,
1000
0010
1000
0000
,
0001
0010
0001
0000
,
0100
0010
0100
0000
,
0001
0001
0001
0000
,
1000
1000
1000
0000
,
0020
0100
0230
0001
,
0301
1000
0001
0000
,
1000
0000
0100
0010
,
0001
0000
0100
0010
,
1000
0000
0001
0010
,
0100
1000
0100
0000
,
1000
1000
0010
0010
,
0100
0100
0001
0001
,
1000
0100
0010
0001
,
0000
0000
0000
0000
,
0010
0100
0010
0100
,
0000
2002
0000
3003
,
0001
0100
0001
0000
,
0010
0100
1000
1000
,
0001
0100
0001
0000
,
0010
0100
0010
0100
,
2000
3000
0002
0003
,
0100
0100
0100
0000
,
0001
1000
0001
0010
,
0000
0100
1000
1000
,
0010
0100
0010
1000
,
0000
0001
0010
0100
,
1000
0100
0010
0001
,
0000
0100
0010
0100
,
0001
0001
1000
1000
,
0000
0000
0000
1001
;

//--------------- dance-single - Cremie ----------------
#NOTES:
     dance-single:
     Cremie:
     Easy:
     10:
     0,0,0,0,0:
0000
0000
0000
0000
,
0000
0000
0000
0000
,
0000
0000
0000
0000
,
0000
0000
0000
0000
,
0000
0000
0000
0000
,
0000
0000
0000
0000
,
0000
0000
0000
0000
,
0000
0000
0000
0000
,
0000
1000
0000
1000
0000
0010
0000
0010
,
0000
0100
0000
0100
0000
0000
0101
0000
,
0000
0001
0000
0001
0000
0010
0000
0010
,
0000
0100
0000
0100
0000
0000
1100
0000
,
1000
0100
1000
0100
,
0010
0001
0010
0001
,
2000
0100
3002
0100
,
1003
0000
0000
0000
,
1010
0000
1000
0000
0100
0000
0010
0001
,
0000
0100
0001
0000
0010
0000
0100
0000
,
1100
0000
1000
0000
0010
0000
0100
0001
,
0000
0100
0010
0000
1000
0000
0001
0000
,
0011
0000
0001
0000
0100
0000
0010
1000
,
0000
0100
1000
0000
0010
0000
0100
0000
,
0201
0302
0023
0230
,
1300
1000
2002
3003
,
1100
0000
1000
0000
0001
0000
0100
0010
,
0000
1000
0010
0000
1000
0000
0001
0000
,
0011
0000
0001
0000
1000
0000
0010
0100
,
0000
0001
0100
0000
0001
0000
1000
0000
,
0100
0000
0010
0100
0010
0000
0001
0000
,
0100
0000
0010
0100
0010
0000
1000
0000
,
1100
0100
1001
1000
,
0000
0000
0000
0000
,
0001
0000
0100
0000
0020
1000
0000
1030
,
0100
1000
1010
0000
,
1000
0010
0200
0010
,
0302
0010
2000
3003
,
1000
0000
0100
0000
0020
0001
0000
0031
,
0100
0001
0011
0000
,
0002
0010
0203
0010
,
0302
1003
1001
0000
,
1000
0000
0010
0000
0200
0001
0000
0301
,
0010
0001
0101
0000
,
0001
0100
0020
0100
,
2030
0100
0002
3003
,
0001
0010
0100
1000
,
0100
0010
0001
1000
,
0002
0100
0023
0100
,
0031
1000
0001
1000
0001
0000
0000
0000
,
2002
0000
0000
0000
,
0000
0000
0000
0000
,
0000
0000
0000
0000
,
3003
0000
0000
0000
,
0110
0000
0000
0110
0000
0000
1001
0000
,
0000
1000
0000
0001
0010
0010
0010
0000
,
0101
0000
0000
1010
0000
0000
1100
0000
,
1000
0001
2002
3003
,
0101
0000
0100
0000
1010
0000
1000
0001
,
0000
0010
0100
0000
0010
0000
1001
0000
,
0002
0000
0203
0000
0320
0000
1030
0001
,
0000
1000
0001
0000
0022
0000
0033
0000
,
1100
0000
0100
0000
0011
0000
0001
1000
,
0000
0010
0100
0000
0010
0000
1001
0000
,
2000
3200
0320
0032
,
0203
0320
1030
0000
,
1100
0100
1000
0001
,
0011
0000
0010
0000
0001
0000
0100
0010
,
0100
0010
1000
0001
,
0010
0100
0010
0000
0100
0010
0100
0000
,
1000
0000
0100
1000
0100
0000
1000
0000
,
0010
0000
0100
0001
0100
0000
0001
0000
,
0010
0000
0100
1000
0100
0000
1001
0000
,
0000
0000
0000
0000
,
0101
0000
1010
0000
0101
0000
0001
0010
,
0000
0100
0010
0000
0100
0000
1000
0000
,
1010
0000
0101
0000
1010
0000
1000
0100
,
0000
0010
0100
0000
0010
0000
1001
0000
,
0011
0000
1100
0000
0011
0000
0001
0100
,
0000
0010
0100
0000
0010
0000
1000
0000
,
1200
1000
0320
0001
,
0130
0100
1001
0000
,
1001
0000
0110
0000
1001
0000
0001
0100
,
0000
0010
1000
0000
0100
0000
0010
0000
,
0011
0000
1100
0000
0011
0000
0001
1000
,
0000
0010
0100
0000
0010
1000
0001
0000
,
0010
0000
0100
1000
0001
0000
1000
0010
,
0000
0100
0010
0000
0101
0000
1010
0000
,
2000
0100
3002
0010
,
1003
0000
0000
1001
;

//--------------- dance-single - Cremie ----------------
#NOTES:
     dance-single:
     Cremie:
     Medium:
     13:
     0,0,0,0,0:
0000
0000
0000
0000
,
0000
0000
0000
0000
,
0000
0000
0000
0000
,
0000
0000
0000
0000
,
0000
0000
0000
0000
,
0000
0000
0000
0000
,
0000
0000
0000
0000
,
0000
0000
0000
0000
,
4000
0100
0000
0100
0000
0001
0000
3001
,
0040
0001
0000
0031
0100
0010
1000
0000
,
0004
0010
0000
0010
0000
1000
0000
1003
,
0040
0100
0000
0130
0001
1000
0001
0000
,
4000
0100
0000
0001
0000
0010
0000
3001
,
0400
0001
0000
0010
0000
1000
0000
0310
,
4000
0100
0000
3001
0040
0100
0000
0031
,
0000
0000
0000
0000
,
1020
0000
0100
0000
1030
0000
0001
0010
,
0000
0100
1000
0000
1010
0000
0101
0000
,
0021
0000
0100
0000
0031
0000
0100
0010
,
0000
1000
0010
0000
0100
0001
0010
0000
,
1200
0000
0010
0000
1300
0000
0010
0100
,
0000
0001
0100
0000
0101
0000
1010
0000
,
1200
0310
0201
0310
,
1010
0101
2002
3003
,
0021
0000
0100
0000
0031
0000
1000
0010
,
0000
0100
1000
0000
1100
0000
0110
0000
,
1020
0000
0100
0000
1030
0000
0001
0010
,
0000
1000
0010
0000
0011
0000
1100
0000
,
1001
0000
0001
0010
1000
0000
0010
0100
,
1000
0000
0010
0100
1000
0000
0100
0010
,
1010
0000
0100
0001
0011
0000
0001
1000
,
0000
0000
0000
0000
,
1100
0000
1000
0001
4000
0010
0000
3001
,
0040
0100
0000
0031
1000
0000
0110
0000
,
0010
1000
0200
0000
0320
0000
1030
0010
,
0002
0000
1003
0100
0002
0000
0203
0000
,
1300
0000
0010
0100
0040
1000
0000
0130
,
0004
0010
0000
1003
0100
0000
0110
0000
,
0020
0000
0031
1000
0020
0000
1030
0001
,
0011
1100
1010
0101
,
0011
0000
0001
1000
0004
0010
0000
1003
,
0040
0100
0000
1030
0001
0000
0110
0000
,
0010
0001
0200
0000
0320
0000
0031
0010
,
2000
0000
3001
0100
2000
0000
3200
0000
,
0301
0010
1000
0100
,
0001
0100
1000
0010
,
0001
0100
0010
1000
0001
0010
0100
1000
,
0010
0001
1000
0100
0002
0000
0003
0000
,
2002
0000
0000
0000
,
0000
0000
0000
0000
,
0000
0000
0000
0000
,
3003
0000
0000
0000
,
0101
0000
0000
1010
0000
0000
1001
0000
,
0000
1000
0000
0010
0100
0001
0011
0000
,
0101
0000
0010
1010
0000
1000
1100
0000
,
0011
0101
1010
1001
,
0021
0000
1000
0000
0130
0000
1000
0010
,
0000
0001
0010
0000
0101
0000
1010
0000
,
1000
0100
0002
0000
2003
0000
3010
0001
,
2000
0000
3001
0100
0010
0000
1001
0000
,
0201
0000
1000
0000
0310
0000
1000
0100
,
0000
0001
0100
0000
0011
0000
1100
0000
,
1020
0000
0031
0010
2000
0000
3100
0001
,
2000
0000
3020
0000
0031
0100
1000
0000
,
0400
0010
0000
0310
1000
0100
0001
0000
,
0400
0010
0000
0310
0001
0100
1000
0000
,
0004
0010
0000
0013
0100
0001
1000
0000
,
2100
3001
0102
1003
,
0400
0010
0000
1300
0040
1000
0000
0130
,
0004
1000
0000
0013
0400
1000
0000
0310
,
0001
1000
0010
0001
1000
0001
0010
1000
,
0000
0000
0000
0000
,
1020
0000
0001
0000
0130
0000
0001
1000
,
0000
0010
0200
0000
1000
0000
0010
0000
,
0301
0010
2000
0000
3010
0000
0100
1000
,
0002
0000
0103
1000
0002
0000
0023
0000
,
1030
0000
0100
0010
0001
0000
0010
1000
,
0000
0010
0100
0000
1100
0000
1010
0000
,
0201
0000
1300
0100
0002
0000
0013
0100
,
1100
0011
2002
3003
,
0010
1000
0100
0001
0100
0000
0010
0001
,
0000
0100
0010
0000
1010
0000
0101
0000
,
0021
0000
1000
0000
0130
0000
1000
0001
,
0000
0100
0010
0000
0001
0010
1000
0100
,
0010
0000
0100
1000
0001
0000
0100
0010
,
0000
0100
0001
0000
0011
0000
1100
0000
,
1000
0010
0100
0001
1000
0100
0010
0001
,
0000
1000
0001
0000
0011
0000
1001
0000
;

//--------------- dance-single - Cremie ----------------
#NOTES:
     dance-single:
     Cremie:
     Hard:
     16:
     0,0,0,0,0:
0000
0000
0000
0000
,
0000
0000
0000
0000
,
0000
0000
0000
0000
,
0000
0000
0000
0000
,
0000
0000
0000
0000
,
0000
0000
0000
0000
,
0000
0000
0000
0000
,
0000
0000
0000
0000
,
4000
0100
0000
0001
0000
0100
0000
3010
,
0400
1000
0000
0310
1000
0001
0010
0000
,
0400
1000
0000
0010
0000
0001
0000
0310
,
0004
0100
0000
0013
1000
0010
0001
0000
,
1000
0010
1000
0001
0100
0010
0100
1000
,
0001
0010
0001
1000
0100
0001
1000
0001
,
0010
0100
0010
0000
0001
1000
0001
0000
0100
0001
0100
0000
0010
1000
0010
0000
,
1000
0000
0000
0000
,
1200
0000
0001
0000
0310
0001
0100
0010
,
0000
0001
0010
0000
1010
0000
0011
0000
,
0201
0000
1000
0000
0310
0100
0001
0010
,
0000
1000
0010
0000
0100
0010
0001
1000
,
1020
0000
0001
0000
0130
0001
1000
0100
,
0000
0001
0100
0000
1100
0000
0011
0000
,
1020
0000
0031
0010
1000
0000
0001
0010
,
1000
0010
0100
1000
0001
0100
1001
0000
,
0021
0000
1000
0000
0130
1000
0010
0001
,
0000
0010
1000
0001
0010
0000
1100
0000
,
1020
0000
0001
0000
0130
0001
1000
0100
,
0010
1000
0010
0100
0001
0100
1000
0000
,
0001
0100
0010
0001
1000
0100
0010
1000
,
0001
0010
0100
0001
1000
0010
0100
1000
,
0010
0100
0010
0000
0100
0000
0001
0000
0010
0100
0010
0000
0100
0000
1000
0000
,
0000
0200
1000
0320
0001
0030
1001
0000
,
1020
0000
0000
0000
0130
0000
0001
1000
0001
0000
0010
0000
0100
0000
1000
0000
,
0010
0100
1000
0001
0010
1000
0001
0000
,
1000
0100
0020
0000
1030
0001
0100
1000
,
0020
0000
0031
1000
0100
0001
1001
0000
,
0021
0000
0000
0000
0130
0000
1000
0001
1000
0000
0010
0000
0100
0000
0001
0000
,
0010
0100
0001
1000
0010
0001
1000
0000
,
0020
0000
0031
1000
0200
0000
0301
1000
,
0200
0010
2300
0010
3001
0000
1001
0000
,
0201
0000
0000
0000
0310
0000
1000
0001
1000
0000
0100
0000
0010
0000
0001
0000
,
0100
0010
0001
1000
0100
0001
1000
0000
,
0001
0010
0200
0000
0301
1000
0010
0001
,
0200
0000
1300
0001
0010
1000
1001
0000
,
1000
0100
0010
1000
0001
0100
0010
0001
,
1000
0010
0100
1000
0001
0010
0100
0001
,
1000
0100
0010
0001
0100
0010
1000
0001
,
1000
0100
1000
0100
0010
0001
0010
0001
2000
0000
0000
0000
3001
0000
0000
0000
,
2002
0000
0000
0000
,
0000
0000
0000
0000
,
0000
0000
0000
0000
,
3003
0000
0000
0000
,
1010
0000
0100
0101
0000
0001
1001
0000
,
0000
0000
1000
0000
0100
0000
0001
0000
0100
0010
0100
0000
1000
0000
0000
0000
,
0001
0100
0010
0000
0100
0000
0001
0000
0010
0100
1000
0000
0001
0000
0100
0000
,
0010
0100
0010
0000
1000
0001
1000
0000
0100
0000
0010
0000
1001
0000
0000
0000
,
1020
0000
0000
0000
0001
0000
0000
0000
0130
0000
0001
1000
0100
0000
0010
0000
,
0000
0100
1000
0001
0100
0010
1000
0000
,
1200
0010
2300
0000
3020
0100
1030
0100
,
0020
0001
0130
1000
0020
0100
1030
0000
,
1200
0000
0000
0000
0001
0000
0000
0000
0310
0000
0001
1000
0010
0000
0100
0000
,
0000
0001
1000
0100
0010
0001
1000
0000
,
1200
0010
1300
0001
0200
0001
0310
1000
,
1010
1100
0011
1001
,
0001
0100
0001
1000
0100
0010
2000
0000
,
3001
1000
0001
0100
0010
0001
0200
0000
,
1300
0001
0010
0100
0001
1000
0200
0000
,
0310
0001
0010
0001
2000
0000
0000
0000
3010
0100
0010
0100
0001
0000
0000
0000
,
1000
0100
0001
1000
0010
0100
1000
0001
,
0100
1000
0001
0010
0100
0001
1000
0100
,
0010
0001
1000
0001
0100
0000
0010
0000
1000
0001
1000
0100
0010
0000
0001
0000
,
0000
2000
0100
3002
0010
0003
0110
0000
,
1200
0000
0000
0000
0001
0000
0000
0000
1300
0000
0010
0000
0100
0001
1000
0000
,
0000
0001
0020
0000
1000
0000
0100
0000
,
0032
1000
0203
0000
1300
0100
0001
0010
,
0200
1000
0310
0001
0200
0010
0301
0000
,
0011
0000
1001
1000
1100
0000
0100
0110
,
0000
0010
0011
0000
0101
0000
1010
0000
,
1200
0010
1300
0001
0200
0010
0301
0010
,
0110
1100
0011
1001
,
0001
0000
0010
0001
0010
0000
0100
1000
0100
0000
0010
0000
0001
1000
0001
0000
,
0000
0100
0020
0100
2030
0001
3100
0000
,
1200
0000
0001
0000
0310
0001
0100
1000
,
0000
0100
0001
1000
0100
0001
0101
0000
,
0011
0000
1100
1000
1001
0000
1010
1000
,
0000
0000
0001
0100
0001
0000
1000
0000
0100
0000
0001
0000
0100
0000
0010
0000
,
0001
1000
0001
0000
1000
0010
1000
0000
0010
0100
0010
0100
0001
1000
0001
1000
,
0000
0002
0100
2003
0010
3000
1001
0000
;
