#VERSION:0.83;
#TITLE:Black Widow (Vice Remix);
#SUBTITLE:;
#ARTIST:Iggy Azalea ft. Rita Ora;
#TITLETRANSLIT:;
#SUBTITLETRANSLIT:;
#ARTISTTRANSLIT:;
#GENRE:;
#ORIGIN:;
#CREDIT:;
#BANNER:Black Widow (Vice Remix).png;
#BACKGROUND:Black Widow (Vice Remix) - bg.png;
#PREVIEWVID:;
#JACKET:Black Widow (Vice Remix) - jacket.png;
#CDIMAGE:;
#DISCIMAGE:;
#LYRICSPATH:;
#CDTITLE:cdtitle.png;
#MUSIC:Black Widow (Vice Remix).ogg;
#OFFSET:-0.089000;
#SAMPLESTART:32.698002;
#SAMPLELENGTH:11.739000;
#SELECTABLE:YES;
#BPMS:0.000=184.000;
#STOPS:99.500=0.979,
165.000=1.304,
356.500=0.979;
#DELAYS:;
#WARPS:;
#TIMESIGNATURES:0.000=4=4;
#TICKCOUNTS:0.000=4;
#COMBOS:0.000=1;
#SPEEDS:0.000=1.000=0.000=0;
#SCROLLS:0.000=1.000,
358.000=0.300,
359.000=0.600,
360.000=1.000,
390.000=0.300,
391.000=0.600,
392.000=1.000;
#FAKES:;
#LABELS:0.000=Song Start;
#BGCHANGES:;
#KEYSOUNDS:;
#ATTACKS:
;

//---------------dance-single - Pilgrimsito----------------
#NOTEDATA:;
#CHARTNAME:;
#STEPSTYPE:dance-single;
#DESCRIPTION:Pilgrimsito;
#CHARTSTYLE:;
#DIFFICULTY:Easy;
#METER:8;
#RADARVALUES:0.372992,0.411198,0.156089,0.595977,0.000000,368.000000,346.000000,22.000000,84.000000,0.000000,0.000000,0.000000,0.000000,0.000000,0.372992,0.411198,0.156089,0.595977,0.000000,368.000000,346.000000,22.000000,84.000000,0.000000,0.000000,0.000000,0.000000,0.000000;
#CREDIT:;
#NOTES:
// measure 0
0000
0000
0000
0000
,  // measure 1
0000
0000
0000
0000
,  // measure 2
0000
0000
0000
0000
,  // measure 3
0000
0000
0000
0000
,  // measure 4
0000
0000
0000
0000
,  // measure 5
0000
0000
0000
0000
,  // measure 6
0000
0000
0000
0000
,  // measure 7
0000
0000
0000
0000
,  // measure 8
1001
1000
1000
1000
,  // measure 9
0010
0100
0002
0013
,  // measure 10
0011
0001
0001
0001
,  // measure 11
2000
3010
2000
3100
,  // measure 12
1001
1000
1000
1000
,  // measure 13
0100
0010
0002
0103
,  // measure 14
0101
0001
0001
0001
,  // measure 15
2000
3100
2000
3010
,  // measure 16
1001
1000
1000
1000
,  // measure 17
0001
0100
0002
0013
,  // measure 18
0011
0001
0001
0001
,  // measure 19
1000
0100
2000
3010
,  // measure 20
1010
1000
1000
1000
,  // measure 21
0010
0100
0002
1003
,  // measure 22
0010
0100
0002
1003
,  // measure 23
0010
0100
0002
1003
,  // measure 24
0010
0010
0010
0010
,  // measure 25
0000
1001
2000
3100
,  // measure 26
0002
0103
1000
0010
,  // measure 27
0100
0001
0020
0130
,  // measure 28
1000
0100
0010
0002
,  // measure 29
1003
1001
2000
3010
,  // measure 30
0002
0013
1000
0100
,  // measure 31
0010
0001
0200
0310
,  // measure 32
1000
0010
0100
0002
,  // measure 33
1003
1001
0002
0103
,  // measure 34
2000
3100
0001
0010
,  // measure 35
0100
1000
0020
0130
,  // measure 36
0001
0100
0010
2000
,  // measure 37
3001
1001
0002
0013
,  // measure 38
2000
3010
0001
0100
,  // measure 39
0010
1000
0200
0310
,  // measure 40
0001
0010
0100
2000
,  // measure 41
3001
1000
0000
1000
,  // measure 42
0001
0020
0000
0130
,  // measure 43
0020
0000
0130
1000
,  // measure 44
0001
0200
0000
0310
,  // measure 45
0200
0000
0310
1000
,  // measure 46
0001
0020
0000
0130
,  // measure 47
0020
0000
0130
1000
,  // measure 48
0001
0100
0100
0010
,  // measure 49
0010
0100
0000
0000
,  // measure 50
0001
1000
1000
0001
,  // measure 51
0001
1000
0000
0000
,  // measure 52
0001
1000
0100
0000
,  // measure 53
0100
1000
0001
0100
,  // measure 54
0010
0100
0001
0010
,  // measure 55
0100
1000
0010
0100
,  // measure 56
0010
2000
0000
0000
,  // measure 57
0000
3002
0000
0000
,  // measure 58
0000
0203
0000
0000
,  // measure 59
0000
0320
0000
0000
,  // measure 60
0000
2030
0000
0000
,  // measure 61
0000
3002
0000
0000
,  // measure 62
0000
0023
0000
0000
,  // measure 63
0000
0230
0000
0000
,  // measure 64
0000
1300
1000
1000
,  // measure 65
0000
0001
0010
0001
,  // measure 66
0100
0010
1000
0100
,  // measure 67
1000
0010
0100
0001
,  // measure 68
1000
0001
0001
1000
,  // measure 69
1000
0010
0010
0100
,  // measure 70
0100
0001
1000
0001
,  // measure 71
1000
0002
0000
0000
,  // measure 72
0003
1001
1000
1000
,  // measure 73
1000
0010
0100
0002
,  // measure 74
0013
0011
0001
0001
,  // measure 75
0001
2000
3010
2000
,  // measure 76
3100
1001
1000
1000
,  // measure 77
1000
0100
0010
0002
,  // measure 78
0103
0101
0001
0001
,  // measure 79
0001
2000
3100
2000
,  // measure 80
3010
1001
1000
1000
,  // measure 81
1000
0001
0100
0002
,  // measure 82
0013
0011
0001
0001
,  // measure 83
0001
1000
0100
2000
,  // measure 84
3010
1010
1000
1000
,  // measure 85
1000
0010
0100
0002
,  // measure 86
1003
0010
0100
0002
,  // measure 87
1003
0010
0100
0002
,  // measure 88
1003
0010
0010
0010
,  // measure 89
0010
0000
1001
0000
,  // measure 90
2000
3002
2003
3100
,  // measure 91
0100
0020
0032
0103
,  // measure 92
0100
0020
2030
3100
,  // measure 93
0100
0010
1001
2000
,  // measure 94
3020
0230
0302
1003
,  // measure 95
0100
0010
0100
2000
,  // measure 96
3002
0203
0320
1030
,  // measure 97
1000
0001
1001
0000
,  // measure 98
0002
2003
3002
0013
,  // measure 99
0010
0200
2300
3010
,  // measure 100
0010
0200
0302
0013
,  // measure 101
0010
0100
1001
0002
,  // measure 102
0203
0320
2030
3001
,  // measure 103
0010
0100
0010
0002
,  // measure 104
2003
3020
0230
0301
,  // measure 105
0001
0000
0020
0030
0000
0000
0000
0000
;

//---------------dance-single - Pilgrimsito----------------
#NOTEDATA:;
#CHARTNAME:;
#STEPSTYPE:dance-single;
#DESCRIPTION:Pilgrimsito;
#CHARTSTYLE:;
#DIFFICULTY:Medium;
#METER:12;
#RADARVALUES:0.540231,0.598106,0.184469,0.688212,0.014190,533.000000,507.000000,26.000000,97.000000,0.000000,0.000000,0.000000,0.000000,0.000000,0.540231,0.598106,0.184469,0.688212,0.014190,533.000000,507.000000,26.000000,97.000000,0.000000,0.000000,0.000000,0.000000,0.000000;
#CREDIT:;
#NOTES:
0000
0000
0000
0000
,
0000
0000
0000
0000
,
0000
0000
0000
0000
,
0000
0000
0000
0000
,
0000
0000
0000
0000
,
0000
0000
0000
0000
,
0000
0000
0000
0000
,
0000
0000
0000
0000
,
1010
1000
1000
1000
,
1000
0100
0020
0000
0230
0000
1300
0000
,
1001
0000
0001
0000
0001
0000
0001
0100
,
0002
0000
1003
0100
2000
0000
3010
0000
,
0110
0100
0100
0100
,
0100
0001
0010
0001
0200
0000
0301
0000
,
1001
0000
0001
0000
0001
0000
0001
0010
,
0002
0000
1003
0010
2000
0000
3100
0000
,
0110
0010
0010
0010
,
0010
0001
1000
0001
0020
0000
0130
0000
,
1001
0000
0001
0000
0001
0000
0100
0010
,
0100
0000
0001
1000
0002
0000
0013
0000
,
0011
0001
0001
0001
,
0001
0100
0020
0000
2030
0000
3001
0000
,
1000
0100
0020
0000
0032
0000
1003
0000
,
0001
0100
0020
0000
2030
0000
3001
0000
,
0010
0100
0010
0100
0010
0100
0010
0100
,
0000
0000
1001
0000
1000
0001
0200
0000
,
0301
1000
0200
0000
1300
0001
1000
0010
,
1000
0001
1000
0010
0200
0300
0200
0300
,
0001
1000
0001
0000
0010
0100
0010
0100
,
1000
0000
1001
0000
1000
0100
0020
0000
,
0031
0100
0020
0000
1030
0001
0010
0100
,
0010
0001
0100
0010
0200
0300
0200
0300
,
0001
1000
0001
0000
0100
0010
0100
0010
,
1000
0000
1001
0000
0001
1000
0200
0000
,
1300
0001
0200
0000
0301
1000
0001
0010
,
0001
1000
0001
0010
0200
0300
0200
0300
,
1000
0001
1000
0000
0010
0100
0010
0100
,
0001
0000
1001
0000
0001
0100
0020
0000
,
1030
0100
0020
0000
0031
1000
0010
0100
,
0010
1000
0100
0010
0200
0300
0200
0300
,
1000
0001
1000
0000
0100
0010
0100
0010
,
0001
1000
0000
1000
,
0001
0000
0000
0000
1000
0000
0000
0100
0000
0000
1000
0000
0001
0000
0000
0000
,
0001
0100
0020
0000
0000
0000
0130
0000
,
0000
0000
0000
0000
0001
0000
0000
0001
0000
0000
0001
0000
0010
0000
0000
0000
,
0000
0000
0000
0000
0010
0000
0000
0010
0000
0000
0010
0000
0100
0000
0000
0000
,
0000
0000
0000
0000
1000
0000
0000
0010
0000
0000
1000
0000
0001
0000
0000
0000
,
0001
0010
0200
0000
0000
0000
0010
0000
,
0310
1001
0001
0001
,
1000
0001
0020
0030
0000
0000
0000
0000
,
1000
0100
1000
0000
1000
0000
1000
0000
,
0001
1000
0020
0030
0000
0000
0000
0000
,
1000
0100
0010
0100
1000
0000
0000
0000
,
0010
0100
0001
1000
0001
1000
0100
0010
,
0100
0010
0001
0100
0001
0100
0020
0000
,
1030
0100
1000
0100
0010
0001
0010
0001
,
1000
0010
0200
0000
0001
0000
0000
0000
,
0001
0000
0320
0000
0000
0000
1030
0100
,
1000
0010
2000
0000
0100
0000
0001
0000
,
0100
3020
0100
0001
,
0100
2030
0100
0010
,
0100
3002
0010
1000
,
0010
0203
0010
1000
,
0010
0302
0010
0100
,
1003
1100
0101
1100
,
2000
3000
0010
0100
0001
0010
0200
0000
,
0300
0000
1000
0100
0010
0001
0100
0010
,
1000
0010
0100
0001
0010
0100
2000
0000
,
3001
0010
0001
0000
0001
0000
1000
0000
,
1000
0010
0010
0100
,
0100
0000
0001
1000
0001
1000
0100
0010
,
0100
0010
0001
1000
0001
1000
0002
0000
,
0003
0011
0001
0001
,
0001
0000
0001
0100
0020
0000
0230
0000
,
0301
1001
1000
1000
,
1000
0100
2000
0000
3001
0100
0002
0000
,
0013
0110
0100
0100
,
0100
0000
0100
1000
0010
1000
0200
0000
,
1300
1001
1000
1000
,
1000
0010
2000
0000
3001
0010
0002
0000
,
0103
0110
0010
0010
,
0010
0000
0010
1000
0001
1000
0020
0000
,
0130
1001
1000
1000
,
0100
0010
0100
0000
1000
0001
2000
0000
,
3010
1010
1000
1000
,
1000
0000
1000
0100
0020
0000
0032
0000
,
1003
0000
0001
0100
0020
0000
2030
0000
,
3001
0000
1000
0100
0020
0000
0032
0000
,
1003
0000
0010
0100
0010
0100
0010
0100
,
0010
0100
0000
0000
1001
0000
0000
0000
,
2000
0000
3200
0000
0320
0000
0130
1000
,
0010
1000
0200
0000
0320
0000
0130
1000
,
0010
1000
0200
0000
0320
0000
0130
1000
,
0010
1000
0200
0300
1001
0000
0002
0000
,
0203
0000
0302
0000
0023
0000
0031
1000
,
0010
0100
0001
0010
0100
0010
0002
0000
,
2003
0000
3020
0000
0230
0000
0301
1000
,
0100
0010
0002
0003
1001
0000
0000
0000
,
0002
0000
0203
0000
0320
0000
0130
0001
,
0010
0001
0200
0000
0320
0000
0130
0001
,
0010
0001
0200
0000
0320
0000
0130
0001
,
0010
0001
0200
0300
1001
0000
2000
0000
,
3200
0000
2300
0000
3020
0000
1030
0001
,
0010
0100
1000
0010
0100
0010
2000
0000
,
3002
0000
0023
0000
0230
0000
1300
0001
,
0100
0010
2000
3000
0000
0000
0000
0000
;

//---------------dance-single - Pilgrimsito----------------
#NOTEDATA:;
#CHARTNAME:;
#STEPSTYPE:dance-single;
#DESCRIPTION:Pilgrimsito;
#CHARTSTYLE:;
#DIFFICULTY:Hard;
#METER:14;
#RADARVALUES:0.623343,0.822395,0.212849,0.681117,0.180922,615.000000,585.000000,30.000000,96.000000,8.000000,0.000000,1.000000,0.000000,0.000000,0.623343,0.822395,0.212849,0.681117,0.180922,615.000000,585.000000,30.000000,96.000000,8.000000,0.000000,1.000000,0.000000,0.000000;
#CREDIT:Pilgrimsito;
#NOTES:
0000
0000
0000
0000
,
0000
0000
0000
0000
,
0000
0000
0000
0000
,
0000
0000
0000
0000
,
0000
0000
0000
0000
,
0000
0000
0000
0000
,
0000
0000
0000
0000
,
0000
0000
0000
0000
,
0101
0000
0001
0000
0001
0000
0001
1000
,
0100
0010
0100
1000
0020
0000
0130
0000
,
0110
0000
0100
0000
0100
0000
0100
0010
,
2000
0000
3001
0010
0200
0000
0310
0000
,
0011
0000
0001
0000
0001
0000
0001
0100
,
0010
1000
0100
1000
0002
0000
1003
0000
,
1001
0000
1000
0000
1000
0000
1000
0100
,
0010
0000
0010
0100
2000
0000
3010
0000
,
0110
0000
0100
0000
0100
0000
0100
0001
,
0010
0001
1000
0001
0200
0000
0310
0000
,
1010
0000
1000
0000
1000
0000
1000
0001
,
0100
0000
0100
0001
2000
0000
3100
0000
,
0110
0000
0010
0000
0010
0000
0010
0001
,
0100
0010
0100
0001
0020
0000
0130
1000
,
0010
0100
0010
1000
0200
0000
0310
0001
,
0100
0010
0100
0001
0020
0000
0130
1000
,
0010
0100
0010
0100
0010
0100
0010
0100
,
0000
0000
1001
0000
1000
0100
0002
0000
,
1003
0010
0002
0000
1003
0010
0100
0100
,
0001
0001
0010
0001
2000
3000
2000
3000
,
0001
0000
0100
0010
0100
0000
0000
0000
0001
0000
0010
0000
0100
0000
0100
0000
,
2000
3000
1001
0000
0001
0010
2000
0000
,
3001
0100
2000
0000
3001
0100
0010
0010
,
1000
1000
0100
1000
0002
0003
0002
0003
,
1000
0000
0010
0100
0010
0000
0000
0000
1000
0000
0100
0000
0010
0000
0010
0000
,
0002
0003
1001
0000
0001
0100
2000
0000
,
3001
0010
2000
0000
3001
0010
0100
0100
,
1000
1000
0010
1000
0002
0003
0002
0003
,
1000
0000
0100
0010
0100
0000
0000
0000
1000
0000
0010
0000
0100
0000
0100
0000
,
0002
0003
1001
0000
1000
0010
0002
0000
,
1003
0100
0002
0000
1003
0100
0010
0010
,
0001
0001
0100
0001
2000
3000
2000
3000
,
0001
0000
0010
0100
0010
0000
0000
0000
0001
0000
0100
0000
0010
0000
0010
0000
,
2000
3001
0000
0001
,
1000
2010
0000
3001
,
2100
0000
0000
0001
3001
0000
1010
0000
,
1000
0100
0210
0000
0000
0000
1300
0000
,
0210
0000
0000
1000
1300
0000
0110
0000
,
0001
0102
0000
1003
,
0012
0000
0000
1000
1003
0000
0001
1000
,
0010
0100
0010
0000
1000
0000
0001
0000
0100
0000
0001
0000
1000
0000
0001
0000
,
0010
0001
1000
0000
0000
0000
0000
0000
,
0001
1000
0100
1000
0001
1000
0010
1000
,
0001
0000
0010
0000
0100
0000
0000
0000
0000
0000
0000
0000
0000
0000
1000
0001
,
1000
0100
1000
0010
0100
0000
0000
0000
,
0100
0010
1000
0100
0010
0100
1000
0010
,
0001
0010
1000
0100
0010
0001
0200
0000
,
0301
0000
0010
0000
1000
0000
0010
0000
0001
0000
0100
0000
0010
0000
1000
0001
,
1000
0100
0020
0030
0020
0030
0000
0000
,
0200
0300
0200
0300
0000
1000
0010
0100
,
0001
0000
0000
1000
0000
0000
0002
0000
0003
0000
0000
0000
0020
0000
0030
0000
0001
0000
1000
0000
0001
0000
1000
0000
,
0010
0100
0010
0100
0001
0010
0002
0003
0000
0200
0300
0001
,
1000
0001
1000
0200
0300
0000
0020
0030
0000
0001
1000
0001
,
2000
3000
0000
0020
0030
1000
0100
1000
0001
0100
0001
1000
,
0100
1000
0001
0020
0030
0000
0200
0300
1000
0010
1000
0001
,
0010
0001
1000
0100
1000
0001
0100
0001
1000
0010
0100
0001
,
1000
0000
0000
0000
0001
0010
0000
0000
0010
0100
0000
0000
0100
1000
0000
0000
,
0002
0003
0100
0010
1000
0100
0010
0100
,
0100
1000
0001
0010
0100
1000
0010
0100
,
0001
0100
0010
1000
0100
0010
0001
0010
,
0010
0000
0100
0000
1000
0000
0000
1000
0000
0000
1000
0000
0001
0000
0100
0000
,
0010
0000
1000
0000
0001
0000
0000
0001
0000
0000
0001
0000
0010
0000
0000
0000
,
0010
0000
0001
1000
0100
0010
0100
1000
0001
1000
0010
0100
,
0010
1000
0001
4000
0000
0000
0000
0000
0000
0000
0000
0000
,
3000
1010
1000
1000
,
1000
0001
0010
0100
0010
0001
0200
0000
,
0310
0110
0010
0010
,
0010
0100
0002
0000
1003
0100
0020
0000
,
0130
1100
1000
1000
,
1000
0010
0100
0001
0010
0001
2000
0000
,
3001
1001
0001
0001
,
0001
0010
0100
0000
0100
0010
0002
0000
,
0103
0110
0010
0010
,
0010
1000
0100
1000
0001
1000
0020
0000
,
0130
0101
0001
0001
,
0001
1000
0010
0000
0010
1000
0002
0000
,
0013
0110
0100
0100
,
0100
1000
0010
0100
0010
1000
0200
0000
,
0310
0001
0100
0010
0100
0001
0020
0000
,
0130
1000
0010
0100
0010
1000
0200
0000
,
0310
0001
0100
0010
0100
0010
0100
0010
,
0100
0010
0000
0000
1001
0000
0000
0000
,
0002
0000
0023
0000
0230
0000
1300
0100
,
M100
0001
0200
0000
0320
0000
1030
0010
,
M010
0001
0020
0000
0230
0000
1300
0100
,
M100
0001
0200
0300
1001
0000
0002
0000
,
0023
0000
2030
0000
3020
0000
0130
1000
,
0010
1000
0001
1000
0100
0010
0002
0003
,
0002
0003
0200
0300
0020
0000
1030
0100
,
M100
0001
0020
0030
1001
0000
0000
0000
,
2000
0000
3020
0000
0230
0000
0301
0100
,
010M
1000
0200
0000
0320
0000
0031
0010
,
001M
1000
0020
0000
0230
0000
0301
0100
,
010M
1000
0200
0300
1001
0000
2000
0000
,
3020
0000
0032
0000
0023
0000
0130
0001
,
0010
0001
1000
0001
0100
0010
2000
3000
,
2000
3000
0200
0300
0020
0000
0031
0100
,
010M
1000
0020
0030
0000
0000
0000
0000
;
