#VERSION:0.83;
#TITLE:Before it Ends;
#SUBTITLE:;
#ARTIST:BilliumMoto;
#TITLETRANSLIT:;
#SUBTITLETRANSLIT:;
#ARTISTTRANSLIT:;
#GENRE:;
#CREDIT:;
#MUSIC:Before it Ends.ogg;
#BANNER:Before it Ends-bn.png;
#BACKGROUND:Before it Ends-bg.png;
#CDTITLE:;
#SAMPLESTART:21.753;
#SAMPLELENGTH:12.973;
#SELECTABLE:YES;
#OFFSET:0.342;
#BPMS:0.000=148.000;
#STOPS:;
#SPEEDS:0.000=1.000=0.000=0,
351.250=4.000=0.250=0
;
#SCROLLS:0.000=1.000,
18.000=0.750,
44.000=0.781,
44.500=0.813,
45.000=0.844,
45.500=0.875,
46.000=0.906,
46.500=0.938,
47.000=0.969,
47.500=1.000,
112.000=0.750,
119.000=0.375,
119.500=0.750,
119.750=1.500,
120.000=1.000,
123.000=-0.500,
123.125=0.400,
123.250=-0.250,
123.375=0.200,
123.500=0.400,
123.625=0.800,
123.750=1.200,
123.875=1.600,
124.000=-0.500,
124.125=0.400,
124.250=-0.250,
124.375=0.200,
124.500=0.400,
124.625=0.800,
124.750=1.200,
124.875=1.600,
125.000=-0.500,
125.125=0.400,
125.250=-0.250,
125.375=0.200,
125.500=0.400,
125.625=0.800,
125.750=1.200,
125.875=1.600,
126.000=1.000,
155.000=-0.500,
155.125=0.400,
155.250=-0.250,
155.375=0.200,
155.500=0.400,
155.625=0.800,
155.750=1.200,
155.875=1.600,
156.000=-0.500,
156.125=0.400,
156.250=-0.250,
156.375=0.200,
156.500=0.400,
156.625=0.800,
156.750=1.200,
156.875=1.600,
157.000=-0.500,
157.125=0.400,
157.250=-0.250,
157.375=0.200,
157.500=0.400,
157.625=0.800,
157.750=1.200,
157.875=1.600,
158.000=1.000,
187.000=-0.500,
187.125=0.400,
187.250=-0.250,
187.375=0.200,
187.500=0.400,
187.625=0.800,
187.750=1.200,
187.875=1.600,
188.000=-0.500,
188.125=0.400,
188.250=-0.250,
188.375=0.200,
188.500=0.400,
188.625=0.800,
188.750=1.200,
188.875=1.600,
189.000=-0.500,
189.125=0.400,
189.250=-0.250,
189.375=0.200,
189.500=0.400,
189.625=0.800,
189.750=1.200,
189.875=1.600,
190.000=1.000,
211.500=0.750,
215.000=0.833,
215.500=0.917,
216.000=1.000,
280.000=0.750,
286.000=0.813,
286.500=0.875,
287.000=0.938,
287.500=1.000,
292.000=0.000,
292.500=1.000,
336.000=0.750,
344.000=0.729,
344.500=0.708,
345.000=0.688,
345.500=0.667,
346.000=0.646,
346.500=0.625,
347.000=0.604,
347.500=0.583,
348.000=0.563,
348.500=0.542,
349.000=0.521,
349.500=0.500
;
#BGCHANGES:;
#FGCHANGES:;

//--------------- dance-single - XMOD XO JA- ----------------
#NOTEDATA:;
#STEPSTYPE:dance-single;
#DESCRIPTION:XMOD XO JA-;
#DIFFICULTY:Hard;
#METER:13;
#RADARVALUES:0,0,0,0,0;
#CREDIT:Talkion;
#NOTES:
0000
0000
0000
0000
,
0000
0000
0000
0000
,
0000
0000
0000
0000
,
0000
0000
0000
0000
,
0000
0000
0000
0000
,
0000
0000
0000
0000
0000
0000
0000
1000
,
0100
0020
0000
0031
0000
1000
1000
0010
,
0000
0100
0002
0000
0003
1000
0000
0001
,
0010
0200
0000
1300
1000
0000
0002
0100
,
0000
1000
0000
0103
0020
0000
1030
0001
,
0010
0100
0010
0001
1000
0010
0100
0010
,
1000
0100
0020
0000
0000
0000
0031
0100
,
2001
0000
0000
3100
0000
0000
0011
0000
0000
0000
0001
0000
0100
0000
0010
0000
,
1010
1000
0001
0011
0000
0010
0100
0100
,
0100
0000
0000
1000
0001
0000
0001
0000
0001
0000
0000
0100
0010
0000
0010
0000
,
0010
0000
1000
0000
0002
0010
0000
0000
2003
0010
0000
0000
3001
0000
0010
0000
,
0100
0000
0000
1000
0001
0000
0001
0000
0001
0000
0000
0100
0010
0000
1000
0000
,
0002
0000
0010
0000
1003
0000
0200
0000
0010
0000
1300
0000
0001
1000
0001
0000
,
0100
0000
0000
0001
1000
0000
1000
0000
1000
0000
0000
0100
0010
0000
0010
0000
,
0010
0000
0001
0000
2000
0010
0000
0000
3002
0010
0000
0000
1003
0000
2010
0000
,
0000
0000
3100
0000
0010
0000
0000
0011
0000
0000
0001
0000
1000
0000
2100
0000
,
0000
0000
3010
0000
0100
0000
0000
0101
0000
0000
0001
0000
1000
0000
0100
0000
,
0010
0000
0001
0100
0010
1000
0010
0M01
,
1000
0000
0100
0000
0000
0010
0000
10M0
0000
0000
0001
0000
0100
0000
0010
0000
,
1000
0000
0001
0010
0100
1000
0100
0M01
,
1000
0000
0010
0000
0000
0100
0000
1M00
0000
0000
0001
0000
0010
0000
0100
0000
,
2000
0001
3001
0100
0010
1000
0100
1000
,
0001
0100
0001
0010
0100
1000
0100
0010
,
0002
0000
0000
1003
2000
0000
0000
3010
,
0020
0000
0000
0130
0100
0000
0002
0000
,
0013
0100
0100
1000
0100
0010
M001
0000
,
M001
0000
M001
0000
2000
0000
3010
0100
,
0001
0020
1000
0000
0031
0020
1000
0000
,
0031
0010
1000
0000
0010
0001
0200
0000
,
0310
1000
1000
0001
0010
0200
1000
0000
,
0010
1000
0310
0001
,
1000
0020
0001
0000
1030
0010
0001
0010
,
1000
0100
0010
0000
0011
0000
2000
0000
,
3010
0100
0100
0001
0100
0010
100M
0000
,
100M
0000
100M
0000
0002
0000
0013
0100
,
1000
0020
0001
0000
1030
0020
0001
0000
,
1030
0020
0001
0000
1030
0000
0000
0000
,
0001
1000
0100
0010
0100
2000
0001
0000
,
0010
0000
0001
0000
3010
1000
0100
0100
,
0100
0000
0000
1000
0001
0000
0001
0000
0001
0000
0000
0100
0010
0000
0010
0000
,
0010
0000
0000
0000
1000
0001
0000
1000
0001
0000
1000
0001
0010
0000
0000
0000
,
0100
0010
0010
0001
0010
0100
100M
0000
,
100M
0000
100M
0000
0200
0320
0030
2001
,
0000
0010
0010
3010
0100
0001
0010
2001
,
0000
0100
0100
3100
0010
0001
1000
0001
,
0100
0010
0010
1000
0010
0200
0001
0000
,
0010
0000
0001
0000
0310
0000
1000
1002
,
0000
0010
0010
0013
0100
1000
0010
0200
,
0000
0000
0000
0000
0300
0000
0001
0100
,
0010
0000
1000
0100
0010
0001
0010
10M0
,
0001
0000
0100
0000
0000
0010
0000
00M1
0000
0000
1000
0000
0100
0000
0010
0000
,
0001
0000
1000
0010
0100
0001
0100
1M00
,
0001
0020
0000
0130
1000
0010
0100
0010
,
1000
0000
0001
0010
0100
1000
0100
0M01
,
1000
0000
0010
0000
0000
0100
0000
1M00
0000
0000
0001
0000
1000
0000
2100
0000
,
0000
0000
3010
0000
0100
0000
0000
0101
0000
0000
0001
0000
1000
0000
2010
0000
,
0000
0000
3100
0000
0010
0000
0000
0011
0000
0000
0001
0000
0100
0000
0100
0000
,
0100
0000
0000
0001
1000
0000
1000
0000
1000
0000
0000
0100
0010
0000
0010
0000
,
0010
0000
0001
0000
2000
0010
0000
0000
3002
0010
0000
0000
1003
0000
0010
0000
,
0100
0000
0000
0001
1000
0000
1000
0000
1000
0000
0000
0100
0010
0000
0001
0000
,
2000
0000
0010
0000
3001
0000
0200
0000
0010
0000
0301
0000
1000
0001
1000
0000
,
0100
0000
0000
1000
0001
0000
0001
0000
0001
0000
0000
0100
0010
0000
0010
0000
,
0010
0000
1000
0000
0002
0010
0000
0000
2003
0010
0000
0000
3001
0000
0020
0000
,
0000
0000
0130
0000
1000
0000
0000
1000
0000
0000
0010
0000
0100
0000
0002
0000
,
0000
0000
0103
0000
0010
0000
0000
0010
0000
0000
1000
0000
0100
0000
0010
0000
,
0002
0000
0000
1003
2000
0000
0000
3010
,
0020
0000
0000
0130
0200
0000
0000
0300
,
1001
0000
0000
0000
0001
0000
1000
0000
0100
0010
0100
0000
1000
0000
2001
0000
,
0MMM
0000
3000
0000
1010
0000
0000
0011
0000
0000
2020
0000
0000
0000
3030
0000
,
1001
0000
0000
0000
1000
0000
0001
0000
0010
0100
1000
0000
0001
0000
0100
0010
,
1000
0000
0001
0000
0010
0100
1000
0000
0002
0000
0100
0000
0000
0000
0003
0000
,
1001
0000
0000
0000
0001
0000
1000
0000
0100
0010
0001
0000
1000
0000
0010
0100
,
0001
0100
0001
0000
0020
0000
0000
0230
0000
0000
2300
0000
0000
0000
3000
0000
,
1001
0001
0100
0010
0002
0000
0013
1000
,
0100
0000
0010
0000
0001
1000
0000
0001
1000
0000
0001
1000
0010
0000
0100
0000
,
0001
0000
0100
0000
0100
0000
0010
0000
1000
0000
0000
0001
0010
0000
0110
0000
,
0100
0000
0000
0000
1100
0000
0000
0101
0000
0000
2200
0000
0000
0000
3300
0000
,
1001
0000
0000
0000
1000
0000
0001
0000
0100
0010
1000
0000
0001
0000
0010
0100
,
0010
0000
0001
0000
1000
0010
0100
0000
0001
0000
0020
0000
0000
0000
0000
0000
,
0031
0000
1000
0000
1000
0000
0010
0000
0100
0000
0000
0001
1000
0000
0100
0000
,
0010
0000
0000
0001
1000
0000
0010
0000
0100
0000
0000
0001
1000
0000
0100
0000
,
0020
0000
0031
0001
0002
0000
1003
1000
,
1000
0000
0010
0000
0100
0000
0010
0000
2000
0000
0000
0000
0000
3000
M000
0000
;

//--------------- dance-single - XMOD FS BU- DS- ----------------
#NOTEDATA:;
#STEPSTYPE:dance-single;
#DESCRIPTION:XMOD FS BU- DS-;
#DIFFICULTY:Challenge;
#METER:16;
#RADARVALUES:0,0,0,0,0;
#CREDIT:Talkion;
#NOTES:
0000
0000
0000
0000
,
0000
0000
0000
0000
,
0000
0000
0000
0000
,
0000
0000
0000
0000
,
0000
0000
0000
0000
,
0000
0000
0000
0000
0000
0000
0000
0000
0000
0000
0000
0000
0000
0000
1000
0100
,
0010
0002
0000
0103
0000
0010
0010
1000
,
0000
0000
0100
0000
2000
0000
0000
0000
3000
0000
0001
0000
1000
0000
0010
0100
,
0001
0000
0020
0000
0000
0000
0130
1000
0100
0000
0010
0000
0002
0000
1000
0000
,
0000
0000
0010
0000
0000
0000
1003
0000
0001
0100
0001
0100
0010
0000
1000
0010
,
0100
0001
1000
0100
0010
0001
1000
0010
,
0100
0000
0001
0000
0020
0000
0000
0000
0130
0000
0000
1000
0010
0000
1000
0010
,
0100
0000
0001
0010
0000
0010
0100
0000
0000
1000
0001
0000
0100
0010
0100
0001
,
1000
0000
0001
0000
0010
0001
0100
0000
0000
0000
0001
0000
0010
0000
0010
0M00
,
0010
0000
0000
1000
0100
0000
0100
00M0
0100
0001
0000
0001
0010
0000
0010
0M00
,
0010
0000
1000
0000
0001
0100
0000
0100
0010
1000
0000
0000
0001
0000
0010
0000
,
0100
0000
0000
1000
0010
0000
0010
0M00
0010
0001
0000
0001
0100
0000
0010
0000
,
2000
0000
0100
0000
3001
0000
0020
0000
0100
0000
0031
0000
1000
0010
0100
0000
,
0001
0000
0000
1000
0100
0000
0100
00M0
0100
0001
0000
0001
0010
0000
0010
0M00
,
0010
0000
1000
0000
0001
0100
0000
0100
0010
1000
0001
0000
0010
0000
2100
0000
,
0000
0000
3001
0000
1000
0010
0000
0101
0000
0000
1000
0000
0100
0000
0012
0000
,
0000
0000
0000
0000
0000
0000
1003
0000
0000
0000
0000
0000
0001
0000
0000
0100
0000
0000
0000
0000
0000
1010
0000
0000
0000
0000
0000
0000
0000
0000
0001
0000
0000
0000
0000
0000
0010
0000
0000
0000
0100
0000
0000
0000
1000
0000
0000
0000
,
0010
0000
0000
0000
0100
0010
0100
0002
0010
0000
1003
0000
0010
0000
00M1
0000
,
1000
0100
0010
0100
1000
0010
0000
00M1
0000
0000
0100
0000
0010
0000
1000
0000
,
0100
0000
0000
0000
0010
0100
0010
0002
0100
0000
1003
0000
0100
0000
0M01
0000
,
1000
0010
0100
0010
1000
0100
0000
0M01
0000
0000
0010
0000
0100
0000
1000
0001
,
2000
0000
0010
0000
3010
0000
0100
0001
0010
0000
0001
1000
0100
1000
0010
0100
,
0001
0000
0010
0100
1000
0000
0010
0100
0001
0000
0010
0100
1000
0000
0001
1000
,
0002
0000
0000
0103
0200
0000
0000
0310
,
0020
0000
0000
1030
1000
0000
0200
0000
,
1300
0001
0001
0010
0001
1000
0M10
0000
,
0M10
0000
0000
0000
0M10
0000
0000
0000
0200
0000
0000
0000
0301
1000
0001
0000
,
0010
0200
1000
0000
0310
0000
0000
0001
0100
0020
1000
0000
0130
0001
1000
0001
,
0010
0200
1000
0000
0310
0000
0000
0001
1000
0000
0010
0000
0200
0000
0000
0000
,
0301
0010
0010
0001
1000
0200
0010
0000
,
1000
0010
1300
0001
,
0100
0020
1000
0000
0130
0000
0001
1000
0100
0020
0001
0000
0130
0000
1000
0000
,
1010
0000
0000
0000
0000
0000
0001
0000
0000
0000
0000
0000
0011
0000
0000
0000
0000
0000
0000
0000
0000
0000
0000
0000
1001
0000
0000
0000
0000
0000
1000
0000
0000
0010
0000
0000
0100
0000
0000
0000
0001
0000
0000
0000
0100
0000
0000
0000
,
0001
1000
1000
0100
1000
0001
01M0
0000
,
01M0
0000
0000
0000
01M0
0000
0000
0000
0020
0000
0000
0000
1030
0001
1000
0000
,
0100
0020
0001
0000
0130
0000
0000
1000
0010
0200
0001
0000
0310
1000
0001
1000
,
0100
0000
0000
0020
0000
0000
0001
0000
0000
0000
0000
0000
0130
0000
0000
0000
0000
0000
0000
0000
0000
1000
0000
0000
0001
0000
0000
0000
0100
0000
0000
0000
0010
0000
0000
0000
1000
0000
0000
0000
0100
0000
0000
0000
0000
0000
0000
0000
,
1000
0000
0001
0000
0100
0000
0010
0000
0100
0000
0001
0000
2000
0100
0000
0000
,
3002
0010
0000
0000
2003
0010
0000
0000
3001
0000
0100
0000
0010
0000
0010
M000
,
0010
0000
0000
0001
0100
0000
0100
00M0
0100
1000
0000
1000
0010
0000
0010
0M00
,
0020
0000
0030
0000
0001
0010
0000
0001
1000
0000
0001
0100
0010
1000
0010
1000
,
0001
1000
1000
0100
1000
0001
01M0
0000
,
01M0
0000
01M0
0000
0020
0230
0300
2001
,
0000
0000
0000
0100
0000
0000
0100
0000
0000
3100
0000
0000
0010
0000
0000
0001
0010
0001
1000
0000
0000
2001
0000
0000
,
0000
0000
0000
0010
0000
0000
0010
0000
0000
3010
0000
0000
0100
0000
0000
0001
0100
0001
1000
0000
0000
0100
0000
0000
,
0010
0001
0001
1000
0010
0100
0002
0003
,
0011
0000
2000
3000
1010
0000
0001
1002
,
0000
0000
0000
0010
0000
0000
0010
0000
0000
0013
0000
0000
0100
0000
0000
1000
0100
1000
0001
0000
0000
0200
0000
0000
,
0000
0000
0000
0000
0300
0000
0010
0100
,
0001
0000
0000
1000
0100
0010
0100
2000
0010
0000
3001
0000
1000
0000
1000
0000
,
0001
0100
0010
0100
0001
1000
0000
1000
0000
0000
0100
0000
0010
0000
0001
0000
,
1000
0000
0000
0001
0100
0010
0100
0002
0010
0000
1003
0000
0001
0000
0001
0000
,
1000
0100
0010
0100
1000
0010
0100
0000
0001
0000
1000
0000
0100
0000
0010
0100
,
1000
0000
0000
0001
0100
0010
0100
0002
0010
0000
1003
0000
0001
0000
0001
0000
,
1000
0100
0010
0100
1000
0001
0000
0001
0000
0000
1000
0000
0010
0000
0102
0000
,
0000
0000
1003
0000
0001
0010
0000
1100
0000
0000
0001
0000
0100
0000
2010
0000
,
0000
0000
3001
0000
1000
0100
0000
0012
0000
0000
1003
0000
0010
0000
0010
0M00
,
0010
0000
0000
0001
0100
0000
0100
00M0
0100
1000
0000
1000
0010
0000
0010
0M00
,
0010
0000
0001
0000
1000
0100
0000
0100
0010
0001
0000
0000
1000
0000
0010
0000
,
0100
0000
0000
0001
0010
0000
0010
0M00
0010
1000
0000
1000
0100
0000
0010
0000
,
0002
0000
0100
0000
1003
0000
0020
0000
0100
0000
1030
0000
0001
0010
0100
0000
,
1000
0000
0001
1000
0001
0100
0010
M000
0010
0001
0000
0001
0100
0000
0100
00M0
,
0100
0000
1000
0000
0001
0010
0000
0000
0100
0010
0001
0000
1000
0000
0020
0000
,
0000
0000
1030
0000
0001
0010
0000
0020
0000
0000
0130
0000
0010
0000
0002
0000
,
0000
0000
0103
0000
0010
1000
0000
2000
0000
0000
3100
0000
0010
0000
0001
0000
,
2000
0000
0000
3010
0020
0000
0000
0130
,
0200
0000
0000
0301
0002
0000
0000
0003
,
1001
0000
0000
0000
0000
0000
0000
0000
1000
0000
0000
0000
0001
0000
0000
0000
0100
00M0
0100
0000
1000
0000
0000
0000
0001
0000
0000
0000
0021
0000
0000
0000
,
0000
0000
MM3M
0000
1100
0000
0000
0101
0000
0000
2100
0000
0000
0000
3001
0100
,
0010
0000
0000
0000
0000
0000
0000
0000
1000
0000
0001
0000
1000
0000
0000
0000
0100
00M0
0100
0000
0001
0000
0000
0000
1000
0000
0000
0000
0100
00M0
0100
0000
,
0001
0000
0000
0000
1000
0000
0000
0000
0100
00M0
0100
0000
0001
0000
0000
0000
0200
0000
0000
0000
0010
0000
0000
0000
0000
0000
0000
0000
0300
0000
0000
0000
,
1001
0000
0000
0000
1000
0000
0000
0000
0010
0000
0100
0000
0001
0000
0000
0000
0100
00M0
0100
0000
1000
0000
0000
0000
0001
0000
0000
0000
0100
00M0
0100
0000
,
1000
0010
1000
0000
0001
0010
0001
0200
0000
0000
0320
0000
0100
0000
0030
0000
,
1001
2000
0010
0001
3200
0300
1100
1000
,
0101
0000
0001
0000
1000
0100
0000
1000
0001
0000
1000
0010
0100
0001
0100
0001
,
1000
0000
0100
0000
0100
0000
1000
0001
0010
0100
0000
1000
0100
1000
0010
0000
,
0100
0001
0100
0001
0010
0000
0000
1010
0000
0000
0012
0000
0000
0000
1003
0010
,
0100
0000
0000
0000
0010
0000
0000
0000
1000
0000
0001
0000
1000
0000
0000
0000
0100
00M0
0100
0000
0001
0000
0000
0000
1000
0000
0000
0000
0100
000M
0100
0000
,
0020
0000
1030
0000
0010
0100
0001
0000
0020
0000
0100
0000
0000
0000
0030
0000
,
0010
0000
0001
0000
0001
0000
1000
0001
0100
0010
0000
1000
0010
1000
0001
0000
,
0010
0000
0000
0001
0010
0001
1000
0000
0010
0000
0000
0100
0010
0100
0002
0000
,
1000
0000
0013
0010
0020
0000
0130
0100
,
0100
0000
1000
0000
0010
0000
0100
0000
0002
0000
0000
0000
0000
0003
000M
0000
;
