#TITLE:Beat Eater;
#SUBTITLE:(Vivid BAD SQUAD ver.);
#ARTIST:Police Piccadilly ft. Kohane & An;
#TITLETRANSLIT:;
#SUBTITLETRANSLIT:;
#ARTISTTRANSLIT:;
#GENRE:Vocaloid;
#CREDIT:Melody Love;
#MUSIC:Beat Eater.ogg;
#BANNER:Beat Eater.png;
#BACKGROUND:Kohane-bg.png;
#CDTITLE:;
#SAMPLESTART:57.437;
#SAMPLELENGTH:20.584;
#SELECTABLE:YES;
#OFFSET:-0.066;
#BPMS:0.000=137.000
,99.000=68.500
,107.000=137.000
,174.833=274.000
,179.000=137.000
;
#STOPS:170.000=0.219
,174.833=0.146
,175.500=0.146
,176.167=0.146
,176.833=0.146
,177.500=0.109
;
#DISPLAYBPM:68.000:137.000;
#JACKET:Beat Eater-jacket.png;
#BGCHANGES:-1.000=black-bg.png=1.000=1=0=0=StretchNoLoop==CrossFade==,
4.000=Kohane-pre.png=1.000=1=0=1===CrossFade==,
66.000=An-pre.png=1.000=1=0=1===CrossFade==,
119.000=Kohane-bg.png=1.000=1=0=1===CrossFade==,
170.000=An-bg.png=1.000=1=0=1===CrossFade==,
99999.000=-nosongbg-=1.000=0=0=0=StretchNoLoop====
;
#FGCHANGES:;

//--------------- dance-single - Melody Love ----------------
#NOTES:
     dance-single:
     Melody Love:
     Beginner:
     3:
     0,0,0,0,0:
0000
0000
0000
0000
,
0000
0000
0000
0000
,
0000
0002
0000
0003
,
0000
0000
0000
0000
,
0000
2000
0000
3000
,
0000
0100
0100
0000
,
0000
0010
0010
0000
,
0000
0001
0001
0000
,
0000
1000
1000
1000
,
0000
0100
0000
0010
,
0000
0200
0000
0300
,
0000
1000
0000
0001
,
0000
1000
0000
1001
,
0000
0010
0000
0100
,
0000
0020
0000
0030
,
0000
1000
0000
0001
,
0000
1000
0000
1001
,
0000
0100
0000
0100
,
0100
0100
0000
0000
,
0000
1000
0000
0001
,
0000
0010
0010
0000
,
0000
0001
0000
0001
,
0001
0001
0000
0000
,
0000
0100
0000
0010
,
0000
1000
0000
0002
,
0000
0103
0000
2000
,
0000
3100
0000
1000
,
0000
0100
0000
0001
,
0000
0100
0000
0002
,
0000
1003
0000
2000
,
0000
3001
0000
1000
,
0000
1000
0000
0100
,
0200
0300
0000
0010
,
0000
0010
0000
0001
,
0002
0003
0000
0100
,
0000
0100
0000
0010
,
0000
0010
0000
1000
,
0000
1000
0000
0001
,
0000
0001
0000
1000
,
0000
1000
0000
0100
,
0200
0000
0300
0100
,
0000
0000
0000
1000
,
0000
0000
1001
0000
,
0000
0000
0000
0000
,
0000
0000
0000
0000
,
0000
1000
0000
1000
,
0000
2002
3003
0000
,
0000
0001
0000
0001
,
0000
2002
3003
0000
,
0000
0010
0000
0010
,
0000
2002
3003
0000
,
0000
0100
0000
0100
,
0000
2002
0000
3003
;

//--------------- dance-single - Melody Love ----------------
#NOTES:
     dance-single:
     Melody Love:
     Easy:
     5:
     0,0,0,0,0:
0000
0000
0000
0000
,
0000
0000
0000
0000
,
0000
0001
0001
0001
,
0000
0000
0000
0000
,
0000
1000
1000
1000
,
0010
0100
0001
1000
,
1000
0001
0001
1000
,
0100
0010
0001
1000
,
1000
0001
0001
1001
,
0000
0100
0000
0010
,
0010
2000
0000
3000
,
0001
0100
0100
0010
,
0010
1000
0000
1001
,
0000
0100
0000
0010
,
0010
0002
0000
0003
,
1000
0010
0010
0100
,
0100
0001
0000
1001
,
0100
0100
0100
0020
,
0230
0320
0030
0000
,
1000
0001
0001
1000
,
0000
0010
0100
0000
,
0001
0001
0001
2000
,
3002
2003
3000
0000
,
0100
0010
0010
0100
,
0000
1000
0001
0200
,
0320
0130
0100
0002
,
2003
3001
0001
1000
,
0010
2000
3000
0001
,
0100
0002
0003
1000
,
0010
1000
0010
0100
,
0001
0100
0001
1000
,
1000
0010
0000
0100
,
0100
0001
0000
0010
,
0010
0100
0000
1000
,
1000
0001
0000
0100
,
0100
0010
0010
0100
,
0001
0100
0000
0010
,
0010
0100
0100
0010
,
1000
0010
0000
1000
,
1000
0001
0001
0100
,
0200
0000
0300
0110
,
0000
0000
0100
0001
,
0001
0000
0100
0000
0010
1000
0000
0000
,
0000
0001
0000
0000
0000
2002
0000
0000
,
0000
0000
0000
3003
,
0000
1000
0100
1000
,
0000
0001
0101
0000
,
0000
0001
0100
0001
,
0000
1000
1100
0000
,
0000
1000
0010
1000
,
0000
0001
0011
0000
,
0000
0001
0010
0001
,
0000
1000
0001
2002
,
0000
3003
0000
0000
0000
0000
0000
0000
0000
0000
0000
0000
0000
0000
0000
0000
0000
0000
0000
0000
0000
0000
0000
0000
;

//--------------- dance-single - Melody Love ----------------
#NOTES:
     dance-single:
     Melody Love:
     Medium:
     10:
     0,0,0,0,0:
0000
0000
0000
0000
,
1000
0000
0000
0001
0000
0001
1000
0000
0000
0010
0000
0010
,
0000
0000
0000
0100
0000
0200
0000
0300
0000
0100
0000
0000
,
0001
0000
0000
1000
0000
1000
0001
0000
0000
0100
0000
0100
,
0000
0000
0000
0010
0000
0010
0000
0000
0000
0010
1000
0010
,
1000
0000
0000
0001
0000
0001
1000
0000
0000
0100
0000
0000
,
0100
0000
0000
0010
0000
0000
0010
0000
0000
0010
0001
0010
,
0001
0000
0000
1000
0000
1000
0001
0000
0000
0010
0000
0000
,
0010
0000
0000
0001
0000
0001
1000
0000
1000
0100
0000
0000
,
0010
0000
0000
0010
0000
0000
0000
0000
0001
1000
0000
1000
,
0010
0000
0000
0100
0000
0002
0000
0000
0000
0003
0000
0000
,
1000
0000
1000
0020
0000
0030
0100
0000
0000
0010
0000
0100
,
0010
0000
0100
0010
0000
2000
0000
0000
3001
0000
0000
0000
,
0100
0000
0000
0010
0000
0010
0000
0000
1000
0002
0000
0003
,
0010
0000
0000
0100
0000
2000
0000
0000
0000
3000
0000
0000
,
0001
0000
0001
0200
0000
0300
0010
0000
0000
0010
0000
0020
,
0000
0030
0000
0100
0000
0200
0000
0300
0000
0110
0000
0000
,
1000
0000
0000
1000
0000
1000
1000
0000
0000
0001
0000
0100
,
0001
0000
0100
0001
0000
2000
0000
0000
0000
3000
0000
0000
,
1000
0000
0000
0001
0000
0001
0000
0100
0000
0100
0000
0010
,
0000
1010
0101
0000
,
0001
0000
0000
0001
0000
0001
0001
0000
0000
1000
0000
0100
,
1000
0000
0100
1000
0000
0002
0000
0000
0000
0003
0000
0000
,
0001
0000
0000
0100
0000
0100
0000
0010
0000
0010
0000
0000
,
1000
0000
0000
0000
0000
0000
0001
0000
0000
0000
0100
0000
0001
0000
0000
0000
0000
0000
0020
0000
0000
0230
0000
0000
,
2300
0000
0000
3200
0000
0000
0320
0000
0000
0031
0000
0000
0001
0000
0001
1000
0000
0000
0200
0000
0000
0320
0000
0000
,
0032
0000
0000
0023
0000
0000
0230
0000
0000
1300
0000
0000
1000
0000
1000
0001
0000
0000
0100
0000
0000
0000
0000
0000
,
0100
0000
0100
0010
0000
0000
0010
0000
0010
1000
0000
0000
,
1000
0000
1000
0100
0000
0000
0100
0000
0100
0010
0000
0010
,
0001
0000
0001
1000
0000
1000
0010
0000
0010
0100
0000
0100
,
0001
0000
0001
0010
0000
0010
0100
0000
0100
1000
0000
1000
,
0001
0000
0001
0000
0000
1000
0100
0000
0010
0001
0000
0001
,
0020
0000
0000
0000
0000
0130
0000
0000
0000
1000
0000
1000
,
0001
0000
0001
0000
0000
1000
0010
0000
0100
0001
0000
0001
,
0200
0000
0000
0000
0000
0310
0000
0000
0000
0100
0010
0100
,
0010
0000
0000
1000
0000
0000
0001
0000
0000
1000
0001
1000
,
0001
0000
0000
0100
0000
0000
0010
0000
0000
0100
0010
0100
,
0001
0000
0000
0001
0000
0000
0010
0000
0000
0100
0010
0100
,
1000
0000
0000
1000
0000
0000
0010
0000
0000
0100
0000
0100
,
0010
0000
0010
0000
0000
1000
0001
0000
0001
1000
0000
1000
,
0002
0000
0000
0000
0000
0000
0100
0000
0200
0000
0000
0000
,
0303
0000
0000
0000
0000
0000
1000
0000
1000
0010
0000
0000
,
0001
0000
0000
0000
0001
0000
0100
0000
0000
0000
0000
0000
1001
0000
0000
0100
0000
0000
0000
0000
0000
0010
0000
0000
,
0000
0000
0000
1000
0000
0000
0000
0000
0000
0001
0000
0000
0000
0000
0000
0000
0000
1000
0000
0000
0000
1000
0000
0000
,
0000
1000
0000
0000
0000
0001
0000
0000
0000
0001
0000
0000
0000
0000
0001
0000
0000
0000
0000
0000
0000
0000
0000
0000
,
1000
0000
0000
0010
0000
0010
1000
0000
0000
0100
0000
0100
,
0000
0000
0000
2000
0000
3200
0320
0000
0032
0000
0003
0000
,
0001
0000
0000
0010
0000
0010
0001
0000
0000
0100
0000
0100
,
0000
0000
0000
0002
0003
0020
0230
0000
2300
0000
3000
0000
,
0010
0000
0000
0100
0000
0100
0010
0000
0000
1000
0000
1000
,
0000
0000
0000
2000
0000
3200
0320
0000
0032
0000
0003
0000
,
0100
0000
0000
0010
0000
0010
0100
0000
0000
0001
0000
0001
,
0000
0000
0000
0000
0000
0000
0002
0000
0000
0000
0023
0000
0230
0000
0000
0300
2000
0000
0020
0000
0000
0000
0000
0000
,
0000
3030
0000
0000
0000
0000
0000
0000
0000
0000
0000
0000
0000
0000
0000
0000
0000
0000
0000
0000
0000
0000
0000
0000
;

//--------------- dance-single - Melody Love ----------------
#NOTES:
     dance-single:
     Melody Love:
     Hard:
     13:
     0,0,0,0,0:
0000
0000
0000
0000
,
1000
0100
0010
0001
0000
0001
0001
0010
0001
0010
0000
0010
,
0000
0000
0000
0100
0000
0100
0000
0100
0000
0100
0000
0000
,
0001
0010
0100
1000
0000
1000
1000
0000
1000
0100
0000
0100
,
0000
0000
0000
1000
0000
0001
1000
0100
0010
0001
1000
0001
,
0100
0000
0100
0001
0100
0010
1000
0010
0000
0000
0100
0000
,
0100
0000
0100
0000
0001
0000
0001
0000
0001
1000
0001
1000
,
0010
0000
0010
1000
0010
0100
0001
0100
0000
0000
0010
0000
,
0010
0000
0010
0100
0010
0001
0010
0100
1000
0100
0000
0000
,
0001
0100
0000
0100
0000
0001
0000
0000
1000
0001
0000
1000
,
0100
1000
0001
0010
0000
0002
0000
0000
0000
0003
0000
0000
,
1000
0010
1000
0002
0000
0003
0100
0000
0010
0100
0001
1000
,
0010
0000
1000
0000
0001
0000
0100
0000
0000
0000
0002
0000
0000
0003
0000
0000
0101
0000
0000
0000
0000
0000
0000
0000
,
1000
0100
1000
0100
0000
1000
0000
0000
0001
2000
0000
3000
,
0100
0000
1000
0010
0000
2000
0000
0000
0000
3000
0000
0000
,
0001
0100
0001
2000
0000
3000
0010
0000
1000
0010
1000
0002
,
0000
0003
0100
0010
0000
2000
0000
3000
0000
1010
0000
0000
,
1000
1000
0000
1000
0000
1000
1000
0000
0001
0100
0001
0010
,
0001
0000
0100
0001
0000
2002
0000
0000
0000
3003
0000
0000
,
1000
0100
0010
0001
0000
0001
0000
0010
0000
0100
0000
1000
,
0000
0000
0000
2000
0000
3100
0020
0000
0130
0000
0000
0000
,
0001
0001
0000
0001
0000
0001
0001
0000
1000
0100
0000
1000
,
0010
0000
1000
0100
2000
0002
0000
0000
0000
3003
0000
0000
,
0001
0000
0010
0100
0000
1000
0000
1000
0000
0100
0000
0010
,
0001
0000
0000
0000
0000
0000
0100
0000
0100
0000
0001
0000
1000
0000
0000
0000
0001
0000
2000
0000
0000
3200
0000
0000
,
2300
0000
0000
3020
0000
0000
2030
0000
0000
3100
0100
0010
0001
0000
0001
0010
0000
0100
2000
0000
0000
3020
0000
0000
,
2030
0000
0000
3200
0000
0000
2300
0000
0000
3100
0100
0010
0001
0000
0001
0010
0000
0100
1000
0000
0000
0000
0100
0000
,
1000
0000
0100
0010
0000
0100
0010
0000
0100
0001
0000
0100
,
0001
0100
0010
0001
0000
0001
0010
0000
0100
1000
0100
1000
,
0001
1000
0001
1000
0010
1000
0010
0100
0010
0100
0001
0100
,
0001
0010
0001
0010
0100
1000
0100
0010
0001
1000
0000
1000
,
0010
0000
0010
1000
0000
0010
1000
0100
0010
0001
0000
0001
,
0010
0000
0010
0001
0000
0010
0001
0010
0100
1000
0000
1000
,
0100
0000
0100
1000
0000
0100
1000
0100
0010
0001
0000
0001
,
1000
0000
1000
0001
0010
0100
1000
0100
0010
0001
0100
0001
,
0100
0000
0001
0100
0000
0010
1000
0000
0010
1000
0010
1000
,
0010
0000
1000
0010
0000
0100
0001
0100
0010
1000
0100
1000
,
0100
0000
1000
0100
0000
0010
0001
0000
0010
0001
0010
0001
,
0010
0000
0100
1000
0001
0100
0010
1000
0010
0100
0000
0100
,
0010
0000
0010
1000
0000
1000
0100
0000
0100
0010
0000
0010
,
0002
0000
0000
1000
0000
0000
0203
0000
0020
0000
0000
0000
,
0330
0000
0000
0000
0000
0000
1000
0100
0010
0001
0000
0000
,
0001
0000
0000
0000
0000
0000
0000
0000
0000
0000
0000
0000
0000
0000
0000
0000
0010
0000
0000
0000
0000
0000
0000
0000
0000
0000
0000
0000
0000
0000
0000
0000
0100
0000
0000
0000
0000
0000
0000
0000
0000
0000
0000
0000
0000
0000
0000
0000
1000
0000
0000
0000
0000
0000
0000
0000
0000
0000
0000
0000
0000
0000
0000
0000
0000
0000
0000
0000
0000
0000
0000
0000
0000
0000
0000
0000
0000
0000
0000
0000
0000
0000
0000
0000
0000
0000
0000
0000
0000
0000
0000
0000
0000
0000
0000
0000
0200
0300
0000
0000
0000
0000
0000
0000
0000
0000
0000
0000
0000
0000
0000
0000
0000
0000
0000
0000
0000
0000
0000
0000
0100
0000
0000
0000
0000
0000
0000
0000
0000
0000
0000
0000
0000
0000
0000
0000
1000
0000
0000
0000
0000
0000
0000
0000
0000
0000
0000
0000
0000
0000
0000
0000
0001
0000
0000
0000
0000
0000
0000
0000
0000
0000
0000
0000
0000
0000
0000
0000
1000
0000
0000
0000
0000
0000
0000
0000
0000
0000
0000
0000
0000
0000
0000
0000
0000
0000
0000
0000
0000
0000
0000
0000
,
0000
0010
0000
0100
0000
0010
0000
1000
0000
0001
0000
1000
0000
0000
0000
0000
0000
0110
0000
0000
0000
1010
0000
0000
,
0000
0110
0000
0000
0000
0110
0000
0000
0000
0101
0000
0000
0000
0000
0100
0000
0000
0000
0001
0000
0000
0000
0000
0000
,
1000
0100
0010
0001
0000
0001
0001
0010
0001
0010
0000
0011
,
0000
0000
0000
2000
3000
M100
0200
0000
0302
0000
0003
0000
,
0001
0010
0100
1000
0000
1000
1000
0000
1000
0100
0000
1100
,
0000
0000
0000
0002
0003
001M
0020
0000
2030
0000
3000
0000
,
1000
0100
0010
0001
0000
0100
0100
0000
0100
0010
0000
0110
,
0000
0000
0000
2000
3000
M100
0200
0000
0302
0000
0003
0000
,
0101
0000
0001
0010
0100
1000
0000
0000
0100
0010
0000
0110
,
0000
0000
0000
0001
0010
0100
1000
0001
0100
0020
0000
0000
,
0000
0030
0000
0000
0000
0000
0000
0000
0000
0000
0000
0000
0000
0000
0000
0000
0000
0000
0000
0000
0000
0000
0000
0000
;
