#VERSION:0.83;
#TITLE:Beak;
#SUBTITLE:;
#ARTIST:Jun Chikuma;
#TITLETRANSLIT:;
#SUBTITLETRANSLIT:;
#ARTISTTRANSLIT:;
#GENRE:;
#ORIGIN:;
#CREDIT:;
#BANNER:banner.png;
#BACKGROUND:Beak-bg.png;
#PREVIEWVID:;
#JACKET:jacket.png;
#CDIMAGE:;
#DISCIMAGE:;
#LYRICSPATH:;
#CDTITLE:;
#MUSIC:Beak.ogg;
#OFFSET:-1.683000;
#SAMPLESTART:3.083238;
#SAMPLELENGTH:12.000000;
#SELECTABLE:YES;
#BPMS:0.000=169.970;
#STOPS:;
#DELAYS:;
#WARPS:;
#TIMESIGNATURES:0.000=4=4;
#TICKCOUNTS:0.000=4;
#COMBOS:0.000=1;
#SPEEDS:0.000=1.000=0.000=0;
#SCROLLS:0.000=1.000;
#FAKES:;
#LABELS:0.000=Song Start;
#BGCHANGES:0.000=Beak.mp4=1.000=0=0=0=StretchNoLoop====,
99999=-nosongbg-=1.000=0=0=0 // don't automatically add -songbackground-
;
#KEYSOUNDS:;
#ATTACKS:
;

//---------------dance-single - ----------------
#NOTEDATA:;
#CHARTNAME:;
#STEPSTYPE:dance-single;
#DESCRIPTION:;
#CHARTSTYLE:;
#DIFFICULTY:Beginner;
#METER:2;
#RADARVALUES:0.081908,0.119884,0.000000,0.000000,0.000000,44.000000,44.000000,0.000000,0.000000,0.000000,0.000000,0.000000,0.000000,0.000000,0.081908,0.119884,0.000000,0.000000,0.000000,44.000000,44.000000,0.000000,0.000000,0.000000,0.000000,0.000000,0.000000,0.000000;
#CREDIT:Venom;
#NOTES:
// measure 0
0000
0000
0000
0000
,  // measure 1
0000
0000
0000
0000
,  // measure 2
0000
0000
0000
0000
,  // measure 3
0000
0000
0000
0000
,  // measure 4
0000
0000
0000
0000
,  // measure 5
0000
0000
0000
0000
,  // measure 6
0000
0000
0000
0000
,  // measure 7
1000
0000
1000
0000
,  // measure 8
1000
0000
0000
0000
,  // measure 9
0001
0000
0000
0000
,  // measure 10
0000
0000
0000
0000
,  // measure 11
0100
0000
0100
0000
,  // measure 12
0100
0000
0000
0000
,  // measure 13
0010
0000
0000
0000
,  // measure 14
0000
0000
0000
0000
,  // measure 15
1000
0000
0100
0000
,  // measure 16
1000
0000
0000
0000
,  // measure 17
0001
0000
0000
0000
,  // measure 18
0000
0000
0000
0000
,  // measure 19
0100
0000
0010
0000
,  // measure 20
0100
0000
0000
0000
,  // measure 21
0001
0000
0000
0000
,  // measure 22
0000
0000
0000
0000
,  // measure 23
1000
0000
1000
0000
,  // measure 24
0100
0000
0000
0000
,  // measure 25
0010
0000
0010
0000
,  // measure 26
0001
0000
0000
0000
,  // measure 27
0100
0000
0100
0000
,  // measure 28
0010
0000
0000
0000
,  // measure 29
1000
0000
1000
0000
,  // measure 30
0001
0000
0000
0000
,  // measure 31
1000
0000
0000
0000
,  // measure 32
1000
0000
0000
0000
,  // measure 33
0100
0000
0000
0000
,  // measure 34
0100
0000
0000
0000
,  // measure 35
0010
0000
0000
0000
,  // measure 36
0010
0000
0000
0000
,  // measure 37
0001
0000
0000
0000
,  // measure 38
0001
0000
0000
0000
,  // measure 39
0100
0000
0000
0000
,  // measure 40
0100
0000
0000
0000
,  // measure 41
0010
0000
0000
0000
,  // measure 42
0010
0000
0000
0000
,  // measure 43
1000
0000
0000
0000
,  // measure 44
0001
0000
0000
0000
,  // measure 45
1000
0000
0000
0000
,  // measure 46
0001
0000
0000
0000
;

//---------------dance-single - ----------------
#NOTEDATA:;
#CHARTNAME:;
#STEPSTYPE:dance-single;
#DESCRIPTION:;
#CHARTSTYLE:;
#DIFFICULTY:Easy;
#METER:5;
#RADARVALUES:0.217801,0.281466,0.000000,0.013031,0.000000,117.000000,117.000000,0.000000,1.000000,0.000000,0.000000,0.000000,0.000000,0.000000,0.217801,0.281466,0.000000,0.013031,0.000000,117.000000,117.000000,0.000000,1.000000,0.000000,0.000000,0.000000,0.000000,0.000000;
#CREDIT:Venom;
#NOTES:
0000
0000
0000
0000
,
0000
0000
0000
0000
,
0000
0000
0000
0000
,
0000
0000
0000
0000
,
0000
0000
0000
0000
,
0000
0000
0000
0000
,
0000
0000
0000
0000
,
1000
1000
0001
0001
,
0100
0000
0100
0000
,
0000
0000
0000
0000
,
0000
0010
0010
0010
,
0100
0100
0001
0001
,
1000
0000
1000
0000
,
0000
0000
0000
0000
,
0000
0100
0100
0100
,
1000
1000
0100
0100
,
0010
0000
0010
0000
,
0001
0000
0001
0000
,
0100
0100
0010
0010
,
0100
0100
0001
0001
,
1000
0000
1000
0000
,
0100
0000
0100
0000
,
0010
0010
0100
0100
,
1000
0001
1000
0001
,
0000
0100
0010
0100
,
0001
1000
0001
1000
,
0000
0100
0010
0100
,
1000
0100
0010
0001
,
0000
0001
0100
0010
,
1000
0010
0100
0001
,
0000
0001
0010
0100
,
1000
0000
0000
1000
0000
0000
0000
0000
,
0001
0000
0000
0001
0000
0000
0001
0000
,
0100
0000
0000
0100
0000
0000
0000
0000
,
0010
0000
0000
0010
0000
0000
0010
0000
,
0100
0000
0000
0100
0000
0000
0000
0000
,
0001
0000
0000
0001
0000
0000
1000
0000
,
0100
0000
0000
0100
0000
0000
0000
0000
,
1000
0000
0000
1000
0000
0000
0001
0000
,
0010
0001
0100
0000
,
0010
0100
0001
0010
,
0100
1000
0010
0000
,
1000
0001
0100
0010
,
0100
0001
1000
0000
,
0100
1000
0001
0010
,
0001
1000
0010
0000
,
0100
0000
0000
0100
0000
0000
0200
0000
,
0000
0000
0000
0000
,
0300
0000
0000
0000
;

//---------------dance-single - ----------------
#NOTEDATA:;
#CHARTNAME:;
#STEPSTYPE:dance-single;
#DESCRIPTION:;
#CHARTSTYLE:;
#DIFFICULTY:Medium;
#METER:8;
#RADARVALUES:0.333217,0.344014,0.000000,0.013031,0.000000,179.000000,179.000000,0.000000,1.000000,0.000000,0.000000,0.000000,0.000000,0.000000,0.333217,0.344014,0.000000,0.013031,0.000000,179.000000,179.000000,0.000000,1.000000,0.000000,0.000000,0.000000,0.000000,0.000000;
#CREDIT:Venom;
#NOTES:
0000
0000
0000
0000
,
0000
0000
0000
0000
,
0000
0000
0000
0000
,
0000
0000
0000
0000
,
0000
0000
0000
0000
,
0000
0000
0000
0000
,
0000
0000
0000
0000
,
1000
0100
1000
0010
,
0100
0000
0000
0100
0000
0000
0000
0000
,
0001
1000
0001
1000
,
0001
0010
0100
1000
,
0001
0100
0001
0010
,
0100
0000
0000
0100
0000
0000
0000
0000
,
1000
0001
1000
0001
,
1000
0000
0010
0100
0010
0000
1000
0000
,
0100
0000
1000
0010
0100
0000
0010
0000
,
1000
0000
0001
1000
0000
0000
1000
0000
,
0001
0010
0100
1000
,
0010
0100
0001
1000
,
0100
0000
1000
0010
0100
0000
0001
0000
,
0010
0000
0001
1000
0000
0000
1000
0000
,
0001
0100
0010
0100
,
0001
1000
0001
0000
1000
0001
1000
0000
,
0001
0000
0010
0000
0100
0000
1000
0010
,
0000
0100
0001
0000
0010
0000
0100
0000
,
1000
0000
0001
0000
0100
0000
0010
0100
,
0000
0001
1000
0000
0100
0000
0010
0000
,
0100
0000
1000
0000
0001
0000
0100
0010
,
0000
1000
0001
0000
0010
0000
0100
0000
,
1000
0000
0001
0000
0100
0000
0010
1000
,
0000
0100
0010
0000
0100
0000
1000
0000
,
0001
0000
0100
0010
0000
0010
0100
0000
,
0001
0000
0010
0100
0000
0100
0010
0000
,
0001
0000
1000
0001
0000
0001
1000
0000
,
0010
0000
1000
0001
0000
0001
1000
0000
,
0100
0000
1000
0010
0000
0010
1000
0000
,
0001
0000
0100
0001
0000
0001
0100
0000
,
0001
0000
0010
0001
0000
0001
0010
0000
,
0100
0000
1000
0100
0000
0100
1000
0000
,
0001
0000
1000
0010
0000
0100
0001
0000
,
1000
0000
0100
0010
0000
0001
1000
0000
,
0001
0000
1000
0010
0000
0100
0001
0000
,
1000
0000
0100
1000
0000
0010
0100
0000
,
0001
0000
1000
0100
0000
1000
0001
0000
,
0010
0000
0001
1000
0000
0001
0100
0000
,
0001
0000
0010
0100
0000
1000
0001
0000
,
0100
0000
0000
0100
0000
0000
0200
0000
,
0000
0000
0000
0000
,
0300
0000
0000
0000
;

//---------------dance-single - ----------------
#NOTEDATA:;
#CHARTNAME:;
#STEPSTYPE:dance-single;
#DESCRIPTION:;
#CHARTSTYLE:;
#DIFFICULTY:Hard;
#METER:12;
#RADARVALUES:0.511926,0.531658,0.000000,0.117278,0.058639,275.000000,275.000000,0.000000,9.000000,0.000000,0.000000,0.000000,0.000000,0.000000,0.511926,0.531658,0.000000,0.117278,0.058639,275.000000,275.000000,0.000000,9.000000,0.000000,0.000000,0.000000,0.000000,0.000000;
#CREDIT:Venom;
#NOTES:
0000
0000
0000
0000
,
0000
0000
0000
0000
,
0000
0000
0000
0000
,
1000
0100
0010
0001
0100
0010
0000
0100
,
0001
0010
0100
1000
0001
1000
0000
0010
,
1000
0001
0010
0001
0100
0001
0000
1000
,
0100
1000
0001
1000
0010
1000
0000
0100
,
1000
0000
0000
1000
0010
0000
0000
0010
0100
0000
0000
0000
0100
0000
0001
0000
,
0020
0000
0030
0020
0000
0000
0030
0000
,
0000
0000
0000
0000
,
0000
0001
0100
0010
0100
0000
0001
1000
,
0100
0000
0000
0100
1000
0000
0000
1000
0001
0000
0000
0000
0001
0000
0100
0000
,
0020
0000
0030
0020
0000
0000
0030
0000
,
0000
0000
0000
0000
,
0000
0010
1000
0100
0010
0000
0010
0100
,
1000
0000
0000
1000
0001
0000
0000
0001
0100
0000
0000
0000
0100
0000
0001
0000
,
2000
0000
3000
2000
0000
0000
3000
0000
,
0001
0010
0100
1000
0001
0010
0100
1000
,
0001
1000
0100
0010
0001
0000
0001
1000
,
0001
0000
0000
0001
1000
0000
0000
1000
0100
0000
0000
0000
0100
0000
1000
0000
,
0002
0000
0003
0002
0000
0000
0003
0000
,
1000
0010
0100
0001
1000
0010
0100
0001
,
1000
0001
0100
0010
1000
0000
0001
0001
,
1000
0100
1000
0100
0001
0100
0001
0100
,
0000
0100
1000
0001
1000
1000
0001
0001
,
1000
0010
1000
0010
0001
0010
0001
0010
,
0000
0000
0010
0000
1000
0000
0001
0000
1000
0000
1000
0000
0001
0000
0001
1000
,
0001
0010
0001
0010
1000
0010
1000
0010
,
0000
0010
1000
0010
0001
1000
0001
1000
,
0001
0100
0001
0100
1000
0100
1000
0100
,
0000
0100
0001
1000
0001
1000
0001
0010
,
0100
1000
0100
1000
0000
1000
0010
0100
,
0001
0100
0001
0100
0000
0100
0001
0010
,
0001
0010
0100
1000
0000
1000
0100
0010
,
0001
1000
0001
1000
0000
0010
1000
0000
,
0001
0100
0001
0100
0000
0010
1000
0010
,
1000
0100
1000
0100
0000
0010
0001
0010
,
0001
0100
0001
0100
0000
0100
0001
1000
,
0100
1000
0100
0010
0000
0100
1000
0000
,
0010
1000
0100
0010
0000
0010
0001
0100
,
0010
0100
0001
0010
0000
0010
0100
1000
,
0010
1000
0100
0010
0000
0010
0001
1000
,
0010
0100
0001
1000
0000
1000
0100
0000
,
1000
0001
0100
0010
0000
0010
0100
0001
,
0010
0100
1000
0001
0000
0001
1000
0010
,
0100
0001
1000
0100
0000
0100
0010
0100
,
1000
0001
0100
0010
0000
0010
0200
0000
,
0000
0000
0000
0000
,
0300
0000
0000
0000
;
