#VERSION:0.83;
#TITLE:Battle! Frontier Brain;
#SUBTITLE:;
#ARTIST:GaMetal;
#TITLETRANSLIT:;
#SUBTITLETRANSLIT:;
#ARTISTTRANSLIT:;
#GENRE:HOENN APEX;
#ORIGIN:;
#CREDIT:;
#BANNER:Battle! Frontier Brain.png;
#BACKGROUND:Battle! Frontier Brain-bg.png;
#PREVIEWVID:;
#JACKET:Battle! Frontier Brain-jacket.png;
#CDIMAGE:;
#DISCIMAGE:;
#LYRICSPATH:Battle! Frontier Brain.lrc;
#CDTITLE:;
#MUSIC:Battle! Frontier Brain.ogg;
#OFFSET:-0.314816;
#SAMPLESTART:19.243019;
#SAMPLELENGTH:16.799999;
#SELECTABLE:YES;
#BPMS:0.000=190.000,
244.000=95.000,
246.000=190.000,
250.000=95.000,
252.000=190.000,
256.000=95.000,
258.000=190.000,
262.000=95.000,
264.000=190.000,
268.000=95.000,
270.000=190.000;
#STOPS:;
#DELAYS:;
#WARPS:;
#TIMESIGNATURES:0.000=4=4;
#TICKCOUNTS:0.000=4;
#COMBOS:0.000=1;
#SPEEDS:0.000=1.000=0.000=0;
#SCROLLS:0.000=1.000;
#FAKES:;
#LABELS:0.000=Song Start;
#BGCHANGES:;
#KEYSOUNDS:;
#ATTACKS:
;

//---------------dance-single - ----------------
#NOTEDATA:;
#CHARTNAME:;
#STEPSTYPE:dance-single;
#DESCRIPTION:;
#CHARTSTYLE:;
#DIFFICULTY:Hard;
#METER:18;
#RADARVALUES:0.995627,1.039286,0.377551,0.846939,0.775510,683.000000,646.000000,37.000000,83.000000,21.000000,0.000000,0.000000,0.000000,0.000000,0.995627,1.039286,0.377551,0.846939,0.775510,683.000000,646.000000,37.000000,83.000000,21.000000,0.000000,0.000000,0.000000,0.000000;
#CREDIT:BlindedVanguard573;
#NOTES:
// measure 0
0000
0000
0000
0000
,  // measure 1
0000
0000
0000
0000
,  // measure 2
0000
0000
0000
0000
0000
0000
0000
0000
0000
0000
0000
0000
1000
0010
0100
0001
,  // measure 3
2000
0100
3100
0000
0010
0002
2003
3000
,  // measure 4
0010
0000
2000
0000
3002
0000
0003
0000
0200
0000
0302
0000
1003
0100
1000
0000
,  // measure 5
0002
0000
0103
0020
0000
0230
0000
2300
,  // measure 6
3100
0000
0000
0000
0000
0000
0001
0000
0000
0100
0000
0000
0001
0000
0000
0000
0010
0000
0000
0000
0001
0000
0000
0000
0010
0000
0000
0000
0001
0000
0000
0000
0010
0000
0000
0000
0001
0000
0000
0100
0000
0000
0010
0000
0000
1000
0000
0000
,  // measure 7
0002
0100
0103
0000
0010
2000
3002
0003
,  // measure 8
0010
0000
0002
0000
2003
0000
3000
0000
0200
0000
2300
0000
3001
0100
0001
0000
,  // measure 9
2000
0000
3100
0020
0000
0230
0000
0302
,  // measure 10
0103
0000
0000
0000
0000
0000
1000
0000
0000
0100
0000
0000
1000
0000
0000
0000
0010
0000
0000
0000
1000
0000
0000
0000
0010
0000
0000
0000
1000
0000
0000
0000
0010
0000
0000
0000
2000
0000
0000
0000
0000
0000
3002
0000
0000
0000
0000
0000
,  // measure 11
1003
0010
2010
0000
3001
0010
0012
0000
,  // measure 12
1003
0100
2100
0000
3001
0100
0102
0000
,  // measure 13
1003
0020
0130
0020
0031
0020
0130
0020
,  // measure 14
1030
0100
1000
0100
0010
0001
0010
0001
1000
0010
1000
0010
0100
0001
0100
0001
,  // measure 15
1000
0000
0010
0000
0100
0000
0001
0000
1000
0000
0001
0000
0010
0100
0010
0000
,  // measure 16
0001
0000
01M0
0000
0100
0000
1000
0000
01M0
0000
0100
0000
0001
0010
0100
1000
,  // measure 17
0001
0000
0010
0000
0100
0000
1000
0000
0001
0000
1000
0000
0010
0100
0010
0000
,  // measure 18
1000
0000
01M0
0000
0100
0000
0001
0000
01M0
0000
0100
0000
1000
0010
0100
0001
,  // measure 19
1000
0000
0100
0000
0010
0000
0001
0000
0100
0000
0010
0000
1000
0001
1000
0000
,  // measure 20
0001
0000
0M10
0000
0010
0000
1000
0000
0M10
0000
0010
0000
0001
0100
0010
1000
,  // measure 21
0001
0000
0010
0000
010M
0000
0001
0000
0010
0000
010M
0000
1000
0001
0100
0000
,  // measure 22
0110
0000
0001
0000
1000
0000
0110
0000
1000
0000
0001
0000
1000
0100
0010
0001
,  // measure 23
1000
0000
0010
0000
M100
0000
1000
0000
0010
0000
M100
0000
0001
1000
0010
0000
,  // measure 24
0110
0000
1000
0000
0001
0000
0110
0000
0001
0000
1000
0000
0001
0010
0100
1000
,  // measure 25
0001
0000
0100
0000
001M
0000
0001
0000
0100
0000
0010
0000
1000
0001
0100
0000
,  // measure 26
0110
0000
0010
0000
0100
0000
1001
0000
1000
0000
0001
0100
0010
1000
0001
0010
,  // measure 27
0100
0000
1000
0000
0010
0000
1000
0000
0001
0000
1000
0000
0100
0010
0001
0000
,  // measure 28
0100
0000
0001
0000
1000
0000
0001
0000
0010
0000
0001
0000
0100
0010
1000
0000
,  // measure 29
0002
0003
0000
0000
0000
0000
0000
0000
0000
0000
0000
0000
0000
0000
0000
0000
0000
0000
0000
0000
0000
0000
0000
0000
0100
0000
0000
0000
0000
0000
0000
0000
0000
0000
0000
0000
0000
0000
0000
0000
0000
0000
0000
0000
0000
0000
0000
0000
1000
0000
0000
0000
0000
0000
0000
0000
0000
0000
0000
0000
0000
0000
0000
0000
0000
0000
0000
0000
0000
0000
0000
0000
0100
0000
0000
0000
0000
0000
0000
0000
0000
0000
0000
0000
0000
0000
0000
0000
0000
0000
0000
0000
0000
0000
0000
0000
0001
0000
0000
0000
0000
0000
0000
0000
0000
0000
0000
0000
0000
0000
0000
0000
0000
0000
0000
0000
0000
0000
0000
0000
1000
0000
0000
0000
0000
0000
0000
0000
0000
0000
0000
0000
0000
0000
0000
0000
0000
0000
0000
0000
0000
0000
0000
0000
0100
0000
0000
0000
0000
0000
0000
0000
0000
0000
0000
0000
0010
0000
0000
0000
0000
0000
0000
0000
0000
0000
0000
0000
0001
0000
0000
0000
0000
0000
0000
0000
0000
0000
0000
0000
0000
0000
0000
0000
0000
0000
0000
0000
0000
0000
0000
0000
,  // measure 30
1000
0000
0100
0000
0001
0000
0100
0000
1000
0000
0001
0000
0100
0001
1000
0000
,  // measure 31
0020
0030
0000
0000
0000
0000
0000
0000
0000
0000
0000
0000
0000
0000
0000
0000
0000
0000
0000
0000
0000
0000
0000
0000
0001
0000
0000
0000
0000
0000
0000
0000
0000
0000
0000
0000
0000
0000
0000
0000
0000
0000
0000
0000
0000
0000
0000
0000
0010
0000
0000
0000
0000
0000
0000
0000
0000
0000
0000
0000
0000
0000
0000
0000
0000
0000
0000
0000
0000
0000
0000
0000
0100
0000
0000
0000
0000
0000
0000
0000
0000
0000
0000
0000
0000
0000
0000
0000
0000
0000
0000
0000
0000
0000
0000
0000
0001
0000
0000
0000
0000
0000
0000
0000
0000
0000
0000
0000
0000
0000
0000
0000
0000
0000
0000
0000
0000
0000
0000
0000
1000
0000
0000
0000
0000
0000
0000
0000
0000
0000
0000
0000
0000
0000
0000
0000
0000
0000
0000
0000
0000
0000
0000
0000
0100
0000
0000
0000
0000
0000
0000
0000
0000
0000
0000
0000
0010
0000
0000
0000
0000
0000
0000
0000
0000
0000
0000
0000
0001
0000
0000
0000
0000
0000
0000
0000
0000
0000
0000
0000
0000
0000
0000
0000
0000
0000
0000
0000
0000
0000
0000
0000
,  // measure 32
0100
0000
0000
0000
0000
0000
0000
0000
0000
0000
0000
0000
0000
0000
0000
0000
0000
0000
0000
0000
0000
0000
0000
0000
1000
0000
0000
0000
0000
0000
0000
0000
0000
0000
0000
0000
0000
0000
0000
0000
0000
0000
0000
0000
0000
0000
0000
0000
0100
0000
0000
0000
0000
0000
0000
0000
0000
0000
0000
0000
0000
0000
0000
0000
0000
0000
0000
0000
0000
0000
0000
0000
0010
0000
0000
0000
0000
0000
0000
0000
0000
0000
0000
0000
0000
0000
0000
0000
0000
0000
0000
0000
0000
0000
0000
0000
2000
3000
0000
0000
0000
0000
0000
0000
0000
0000
0000
0000
0000
0000
0000
0000
0000
0000
0000
0000
0000
0000
0000
0000
0010
0000
0000
0000
0000
0000
0000
0000
0000
0000
0000
0000
0000
0000
0000
0000
0000
0000
0000
0000
0000
0000
0000
0000
0200
0300
0000
0000
0000
0000
0000
0000
0000
0000
0000
0000
0001
0000
0000
0000
0000
0000
0000
0000
0000
0000
0000
0000
1000
0000
0000
0000
0000
0000
0000
0000
0000
0000
0000
0000
0001
0000
0000
0000
0000
0000
0000
0000
0000
0000
0000
0000
,  // measure 33
2000
0000
0100
0000
3001
0000
2000
0000
0010
0000
3100
0000
1000
0001
0100
0000
,  // measure 34
0001
0000
0010
0100
2000
0000
3010
0000
0200
0000
0301
0000
1000
0100
0010
0001
,  // measure 35
2000
0000
3200
0000
0302
0000
0203
0000
2300
0000
3010
0000
1000
0001
0010
0000
,  // measure 36
0001
0000
0100
0000
0010
0000
0100
0000
1000
0000
0100
0000
0001
0010
0100
1000
,  // measure 37
0002
0000
0100
0000
1003
0000
0002
0000
0010
0000
0103
0000
0001
1000
0100
0000
,  // measure 38
1000
0000
0010
0100
0002
0000
0013
0000
0001
0100
0010
1000
0001
0010
0100
1000
,  // measure 39
0002
0000
0203
0000
2300
0000
3200
0000
0302
0000
0013
0000
0001
1000
0010
0000
,  // measure 40
1000
0000
0100
0000
0010
0000
0100
1000
0001
0100
0010
1000
0001
0010
0100
1000
,  // measure 41
0001
0001
0000
0101
0000
1010
0000
0011
,  // measure 42
0000
1100
0000
1001
0002
0000
2003
0000
,  // measure 43
3002
0100
1003
0001
2000
0100
3001
1000
,  // measure 44
0002
0000
0010
0000
1003
0000
0001
0000
2000
0000
0010
0000
3001
1000
0100
0010
,  // measure 45
0002
0103
0020
0130
2000
3100
0020
0130
,  // measure 46
0001
0010
0100
1000
0010
0100
0001
1000
0010
0100
0010
0100
0010
0100
0010
0100
,  // measure 47
0001
0000
0100
0000
0010
0000
1000
0000
0001
0000
0010
0000
0100
1000
0001
0000
,  // measure 48
1000
0000
0010
0000
M100
0000
1000
0000
0010
0000
0100
0000
0010
1000
0001
0100
,  // measure 49
0001
0000
0010
0000
0100
0000
1000
0000
0001
0000
0100
0000
0010
1000
0001
0000
,  // measure 50
1000
0000
0100
0000
M010
0000
1000
0000
0100
0000
0010
0000
0100
1000
0001
0010
,  // measure 51
0001
0000
0010
0000
0100
0000
1000
0000
0010
0000
0100
0000
0001
0100
0010
0000
,  // measure 52
1000
0000
0100
0000
M010
0000
1000
0000
0100
0000
M010
0000
0001
0010
0100
1000
,  // measure 53
0001
0000
01M0
0000
0100
0000
1000
0000
01M0
0000
0100
0000
0001
0010
0100
0000
,  // measure 54
2100
0000
0100
0000
3001
0000
0102
0000
0100
0000
1003
0000
0001
0010
0100
1000
,  // measure 55
0001
0000
0M10
0000
0010
0000
1000
0000
0M10
0000
0010
0000
0001
0100
0010
0000
,  // measure 56
2010
0000
0010
0000
3001
0000
0012
0000
0010
0000
1003
0000
0001
0100
0010
1000
,  // measure 57
0001
0000
0M10
0000
0010
0000
1000
0000
01M0
0000
0100
0000
0001
0010
0100
0000
,  // measure 58
2001
0010
3100
1002
0010
0103
2001
3100
,  // measure 59
0020
0000
0000
0000
0001
0000
0000
0000
0100
0000
0000
0000
0000
0000
0000
0000
1000
0000
0000
0000
0100
0000
0000
0000
0000
0000
0000
0000
0001
0000
0000
0000
0130
0000
0000
0000
0001
0000
0000
0100
0000
0000
0010
0000
0000
1000
0000
0000
,  // measure 60
0001
0020
0000
1000
0000
0031
0010
0001
,  // measure 61
2000
3010
0000
0101
0000
1010
0010
1000
0001
0010
0100
0010
0002
0000
0100
0000
,  // measure 62
0000
0000
0000
0000
1003
0000
0000
0000
0001
0000
0000
0000
0010
0000
0000
0000
0200
0000
1300
0000
0000
0000
0011
0000
0000
0000
1100
0000
1000
0010
0100
0001
,  // measure 63
1000
0020
0000
0001
0000
1030
0010
1000
,  // measure 64
0002
0013
0000
1100
0000
0011
0010
0001
1000
0010
0100
0010
2000
0000
0000
0000
,  // measure 65
0100
0000
0000
0000
0100
0000
0000
0000
0001
0000
0000
0000
0000
0000
0000
0000
3200
0000
1300
0000
0000
0000
0011
0000
0000
0000
1100
0000
1000
0001
0100
0010
,  // measure 66
1000
0000
0000
0020
0001
0000
0000
0000
0100
0000
0100
0000
1030
0000
0001
0000
,  // measure 67
2000
0000
3100
0000
0000
0000
0011
0000
0000
0000
1100
0000
0001
1000
0100
0010
0001
0000
0000
0000
0000
0000
0020
0000
1000
0000
0000
0000
0000
0000
0000
0000
,  // measure 68
0100
0100
0031
0000
1000
0000
0001
0101
,  // measure 69
0000
0000
0000
1010
0000
0000
1000
0000
0000
1001
0000
0000
1000
0000
0010
0000
0100
0000
1000
0000
0100
0000
0001
0000
,  // measure 70
1000
0100
0010
1000
0010
0001
1000
0010
0001
1000
0100
0001
,  // measure 71
1000
0000
0000
0000
0100
0000
0000
0000
0010
0000
0000
0000
0001
0000
0000
0100
0000
0000
0010
0000
0000
1000
0000
0000
0001
0000
0000
0000
0000
0000
1000
0000
0000
0000
0000
0000
0000
0000
0000
0000
0000
0000
1100
0000
0000
0000
0000
0000
,  // measure 72
0000
0000
0100
0000
0110
0000
0010
0001
2000
0000
0000
0000
3000
0000
0000
0000
;

//---------------dance-single - ----------------
#NOTEDATA:;
#CHARTNAME:;
#STEPSTYPE:dance-single;
#DESCRIPTION:;
#CHARTSTYLE:;
#DIFFICULTY:Medium;
#METER:15;
#RADARVALUES:0.779883,0.965051,0.234694,0.571429,0.387755,535.000000,512.000000,23.000000,56.000000,5.000000,0.000000,0.000000,0.000000,0.000000,0.779883,0.965051,0.234694,0.571429,0.387755,535.000000,512.000000,23.000000,56.000000,5.000000,0.000000,0.000000,0.000000,0.000000;
#CREDIT:BlindedVanguard573;
#NOTES:
0000
0000
0000
0000
,
0000
0000
0000
0000
,
0000
0000
0000
0000
0000
0000
1000
0010
,
0200
0010
0310
0000
2000
0001
3001
0000
,
0020
0100
0130
0000
1000
0001
0010
0001
,
2000
0000
0000
0010
0000
0100
0000
3001
,
1000
0000
0000
0000
1000
0000
0010
0000
0000
0000
0010
0000
0100
0000
0000
0000
0100
0000
0001
0000
0000
1000
0000
0000
,
0200
0010
0310
0000
0002
1000
1003
0000
,
0020
0100
0130
0000
0001
1000
0100
1000
,
0002
0000
0000
0100
0000
0010
0000
1003
,
0001
0000
0000
0000
0001
0000
0010
0000
0000
0000
0010
0000
0100
0000
0000
0000
0100
0000
1000
0000
0000
0001
0000
0000
,
1000
1000
0020
0000
0130
0100
0002
0000
,
1003
1000
0200
0000
0310
0010
0002
0000
,
1003
0010
0100
0010
0001
0010
0100
0010
,
1000
0100
1000
0000
0001
0010
0001
0000
1000
0010
1000
0000
0001
0100
0001
0000
,
1000
0100
000M
0100
0001
0000
1001
0000
,
0001
0020
0100
0000
0031
0000
0011
0000
,
0001
0100
0010
0100
0001
1000
0100
0010
,
0001
0100
0100
0010
0100
0100
0001
1000
,
0001
0010
M000
0010
1000
0000
1001
0000
,
1000
0000
0020
0000
0100
0000
1030
0000
0000
0000
0001
0000
1000
0100
1000
0100
,
2000
0000
0010
0001
0000
0001
3010
0000
,
1000
0000
0010
0000
0010
0000
0100
0000
0001
0000
0001
0000
1000
0001
1000
0000
,
0002
0000
0010
1000
0000
1000
0013
0000
,
0001
0000
0010
0000
0010
0000
0100
0000
1000
0000
1000
0000
0001
1000
0001
0000
,
2000
0000
0100
0100
0000
0001
0001
3002
,
0000
0000
0010
0000
0000
0000
0103
0000
0101
0000
0000
0000
0001
0100
0010
1000
,
0001
0010
0100
1000
0100
0010
0001
0001
,
1000
0010
0100
0001
0100
0010
1000
1000
,
0001
0100
1000
0100
0001
1000
0010
0010
,
1000
0100
0001
0100
1000
0001
0010
0010
,
0001
0100
0010
0001
0010
0100
0001
0001
,
1000
0000
0100
0000
0010
0000
1000
0000
0010
0000
0100
0000
1000
0001
1000
0001
,
2000
0010
0000
0001
0000
0100
3100
0000
,
1000
0010
0100
0000
1001
0000
0110
0000
,
0010
1000
0100
1000
0002
0010
1000
1003
,
0001
0000
0100
0000
0010
0000
1000
0000
0100
0000
1000
0000
0001
1000
0001
0000
,
2000
0100
0000
0001
0000
0010
3010
0000
,
1000
0000
0010
0000
0100
0000
0000
0000
0001
0100
0001
0000
1000
0100
1000
0000
,
0010
1000
0001
0010
0002
0010
1000
1003
,
0001
0000
1000
0000
0010
0000
0100
0000
0001
0010
0001
0010
0100
1000
0100
1000
,
0001
0001
0000
0101
0000
1010
0000
0011
,
0000
1100
0000
1000
0002
0000
2003
0000
,
3002
0100
1003
0000
2000
0100
3001
0000
,
0002
0010
1003
0000
2000
0010
3001
0000
,
2020
3030
0202
0303
0022
0033
2200
3300
,
1000
0000
0010
0000
0001
0000
0010
0000
1000
0001
1000
0001
1000
0001
1000
0001
,
2000
0100
0000
0001
3010
0000
1001
0000
,
0001
0000
0100
0000
1000
0000
0001
0000
0010
0000
1000
0000
0001
1000
0001
1000
,
0002
0000
0010
0000
1000
1000
0103
0000
,
0001
0000
0010
0000
1000
0000
0001
0000
0100
0000
1000
0000
0001
1000
0001
1000
,
0002
0010
0000
1000
0103
0000
1001
0000
,
1000
0000
0100
0000
0001
0000
1000
0000
0010
0000
0001
0000
1000
0010
0100
0001
,
1000
0000
1000
0100
00M0
0100
0010
0000
,
1010
0000
0010
0000
0010
0000
0100
0000
0001
0000
0001
0000
1000
0001
0100
0010
,
1000
0000
0001
0100
00M0
0100
0010
0000
,
0011
0000
0010
0000
0010
0000
0100
0000
1000
0000
1000
0000
0001
0100
0010
1000
,
0001
0000
0001
0100
00M0
0100
0010
0001
,
0101
0001
1000
1100
1000
0001
1001
0000
,
1000
0000
0010
0000
0001
0000
1000
0000
0100
0000
0001
0000
1000
0000
0010
0000
0001
0000
1000
0000
0000
0100
0000
0000
,
0002
0010
0000
0100
0000
1000
1003
0000
,
2001
3020
0230
0302
1003
0200
0001
0000
,
0010
0000
0010
0000
1300
0000
0000
0000
0002
0100
0000
1000
0000
0103
0001
1000
,
0020
0001
0000
0100
0000
1030
0010
1000
,
0002
0010
2003
0010
3001
0020
0100
0000
,
1000
0000
1000
0000
0031
0000
0000
0000
2000
0010
0000
0001
0000
3010
1000
0001
,
1000
0000
0000
1000
0020
0000
0000
0000
0100
0000
0100
0000
0031
0000
0010
0000
,
2000
0100
0000
0001
0000
3010
1000
0001
1000
0000
0000
1000
0200
0000
0000
0000
,
0010
0010
0301
0000
0100
0000
1000
0001
,
0020
0000
0000
0130
0000
0000
1000
0010
0100
0001
0100
0010
,
1000
0100
0010
0001
0010
0100
1000
0010
0001
1000
0100
0001
,
1000
0000
0000
0000
0010
0000
0000
0000
0100
0000
0000
0000
0001
0000
0000
1000
0000
0000
0001
0000
0000
1000
0000
0000
0001
0000
0000
0000
0000
0000
0010
0000
0000
0000
0000
0000
0000
0000
0000
0000
0000
0000
0110
0000
0000
0000
0000
0000
,
0000
0000
0100
0000
1000
0000
0001
0100
0020
0000
0000
0000
0030
0000
0000
0000
;

//---------------dance-single - ----------------
#NOTEDATA:;
#CHARTNAME:;
#STEPSTYPE:dance-single;
#DESCRIPTION:;
#CHARTSTYLE:;
#DIFFICULTY:Easy;
#METER:8;
#RADARVALUES:0.485423,0.630995,0.428571,0.500000,0.015306,333.000000,291.000000,42.000000,49.000000,0.000000,0.000000,0.000000,0.000000,0.000000,0.485423,0.630995,0.428571,0.500000,0.015306,333.000000,291.000000,42.000000,49.000000,0.000000,0.000000,0.000000,0.000000,0.000000;
#CREDIT:BlindedVanguard573;
#NOTES:
0000
0000
0000
0000
,
0000
0000
0000
0000
,
0000
0000
0000
0000
,
2000
3010
0200
0301
,
2000
3100
0010
0001
,
2000
0000
0000
0010
0000
3100
0000
1000
,
0001
0000
0101
0000
1001
0000
0001
1000
,
0002
0023
0230
1300
,
0020
0130
0001
1000
,
0002
0000
0000
0010
0000
0103
0000
0001
,
1000
0000
1100
0000
1001
0000
1000
0001
,
1000
1010
0001
0011
,
1000
1100
0001
0101
,
1000
0100
0000
0010
0000
0100
0000
0001
,
0100
1100
1001
0101
,
0002
0100
0000
0000
0010
0000
1003
0000
,
0001
0010
0000
0010
0100
0000
1000
0000
,
1002
0010
0100
0013
,
1001
0000
0001
0100
0000
0100
0010
0000
,
2000
0010
0000
0000
0100
0000
3001
0000
,
1000
0010
0000
0100
0000
0001
0000
1000
,
0001
0000
0000
0011
0000
0000
1100
0000
,
0000
1001
0000
0000
1000
0000
0010
0000
,
0100
0000
0000
0101
0000
0000
1010
0000
,
0000
0011
0000
0000
0010
0000
0100
0000
,
1000
0000
0000
1001
0000
0000
1000
0001
,
0000
0101
0000
0000
0100
0000
0010
0000
,
2010
0001
0010
3100
,
1000
0010
0100
0001
,
0012
1000
0100
0013
,
0001
0100
0010
1000
,
2001
0010
0100
3001
,
1000
0000
0010
0000
0100
0001
1000
0001
,
1000
0000
0000
0100
0000
0000
0001
0000
,
0100
2000
3020
0230
,
0301
0010
0001
0000
2000
0000
3100
0000
,
1000
0010
0001
0010
,
1000
0000
0000
0100
0000
0000
0001
0000
,
0100
2000
3020
0230
,
0301
0010
0001
0000
2000
0000
3100
0000
,
1000
0010
0001
0010
,
1000
1000
0000
0010
0000
0100
0000
0001
,
0000
0100
0000
0010
2000
0000
3002
0000
,
2003
0100
3002
0100
,
2003
0010
3002
0010
,
2003
3020
0230
0302
,
1003
0001
1000
0001
1000
0001
1000
0001
,
2000
0010
0000
0000
0100
0000
3001
0000
,
1000
0100
0000
0100
0010
0000
0001
0000
,
2001
0100
0010
3100
,
1001
0000
1000
0010
0000
0010
0100
0000
,
0002
0100
0000
0000
0010
0000
1003
0000
,
0001
0100
0000
0010
0000
1000
0000
0001
,
1000
0000
0000
1100
0000
0000
0011
0000
,
0000
1001
0000
0000
0001
0000
0100
0000
,
0010
0000
0000
1010
0000
0000
0101
0000
,
0000
1100
0000
0000
0100
0000
0010
0000
,
0001
0000
0000
1001
0000
0000
0001
1000
,
0000
1010
0000
0000
0010
0000
0100
0000
,
0102
1000
0100
0013
,
0002
2003
0000
3100
,
1000
1000
0001
0001
0200
0000
0320
0000
,
0000
0000
0000
0000
1030
0000
0000
0000
0001
0000
0000
0010
0000
0000
0100
0000
,
2000
3002
0000
0103
,
0001
0001
1000
1000
0200
0000
0320
0000
,
0000
0000
0000
0000
0130
0000
0000
0000
1000
0000
0000
0010
0000
0000
0100
0000
,
0002
0100
1003
0001
,
1000
0000
0000
0100
0000
0000
0010
0000
0002
0000
0000
0000
0010
0000
0000
0000
,
1003
0001
0100
0010
,
2000
3001
0101
1010
,
0011
1100
0110
1001
,
0110
0000
0010
1000
0001
1000
0000
0100
,
0000
0010
0001
1000
0002
0000
0003
0000
;

//---------------dance-single - ----------------
#NOTEDATA:;
#CHARTNAME:;
#STEPSTYPE:dance-single;
#DESCRIPTION:;
#CHARTSTYLE:;
#DIFFICULTY:Beginner;
#METER:5;
#RADARVALUES:0.272595,0.334056,0.010204,0.051020,0.000000,187.000000,186.000000,1.000000,5.000000,0.000000,0.000000,0.000000,0.000000,0.000000,0.272595,0.334056,0.010204,0.051020,0.000000,187.000000,186.000000,1.000000,5.000000,0.000000,0.000000,0.000000,0.000000,0.000000;
#CREDIT:BlindedVanguard573;
#NOTES:
0000
0000
0000
0000
,
0000
0000
0000
0000
,
0000
0000
0000
0000
,
1000
1000
0000
0010
,
0000
0100
0100
0000
,
0001
0000
0010
0000
,
0100
0100
0100
0100
,
0100
0100
0000
1000
,
0000
0001
0001
0000
,
0100
0000
0010
0000
,
1000
1000
1000
1000
,
0000
0001
0000
0010
,
0000
0100
0000
1000
,
0000
0001
0001
0001
,
0001
0001
0001
0001
,
0001
0000
0010
0000
,
0100
0100
0100
0100
,
0100
0000
1000
0000
,
0001
0000
0100
0000
,
0010
0000
1000
0000
,
0001
0001
0001
0001
,
0001
0000
0010
0010
,
0000
0100
0100
0100
,
0100
0000
1000
1000
,
0000
0001
0001
0001
,
0001
0000
0100
0100
,
0000
0010
0010
0010
,
0010
0000
0100
0000
,
0001
0000
1000
0000
,
0100
0000
0010
0000
,
0001
0000
1000
0000
,
0010
0000
0100
0000
,
1000
0000
0100
0000
,
0001
0000
0010
0000
,
0100
0000
0001
0000
,
1000
1000
1000
0000
,
0001
0001
0001
0001
,
0001
0000
0010
0000
,
0100
0000
0001
0000
,
0100
0100
0100
0000
,
0010
0010
0010
0010
,
0010
0000
0001
0000
,
1000
0000
0100
0100
,
0100
0000
0010
0000
,
0001
0000
1000
0000
,
0010
0010
0010
0000
,
0100
0100
0100
0100
,
0100
0000
0001
0000
,
1000
1000
1000
1000
,
1000
0000
0100
0000
,
0010
0000
0001
0000
,
1000
0000
0010
0000
,
0100
0100
0100
0100
,
0100
0000
0010
0010
,
0000
1000
1000
1000
,
1000
0000
0001
0001
,
0000
0010
0010
0010
,
0010
0000
0100
0100
,
0000
1000
1000
1000
,
1000
1000
1000
1000
,
1000
1000
0000
0000
,
0010
0010
0010
0010
,
0000
0000
0100
0000
,
0001
0001
0000
0000
,
0010
0010
0100
0100
,
0000
0000
1000
1000
,
0001
0002
0000
0000
,
0003
0000
1000
2000
,
0000
0000
3000
0000
,
0002
0003
0010
0010
,
0010
0010
0010
0010
,
0010
0010
0010
0000
,
0100
0000
2002
3003
;
