#TITLE:Bad Decisions;
#SUBTITLE:;
#ARTIST:benny blanco, BTS & Snoop Dogg;
#TITLETRANSLIT:;
#SUBTITLETRANSLIT:;
#ARTISTTRANSLIT:;
#GENRE:;
#CREDIT:;
#BANNER:Bad Decisions.png;
#BACKGROUND:Bad Decisions-bg.png;
#JACKET:Bad Decisions-jacket.png;
#LYRICSPATH:;
#CDTITLE:;
#MUSIC:Bad Decisions.ogg;
#OFFSET:-0.841000;
#SAMPLESTART:32.841000;
#SAMPLELENGTH:13.000000;
#SELECTABLE:YES;
#BPMS:0.000000=120.000000
;
#STOPS:
;
#BGCHANGES:-1.682=Bad Decisions.avi=1.000=1=0=0=StretchNoLoop==CrossFade==,
99999=-nosongbg-=1.000=0=0=0 // don't automatically add -songbackground-
;
#KEYSOUNDS:;
#ATTACKS:;

//---------------dance-single - ----------------
#NOTES:
     dance-single:
     :
     Beginner:
     1:
     0.054588,0.121443,0.040650,0.000000,0.000000,47.000000,42.000000,5.000000,0.000000,0.000000,0.000000,0.054588,0.121443,0.040650,0.000000,0.000000,47.000000,42.000000,5.000000,0.000000,0.000000,0.000000:
// measure 0
0000
0000
0000
0000
,  // measure 1
0000
0000
0000
0000
,  // measure 2
0000
0000
0000
0000
,  // measure 3
0000
0000
0000
0000
,  // measure 4
1000
0000
0000
0000
,  // measure 5
0000
0000
0000
0000
,  // measure 6
0001
0000
0000
0000
,  // measure 7
0000
0000
0000
0000
,  // measure 8
0100
0000
0000
0000
,  // measure 9
0000
0000
0000
0000
,  // measure 10
0010
0000
0000
0000
,  // measure 11
0000
0000
0000
0000
,  // measure 12
1000
0000
0000
0000
,  // measure 13
1000
0000
0000
0000
,  // measure 14
0001
0000
0000
0000
,  // measure 15
1001
0000
0000
0000
,  // measure 16
0001
0000
0000
0000
,  // measure 17
0001
0000
0000
0000
,  // measure 18
1000
0000
0000
0000
,  // measure 19
0001
0000
0000
0000
,  // measure 20
1000
0000
0000
0000
,  // measure 21
1000
0000
0000
0000
,  // measure 22
0001
0000
0000
0000
,  // measure 23
1000
0000
0000
0000
,  // measure 24
0100
0000
0000
0000
,  // measure 25
0100
0000
0000
0000
,  // measure 26
0010
0000
0000
0000
,  // measure 27
0010
0000
0000
0000
,  // measure 28
0100
0000
0000
0000
,  // measure 29
0100
0000
0000
0000
,  // measure 30
0010
0000
0000
0000
,  // measure 31
0010
0000
0000
0000
,  // measure 32
0001
0000
0000
0000
,  // measure 33
0000
0000
0000
0000
,  // measure 34
1000
0000
0000
0000
,  // measure 35
0000
0000
0000
0000
,  // measure 36
0010
0000
0000
0000
,  // measure 37
0000
0000
0000
0000
,  // measure 38
0100
0000
0000
0000
,  // measure 39
0100
0000
0000
0000
,  // measure 40
0001
0000
0000
0000
,  // measure 41
0001
0000
0000
0000
,  // measure 42
1000
0000
0000
0000
,  // measure 43
0110
0000
0000
0000
,  // measure 44
0000
0000
0000
0000
,  // measure 45
0000
0000
0000
0000
,  // measure 46
0000
0000
0000
0000
,  // measure 47
0000
0000
0000
0000
,  // measure 48
0000
0000
0000
0000
,  // measure 49
0000
0000
0000
0000
,  // measure 50
0000
0000
0000
0000
,  // measure 51
0000
0000
0000
0000
,  // measure 52
0110
0000
0000
0000
,  // measure 53
1001
0000
0000
0000
,  // measure 54
0010
0000
0000
0000
,  // measure 55
0010
0000
0000
0000
,  // measure 56
0100
0000
0000
0000
,  // measure 57
0100
0000
0000
0000
,  // measure 58
0010
0000
0000
0000
,  // measure 59
0010
0000
0000
1001
;

//---------------dance-single - ----------------
#NOTES:
     dance-single:
     :
     Easy:
     4:
     0.166086,0.243902,0.121951,0.146341,0.000000,143.000000,128.000000,15.000000,18.000000,0.000000,0.000000,0.166086,0.243902,0.121951,0.146341,0.000000,143.000000,128.000000,15.000000,18.000000,0.000000,0.000000:
// measure 0
0000
0000
0000
0000
,  // measure 1
0000
0000
0000
0000
,  // measure 2
0000
0000
0000
0000
,  // measure 3
0000
0000
0000
0000
,  // measure 4
1000
0000
0000
0000
,  // measure 5
0100
0000
0000
0000
,  // measure 6
0001
0000
0000
0000
,  // measure 7
0100
0000
0000
0000
,  // measure 8
0001
0000
0000
0000
,  // measure 9
0010
0000
0000
0000
,  // measure 10
1000
0000
0000
0000
,  // measure 11
0010
0000
0000
0000
,  // measure 12
1000
0001
1000
0000
,  // measure 13
0001
1000
0001
0000
,  // measure 14
0100
0010
0100
0000
,  // measure 15
0110
0000
0000
0000
,  // measure 16
2000
0000
3010
1000
,  // measure 17
0002
0000
0013
0001
,  // measure 18
1000
0001
1000
0000
,  // measure 19
0001
1000
0001
0000
,  // measure 20
0002
0000
0103
0001
,  // measure 21
2000
0000
3100
1000
,  // measure 22
0001
0001
0001
0001
,  // measure 23
1000
0001
1000
0100
,  // measure 24
0110
0000
0000
0000
,  // measure 25
1001
0000
0000
0000
,  // measure 26
0001
1000
0001
0001
,  // measure 27
1000
0001
1000
1000
,  // measure 28
1001
0000
0000
0000
,  // measure 29
0110
0000
0000
0000
,  // measure 30
1000
0001
1000
1000
,  // measure 31
0001
1000
0001
0000
,  // measure 32
1000
1000
0100
0100
,  // measure 33
1000
0000
0000
0000
,  // measure 34
0001
0001
0100
0100
,  // measure 35
0001
0000
0000
0000
,  // measure 36
0010
0010
0100
0100
,  // measure 37
0010
0000
0000
0000
,  // measure 38
0110
0000
0000
0000
,  // measure 39
1001
0000
1001
1001
,  // measure 40
0001
1000
0001
0000
,  // measure 41
1000
0001
1000
0000
,  // measure 42
0010
0100
0010
0000
,  // measure 43
0110
0000
0000
0000
,  // measure 44
2000
3000
2000
3000
,  // measure 45
0200
0300
0200
0300
,  // measure 46
0002
0003
0002
0003
,  // measure 47
0200
0300
0200
0300
,  // measure 48
0002
0003
0002
0003
,  // measure 49
0020
0030
0020
0030
,  // measure 50
1000
1000
1000
1000
,  // measure 51
0001
1000
0001
0100
,  // measure 52
0110
0000
0000
0000
,  // measure 53
1001
0000
0000
0000
,  // measure 54
1000
0100
1000
0000
,  // measure 55
0001
0100
0001
0000
,  // measure 56
1001
0000
0000
0000
,  // measure 57
0110
0000
0000
0000
,  // measure 58
1000
0010
1000
0001
,  // measure 59
1000
0000
0000
0220
,  // measure 60
0330
0000
0000
0000
;

//---------------dance-single - ----------------
#NOTES:
     dance-single:
     :
     Medium:
     7:
     0.295006,0.364329,0.162602,0.382114,0.000000,254.000000,234.000000,20.000000,47.000000,0.000000,0.000000,0.295006,0.364329,0.162602,0.382114,0.000000,254.000000,234.000000,20.000000,47.000000,0.000000,0.000000:
// measure 0
0000
0000
0000
0000
,  // measure 1
0000
0000
0000
0000
,  // measure 2
0000
0000
0000
0000
,  // measure 3
0000
0000
0000
0000
,  // measure 4
1000
0000
0001
0000
1000
0100
2000
0000
,  // measure 5
3001
0000
1000
0000
0001
0010
0002
0000
,  // measure 6
1003
0000
0010
0000
0100
0001
0200
0000
,  // measure 7
0301
0000
0010
0000
0100
1000
0001
0000
,  // measure 8
1000
0000
0100
0000
0010
0100
2000
0000
,  // measure 9
3001
0000
0100
0000
0010
0100
0002
0000
,  // measure 10
0013
0000
0100
0000
1000
0100
1000
0000
,  // measure 11
1000
0001
1000
0000
1000
0010
1000
0000
,  // measure 12
0001
0001
0100
0101
,  // measure 13
1000
1000
0100
1100
,  // measure 14
0010
0001
0010
0002
0000
0003
1000
0001
,  // measure 15
1000
0000
0000
0000
,  // measure 16
2000
0000
3200
0000
0302
0000
0103
1000
,  // measure 17
0002
0000
0203
0000
2300
0000
3100
0001
,  // measure 18
1000
0001
0010
0000
0010
0001
1000
0000
,  // measure 19
1000
0100
1000
0200
0000
0310
0001
0000
,  // measure 20
2000
0000
3020
0000
0032
0000
0013
1000
,  // measure 21
0002
0000
0023
0000
2030
0000
3010
0001
,  // measure 22
1000
1100
0001
0101
,  // measure 23
0001
0100
0010
1000
0001
0000
0001
0000
,  // measure 24
1000
0000
0000
1001
0000
0000
0100
0000
,  // measure 25
0010
0000
0000
0110
0000
0000
0001
0000
,  // measure 26
1000
0100
0010
0000
0010
0100
2000
0000
,  // measure 27
3010
0100
0001
1000
0001
0000
1000
0000
,  // measure 28
0100
0000
0000
0110
0000
0000
0010
0000
,  // measure 29
0001
0000
0000
1001
0000
0000
1000
0000
,  // measure 30
0001
0100
0010
0000
0010
0100
0002
0000
,  // measure 31
0013
0100
1000
0002
2000
0000
3003
0000
,  // measure 32
2000
3200
0320
0032
,  // measure 33
0203
0000
0000
0010
0000
0301
0000
0000
,  // measure 34
0002
0203
0320
2030
,  // measure 35
3200
0000
0000
0010
0000
1300
0000
0000
,  // measure 36
0002
2003
3020
0032
,  // measure 37
0023
0000
1030
0001
0000
1000
0000
0000
,  // measure 38
1001
0000
0000
1000
0001
1000
0001
0000
,  // measure 39
0110
0000
0000
0100
0010
0100
0010
0000
,  // measure 40
1001
1000
0010
1010
,  // measure 41
0001
0001
0010
0011
,  // measure 42
1000
0010
1000
0020
0000
0000
0130
0001
,  // measure 43
0100
0000
0000
0000
,  // measure 44
0000
0000
0000
0000
,  // measure 45
0000
0000
0000
0000
,  // measure 46
0000
0000
0000
0000
,  // measure 47
0000
0000
0000
0000
,  // measure 48
1000
1000
0100
1000
,  // measure 49
0001
0001
0100
0001
,  // measure 50
1000
0010
1000
0000
0001
0010
0001
0000
,  // measure 51
1001
0000
0110
0000
1001
0000
1000
0001
,  // measure 52
0010
0000
0000
0011
0000
0000
0010
0000
,  // measure 53
0100
0000
0000
0110
0000
0000
2000
0000
,  // measure 54
3001
0100
0010
0000
0010
1000
0002
0000
,  // measure 55
0013
0100
1000
0001
2000
0000
3002
0000
,  // measure 56
0103
0000
0000
0110
0000
0000
0020
0000
,  // measure 57
1030
0000
0000
1001
0000
0000
0002
0000
,  // measure 58
1003
0100
0010
0000
0001
1000
0020
0000
,  // measure 59
0130
0001
1000
0002
0000
0000
0013
0000
;

//---------------dance-single - ----------------
#NOTES:
     dance-single:
     :
     Hard:
     10:
     0.348432,0.412906,0.252033,0.430894,0.040650,300.000000,269.000000,31.000000,53.000000,0.000000,0.000000,0.348432,0.412906,0.252033,0.430894,0.040650,300.000000,269.000000,31.000000,53.000000,0.000000,0.000000:
// measure 0
0000
0000
0000
0000
,  // measure 1
0000
0000
0000
0000
,  // measure 2
0000
0000
0000
0000
,  // measure 3
0000
0000
0000
0000
,  // measure 4
1000
0000
0000
1001
0000
0000
0000
0000
0001
0000
0100
0000
0020
0000
0000
0000
,  // measure 5
1030
0000
0000
0011
0000
0000
0000
0000
1000
0000
0100
0000
0020
0000
0000
0000
,  // measure 6
0130
0000
0000
1010
0000
0000
0000
0000
0010
0000
0100
0000
0001
0000
1000
0000
,  // measure 7
0100
0001
0200
0000
1300
0010
0002
0000
,  // measure 8
0013
0000
0000
1001
0000
0000
0000
0000
0010
0000
1000
0000
0100
0000
0000
0000
,  // measure 9
1000
0000
0000
0101
0000
0000
0000
0000
0010
0000
0001
0000
0100
0000
0000
0000
,  // measure 10
0001
0000
0000
1100
0000
0000
0000
0000
1000
0000
0001
0000
1000
0000
0100
0000
,  // measure 11
0010
0001
0010
0001
1000
0010
0200
0000
,  // measure 12
0302
0000
0000
0000
0023
0000
0000
0000
2030
0000
0000
0000
3020
0000
0000
0030
,  // measure 13
0001
0100
0010
0110
0000
0010
1001
0000
,  // measure 14
1000
0100
0001
0200
0000
1300
0010
0100
,  // measure 15
0001
0000
0000
0000
,  // measure 16
1000
0000
0000
1000
0000
0000
1000
0000
0002
0000
0000
0000
0100
0000
0000
0000
,  // measure 17
0013
0000
0000
0010
0000
0000
0010
0000
0200
0000
0000
0000
2300
0000
0000
0000
,  // measure 18
3010
1010
0001
0101
,  // measure 19
0001
0010
0100
1000
0001
0000
1000
0000
,  // measure 20
0001
0000
0000
0001
0000
0000
0001
0000
2000
0000
0000
0000
0100
0000
0000
0000
,  // measure 21
3010
0000
0000
0010
0000
0000
0010
0000
0100
0000
0001
0000
2000
0000
0000
0000
,  // measure 22
3100
0110
0010
0011
,  // measure 23
0010
0001
0010
0001
1000
0001
0100
0010
,  // measure 24
1000
0000
0000
0101
0000
0000
1000
0000
,  // measure 25
0100
0000
0000
0011
0000
0000
1000
0000
,  // measure 26
0001
0100
0002
0000
0103
1000
0200
0000
,  // measure 27
0301
0010
0100
1000
0010
0000
0110
0000
,  // measure 28
1001
0000
0000
1010
0000
0000
0001
0000
,  // measure 29
0010
0000
0000
1100
0000
0000
1000
0001
,  // measure 30
1000
0010
0200
0000
0302
0000
0023
0000
,  // measure 31
0130
1000
0001
2002
0000
0000
3003
0000
,  // measure 32
1000
0100
2000
0000
3001
0100
0002
0000
,  // measure 33
1003
0010
0100
2000
0000
3100
0001
0000
,  // measure 34
1000
0010
2000
0000
3001
0010
0002
0000
,  // measure 35
1003
0100
0010
2000
0000
3010
0001
0000
,  // measure 36
1000
0010
0001
0010
1000
0100
0001
0100
,  // measure 37
1000
0001
0010
0200
0000
0301
0100
1000
,  // measure 38
1001
0000
0000
0000
0000
0000
0000
0010
,  // measure 39
0110
0000
0000
0000
0001
0100
1000
0100
,  // measure 40
0002
2003
3200
0320
,  // measure 41
0130
1000
0010
0200
0000
0301
1000
0001
,  // measure 42
0010
1000
0010
0002
0000
1003
0100
1000
,  // measure 43
0001
0000
0000
0000
,  // measure 44
0000
0000
2002
3003
,  // measure 45
0001
0200
0000
0000
0300
0000
0000
0000
,  // measure 46
0000
0002
0023
0230
,  // measure 47
1300
0010
1000
0020
0000
0130
0110
0000
,  // measure 48
0000
0000
2002
3003
,  // measure 49
1000
0002
0000
0000
0003
0000
0000
0000
,  // measure 50
1000
0100
1000
0100
0001
0100
0001
0100
,  // measure 51
1000
0010
0100
0002
0000
1003
0001
0001
,  // measure 52
1000
0000
0000
0011
0000
0000
0001
0000
,  // measure 53
0100
0000
0000
1010
0000
0000
0001
0000
,  // measure 54
1000
0100
0020
0000
0031
1000
0020
0000
,  // measure 55
1030
0001
0010
0100
0010
0000
0110
0000
,  // measure 56
1001
0000
0000
0101
0000
0000
1000
0000
,  // measure 57
0010
0000
0000
1100
0000
0000
0001
0010
,  // measure 58
0100
1000
0020
0000
0230
0000
0302
0000
,  // measure 59
0013
0001
1000
2002
0000
0000
3003
0000
;

//---------------dance-single - ----------------
#NOTES:
     dance-single:
     :
     Challenge:
     12:
     0.456446,0.461484,0.097561,0.203252,0.178862,393.000000,381.000000,12.000000,25.000000,40.000000,0.000000,0.456446,0.461484,0.097561,0.203252,0.178862,393.000000,381.000000,12.000000,25.000000,40.000000,0.000000:
// measure 0
0000
0000
0000
0000
,  // measure 1
0000
0000
0000
0000
,  // measure 2
0000
0000
0000
0000
,  // measure 3
0000
0000
0000
0000
,  // measure 4
1000
0000
0000
1000
0000
0000
0001
0000
0100
0000
0010
0000
2000
0000
0000
0000
,  // measure 5
3100
0000
0000
0100
0000
0000
0100
0000
1000
0000
0010
0000
MMMM
0000
0000
0000
,  // measure 6
0001
0000
0000
0001
0000
0000
1000
0000
0100
0000
0001
0000
0100
0000
1000
0000
,  // measure 7
0010
0001
0010
1000
0100
0010
1001
0000
,  // measure 8
1000
0000
0000
0001
0000
0000
1000
0000
0010
0000
0100
0000
2000
0000
0000
0000
,  // measure 9
0100
0000
0000
0100
0000
0000
3100
0000
0001
0000
0010
0000
0200
0000
0000
0000
,  // measure 10
0001
0000
0000
0001
0000
0000
0301
0000
0100
0000
1000
0000
0010
0000
0100
0000
,  // measure 11
0001
0010
0001
0100
0001
1000
0010
0000
,  // measure 12
2000
0100
3002
0100
2003
0010
3002
0010
,  // measure 13
1003
0000
0001
0000
0010
0000
0200
0000
0000
0000
0301
0000
0100
0000
1000
0010
,  // measure 14
1000
0010
1000
0000
0010
0000
0200
0000
0000
0000
0301
0000
0010
0000
0100
0000
,  // measure 15
0110
0000
0000
0000
,  // measure 16
1000
0000
0000
1000
0100
0000
0010
0000
0002
0000
0000
0000
0103
0000
0010
0000
,  // measure 17
1000
0000
0000
1000
0001
0000
0010
0000
0001
0000
0100
0000
1000
0000
0100
0000
,  // measure 18
0001
0010
0100
0000
0110
0000
1001
0000
,  // measure 19
1000
0010
0100
0002
0000
1003
0010
1000
,  // measure 20
0001
0000
0000
0001
0100
0000
0010
0000
2000
0000
0000
0000
3100
0000
0010
0000
,  // measure 21
0001
0000
0000
0001
1000
0000
0010
0000
1000
0000
0100
0000
0001
0000
0100
0000
,  // measure 22
1000
1000
0010
0010
0100
0100
0001
1000
,  // measure 23
0010
0000
0001
0000
0010
0000
1000
0000
0001
0000
1000
0100
0010
0000
0001
0000
,  // measure 24
1000
0000
0000
1000
0100
0000
MMMM
0000
0000
0000
0001
0000
1000
0000
0010
0000
,  // measure 25
0100
0000
0000
0100
0001
0000
MMMM
0000
0000
0000
0001
0000
1000
0000
0010
0000
,  // measure 26
1000
1000
0001
0001
0010
0010
0001
1000
,  // measure 27
0010
0000
0100
0000
1000
0000
0100
0000
0001
0000
0010
0100
0010
0000
0001
0000
,  // measure 28
1000
0000
0000
1000
0001
0000
MMMM
0000
0000
0000
0100
0000
1000
0000
0010
0000
,  // measure 29
0100
0000
0000
0100
0001
0000
MMMM
0000
0000
0000
0001
0000
1000
0000
0010
0000
,  // measure 30
1000
0100
0010
0000
0110
0000
1001
0000
,  // measure 31
0001
0010
0100
2000
0000
3001
1001
0000
,  // measure 32
1000
0100
0000
0000
1000
0100
0000
0000
0010
0001
0000
0000
0010
0001
0000
0000
,  // measure 33
1000
0100
0001
0100
1000
0010
0001
0010
,  // measure 34
1000
0010
0000
0000
1000
0010
0000
0000
0100
0001
0000
0000
0100
0001
0000
0000
,  // measure 35
1000
0010
0001
0010
1000
0100
0001
0100
,  // measure 36
1000
0001
0000
0000
0001
0100
0000
0000
0100
0010
0000
0000
0010
1000
0000
0000
,  // measure 37
1000
0100
0010
0001
0100
0001
1000
0010
,  // measure 38
1000
0001
0000
0100
0000
0001
0010
0000
0001
0000
0100
0000
1000
0000
0100
0000
,  // measure 39
0001
1000
0000
0010
0000
1000
0001
0000
0010
0000
1000
0000
0010
0000
0001
0000
,  // measure 40
2000
0010
3002
0010
2003
0100
3002
0100
,  // measure 41
1003
0000
0001
0000
0100
0000
2000
0000
0000
0000
3100
0000
0001
0000
0010
0100
,  // measure 42
0010
0100
0010
0000
0001
0000
2000
0000
0000
0000
3010
0000
0100
0000
0001
0000
,  // measure 43
0101
0000
0000
0000
,  // measure 44
0000
0000
1000
0100
0020
0000
0130
1000
,  // measure 45
0100
0002
0000
0103
1000
0001
0100
0010
,  // measure 46
1000
0010
0100
0000
1010
0000
0101
0000
,  // measure 47
0001
0010
0100
2000
0000
0001
3001
0000
,  // measure 48
0002
0000
0103
0010
2000
0000
3001
1000
,  // measure 49
0010
0002
0000
0013
0100
1000
0100
0001
,  // measure 50
0010
0010
0100
0100
1000
1000
0001
0001
,  // measure 51
1000
0000
0010
0000
0001
0000
0010
0000
1000
0000
0100
0010
0001
0000
1000
0000
,  // measure 52
0010
0000
0000
0100
0001
0000
MMMM
0000
0000
0000
0001
0000
1000
0000
0100
0000
,  // measure 53
0010
0000
0000
0001
1000
0000
MMMM
0000
0000
0000
1000
0000
0001
0000
0010
0000
,  // measure 54
0100
0100
1000
1000
0010
0010
0100
0001
,  // measure 55
1000
0000
0100
0000
0001
0000
0100
0000
1000
0000
0001
0100
0010
0000
1000
0000
,  // measure 56
0001
0000
0000
0010
0100
0000
MMMM
0000
0000
0000
0100
0000
0010
0000
0001
0000
,  // measure 57
0100
0000
0000
0010
1000
0000
MMMM
0000
0000
0000
1000
0000
0001
0000
0010
0000
,  // measure 58
0100
1000
0010
0000
0110
0000
1001
0000
,  // measure 59
1000
0100
0010
0001
0000
0000
MMMM
0000
;
