#VERSION:0.83;
#TITLE:Back to the Front;
#SUBTITLE:;
#ARTIST:Venjent;
#TITLETRANSLIT:;
#SUBTITLETRANSLIT:;
#ARTISTTRANSLIT:;
#GENRE:;
#CREDIT:NOWHERE Dance Club;
#MUSIC:Back to the Front.ogg;
#BANNER:Back to the Front-bn.png;
#BACKGROUND:Back to the Front-bg.png;
#CDTITLE:cdtitle.png;
#SAMPLESTART:46.876;
#SAMPLELENGTH:22.069;
#SELECTABLE:YES;
#OFFSET:-0.324;
#BPMS:0.000=174.000;
#STOPS:;
#SPEEDS:0.000=1.000=0.000=0;
#SCROLLS:0.000=1.000,
293.000=0.950,
293.500=0.750,
294.000=0.650,
294.500=0.550,
295.000=0.500,
325.000=1.000
;
#TICKCOUNTS:0.000=0;
#TIMESIGNATURES:0.000=4=4;
#ATTACKS:TIME=57.220:LEN=0.517:MODS=*50 150% Beat :TIME=57.737:LEN=0.100:MODS=*50 0% Beat :TIME=102.048:LEN=11.000:MODS=*0.3 20% Drunk :TIME=112.392:LEN=0.100:MODS=*50 0% Drunk
;
#BGCHANGES:-0.945=Back to the Front.avi=0.000=0=0=1,
99999.000=-nosongbg-=1.000=0=0=0=StretchNoLoop====
;
#FGCHANGES:;

//--------------- dance-single - NOWHERE Dance Club ----------------
#NOTEDATA:;
#STEPSTYPE:dance-single;
#DESCRIPTION:NOWHERE Dance Club;
#DIFFICULTY:Beginner;
#METER:5;
#RADARVALUES:0,0,0,0,0;
#NOTES:
0000
0000
0000
0000
,
0000
0000
0000
0000
,
0000
0000
0000
0000
,
0000
0000
0000
1000
,
0100
1000
0001
0100
,
0000
0100
0000
0001
,
0010
0001
1000
0100
,
0000
0010
0000
0001
,
0001
1000
0001
0100
,
0010
1000
0000
1000
,
0100
1000
0100
0010
,
0000
0001
0000
0100
,
0001
0100
0010
1000
,
0000
0001
0000
0010
,
0001
0100
0010
0100
,
0000
0001
0000
1000
,
0100
0010
0100
1000
,
0000
1001
0000
0001
,
0010
0200
0000
0320
,
0000
0031
0000
1000
,
0010
0200
0000
0320
,
0000
1030
0000
0001
,
1000
0001
0010
0001
,
1000
0010
0000
1000
,
0100
1000
0001
0100
,
0000
0101
0000
1001
,
1010
0000
1010
0000
,
1001
0000
1001
0000
,
0011
0000
0011
0000
,
1001
0000
1001
0001
,
0000
0100
0000
0010
,
0000
1000
0000
0100
,
1000
0100
1000
0100
,
0010
0001
0000
1000
,
0100
0010
0010
0001
,
0100
0010
0010
1000
,
0100
0010
0100
1000
,
0000
1001
0000
0001
,
0100
0010
0010
1000
,
0100
1000
1000
0001
,
0010
0001
0100
0010
,
0000
0010
0010
0010
,
1000
0100
0100
0010
,
0001
0010
0000
0001
,
1000
0010
0100
0001
,
0000
0001
0000
1000
,
0100
0010
0100
1000
,
0001
0100
0010
0100
,
0001
0010
0001
1000
,
0100
0010
0002
0000
0000
0000
1003
0000
,
0000
1001
1000
0100
,
0000
1100
0001
1000
,
0000
1001
1000
0100
,
0000
1100
0010
0001
,
0000
0011
0001
1000
,
0000
1001
1000
0010
,
0000
1010
1000
0100
,
0000
0010
0001
1001
,
0001
0101
0000
0010
,
0000
1010
0000
1000
,
0100
1100
0000
0011
,
0000
0101
0000
0001
,
0001
0100
0010
1000
,
1000
0100
0010
0001
,
0100
0001
0010
0100
,
1000
0002
0000
1003
,
0100
0000
1000
0100
1000
0000
0001
0000
,
0100
0000
0001
0100
0001
0000
1000
0000
,
0100
0000
1000
0100
1000
0000
0001
0000
,
1000
2002
3003
0001
,
0100
0000
0001
0100
0001
0000
1000
0000
,
0100
0000
1000
0100
1000
0000
0001
0000
,
0100
0000
0001
0100
0001
0000
1000
0000
,
0000
0002
0000
0103
,
0000
0010
0000
0100
,
0000
0002
0000
1003
,
0000
0100
0000
0010
,
0000
0100
0000
1000
,
0000
0001
0000
0100
,
0000
0020
0000
0130
,
0000
0001
0000
1000
,
0000
2002
3003
0000
;

//--------------- dance-single - NOWHERE Dance Club ----------------
#NOTEDATA:;
#STEPSTYPE:dance-single;
#DESCRIPTION:NOWHERE Dance Club;
#DIFFICULTY:Easy;
#METER:9;
#RADARVALUES:0,0,0,0,0;
#NOTES:
0000
0000
0000
0000
,
0000
0000
0000
0000
,
0000
0000
0000
0000
,
0000
0000
0000
0000
,
0000
0000
0000
0000
,
0000
0000
0000
0001
,
0100
0010
1000
0000
0001
0000
0100
0000
,
0001
0020
0000
0031
,
0100
0001
1000
0000
0001
0000
0100
0000
,
0010
2002
3003
0001
,
0001
0000
1000
0001
1000
0000
0100
0000
,
0010
0000
0001
1000
0001
0000
0100
0000
,
0010
0000
1000
0001
1000
0000
0200
0000
,
0300
0200
0300
1000
,
1000
0000
0001
1000
0001
0000
0100
0000
,
0010
0000
1000
0001
1000
0000
0100
0000
,
0010
0000
0001
1000
0001
0000
0100
0000
,
0010
2002
3003
0002
,
0000
0103
0100
0002
,
0000
2003
0000
3200
,
0000
0310
0001
2000
,
0000
3001
0000
0002
,
0000
0103
0100
0002
,
0000
0023
0000
0230
,
0000
1300
0001
0200
,
0320
0230
0000
0310
,
1010
0000
1001
0000
,
0110
0000
1001
0000
,
1100
0000
0011
0000
,
0101
0000
1010
0000
,
1001
0000
0110
0000
,
1001
0000
0110
0010
,
0001
0100
0010
2000
,
0000
0000
0001
3001
,
0100
0001
1000
0100
,
1000
0010
0001
0010
,
1000
0100
0010
0011
,
0000
1001
0001
1000
,
0100
1000
0001
0100
,
0001
1000
0010
1000
,
0100
0001
0100
2000
,
0000
3040
4030
3001
,
0010
0001
1000
0010
,
0001
0010
1000
0100
,
0010
0001
1000
1001
,
0000
0000
0011
0000
0001
0001
1000
0000
,
0010
1000
1000
0001
,
0010
0001
0001
0100
,
0010
0100
0010
1000
,
0100
0021
0000
0031
,
0100
0000
0010
1000
0010
1000
0001
0000
,
0001
0010
0001
0100
,
0010
0000
1000
0001
1000
0001
0010
0000
,
0001
1000
0001
1000
,
0100
0000
0010
0001
0010
0001
1000
0000
,
1000
0010
1000
0100
,
0010
0000
0001
1000
0001
1000
0010
0000
,
1000
0000
0002
0000
0000
0000
1003
1000
,
0001
0000
0100
0000
0010
0000
1000
1000
,
0001
0010
0010
0001
,
0100
0000
0010
0010
0100
0000
0010
0000
,
1000
0000
0100
0000
1000
1000
0100
0010
,
0001
0000
0100
0000
0001
0000
0100
0010
,
1000
0000
0100
0000
0010
0000
0001
0100
,
0001
0000
1000
0100
1000
0000
0001
0100
,
0010
1000
0002
0000
1000
1003
0001
0010
,
0100
1000
0001
0000
0100
0000
0010
0000
,
1000
0010
2000
0000
0000
0000
3001
0010
,
0100
1000
1000
0000
0001
0000
1000
0000
,
0000
0001
1001
0000
0001
0100
0010
0000
,
1000
0010
1000
0000
0001
0000
0200
0000
,
0010
0000
0310
0000
1000
0000
0100
0010
,
0001
0010
0100
1000
,
0001
2000
0000
3001
,
0000
0100
0000
0010
,
1000
0001
0000
0010
,
0000
0001
0000
0100
,
0001
0000
1000
0001
1000
0000
0010
0000
,
0000
0100
0001
1000
,
0001
0000
0100
0000
0000
0000
0001
1000
,
0001
2000
3002
0203
,
0000
0320
0030
0000
;

//--------------- dance-single - NOWHERE Dance Club ----------------
#NOTEDATA:;
#STEPSTYPE:dance-single;
#DESCRIPTION:NOWHERE Dance Club;
#DIFFICULTY:Medium;
#METER:12;
#RADARVALUES:0,0,0,0,0;
#NOTES:
0000
0000
0000
0000
,
0000
0000
0000
0000
,
0000
0000
0000
0000
,
0000
0000
0000
1000
,
0010
2000
3002
0203
,
0300
0200
0300
0001
,
0010
0100
2000
0000
3002
0000
0203
0000
,
0310
0020
0000
1030
,
0001
2000
3002
0203
,
0310
0000
2001
0000
0000
0000
3001
0100
,
0001
0100
0010
0100
0010
0000
1000
0100
,
0010
0001
0020
0000
0000
0000
0031
0010
,
0001
0001
2000
0000
3002
0000
0203
0000
,
0300
0000
0200
0000
0320
0000
1030
0100
,
1000
0100
0010
0001
0010
0000
0001
0100
,
0010
1000
0020
0000
0000
0000
1030
0100
,
0010
0100
0010
0001
0010
0000
0001
0000
,
2000
0000
0002
0000
3000
0000
1003
1000
,
0010
0010
1000
0000
0001
0000
0010
0100
,
1000
0000
0001
0000
0000
0000
1000
1000
,
0010
0010
0100
0000
0001
0000
2000
0000
,
0000
3002
0000
0203
,
0320
2030
3020
0230
,
0302
2003
3001
2000
,
3200
0000
0320
0000
0032
0000
0013
0001
,
1000
0000
0001
1000
0001
0000
1000
0000
,
1100
0000
0011
0001
,
0101
0000
1010
1000
,
1100
0000
1001
0001
,
0101
0000
1001
1000
,
0001
1000
0001
0100
,
0001
0000
0100
0000
0010
0000
1000
0010
,
1000
0010
1000
0100
0010
0001
2000
0000
,
0000
0000
0000
0000
0001
3001
1000
0100
,
0010
0010
0001
0100
0010
0000
1010
0000
,
1001
0000
2100
0000
0000
0001
3001
0100
,
0010
0010
1000
0100
0010
0000
0011
0000
,
0001
0000
1001
0000
0001
0100
0010
0100
,
0010
0010
1000
0100
0010
0000
0011
0000
,
0110
0000
2100
0000
3001
0000
0100
0010
,
1000
0010
2000
0000
3002
0000
0203
0000
,
0000
0000
0304
0043
0034
4003
3001
1000
,
0001
2000
3002
0203
,
0310
0000
2010
0000
0000
0010
3010
1000
,
0010
2000
3002
0203
,
0300
0000
1001
0000
0001
1000
0100
0010
,
0001
0000
0100
0000
0001
0000
0010
0100
,
1000
0000
0001
0000
0100
0000
0010
1000
,
0100
0010
0001
0100
,
0010
0100
0020
0000
1000
1030
0001
0100
,
0010
0100
0001
1000
0100
0010
0002
0000
,
0023
0000
2030
0000
3020
0000
0031
0100
,
0010
1000
0100
1000
0100
0010
0002
0000
,
0023
0000
2030
0000
3020
0000
0031
1000
,
0001
0100
0001
0100
0010
1000
0020
0000
,
0032
0000
0023
0000
1030
0000
0100
0010
,
0001
1000
0001
0010
0100
1000
0200
0000
,
0302
0000
0203
0000
2300
0000
3001
0001
,
0100
0010
2000
0000
3002
0000
0203
0000
,
0310
0100
0010
1000
0020
0000
1030
0100
,
0010
0001
2000
0000
3002
0000
0203
0000
,
0320
0000
0032
0000
0023
0000
1030
0001
,
1000
0010
2000
0000
3002
0000
0013
0001
,
1000
0001
0020
0000
0032
0000
0103
0010
,
0100
0010
1000
1000
0001
0001
0200
0000
,
0320
0000
1030
0000
0100
0010
0001
0000
,
0101
0000
0010
0000
1010
0000
0001
1000
,
0001
1000
0100
0000
0010
0000
0011
0000
,
1001
0101
0010
2010
,
0000
0000
3100
0000
1000
1000
1100
0000
,
0010
0000
0011
0000
1000
0000
0001
0100
,
0010
0000
1010
0000
0000
1000
0001
0000
,
1001
0001
0012
0203
,
0302
2003
0000
3001
,
0100
0040
0000
1030
,
0100
0040
0000
0031
,
0100
0040
0000
0130
,
0010
0000
1000
0000
0100
0010
0001
0000
,
0010
0400
0000
1300
,
0010
0400
0000
0301
,
1000
0001
2000
0000
3002
0000
0403
0000
,
0000
0320
0030
0000
;

//--------------- dance-single - ROCK YOUR BODY LEFT RIGHT ----------------
#NOTEDATA:;
#STEPSTYPE:dance-single;
#DESCRIPTION:ROCK YOUR BODY LEFT RIGHT;
#DIFFICULTY:Hard;
#METER:14;
#RADARVALUES:0,0,0,0,0;
#CHARTNAME:NO CMOD For Best Experience;
#CREDIT:NOWHERE Dance Club FS+;
#NOTES:
0000
0000
0000
0000
,
0000
0000
0000
0000
,
0000
0000
0000
0000
,
0000
0000
0000
0000
,
0000
2000
3002
0203
,
0300
0000
0200
0000
0300
0000
0001
0010
,
0001
0001
2000
0000
3002
0000
0203
0000
,
0310
0100
0020
0000
0000
0000
1030
0010
,
0100
0001
2000
0000
3002
0000
0203
0000
,
0310
1000
2001
0000
0000
0000
3001
1000
,
0100
1000
0001
0010
0001
0000
0010
0001
,
0100
0001
0020
0000
0000
0000
0031
0100
,
0010
1000
0001
0100
0010
0000
2000
0000
,
0000
0000
3002
0000
0013
0010
0001
0100
,
0010
1000
0100
0010
0002
0000
0103
0010
,
1000
0010
2000
0000
0000
0000
3100
0010
,
0001
0001
2000
0000
3002
0000
0203
0000
,
0310
1000
2002
0000
0000
3003
1000
0100
,
1000
0100
0010
0100
2000
0000
3001
0100
,
0010
1000
0020
0000
0000
0000
1030
0100
,
0001
0100
2000
0000
3002
0000
0203
0000
,
0320
0000
0032
0000
0023
0000
1030
0100
,
0010
0001
2000
0000
3002
0000
1003
0100
,
0001
0100
2000
0000
3020
0000
1030
0001
,
0010
0100
1000
0010
0002
0000
0023
0000
,
2030
0000
3002
0000
0103
0001
0100
0000
,
0110
0000
0000
0010
1010
0000
1000
0000
,
1100
0000
0000
1000
1010
0000
0001
0000
,
0011
0000
0000
0001
1001
0000
0001
0000
,
0101
0000
0000
1000
1010
0000
2100
0000
,
3001
0012
1003
2010
,
3100
0000
0012
0000
1003
0000
0001
0001
,
0100
0010
1000
1000
0100
0010
0002
0000
,
0103
0000
0010
0000
1000
0000
0100
1000
0100
0000
0010
0000
0001
0000
0200
0300
,
0200
0300
1000
0000
0010
0000
1000
0000
0001
0000
1000
0000
1001
0000
0001
0000
,
0100
0000
0001
0000
0010
0000
0001
0000
1000
0000
0001
0000
1000
0000
0200
0300
,
0200
0300
0001
0000
0010
0000
0100
0000
1000
0000
0000
0000
1001
0000
0000
0000
,
0021
0000
0000
0000
1000
0000
0000
0000
0031
0000
0001
0000
1000
0000
0020
0030
,
0020
0030
0001
0000
0100
0000
0001
0000
1000
0000
0010
0000
1010
0000
1000
0000
,
0001
0000
1000
0000
0100
0000
1000
0000
0002
0000
0000
0000
1003
0000
0200
0300
,
0200
0300
0001
0000
0010
0000
0001
0000
0011
0000
0000
0000
2010
0000
0000
0000
,
3001
0000
1001
1001
1001
1001
0001
0010
,
0100
1000
2000
0000
3002
0000
0203
0000
,
0310
1000
0100
0001
0100
1000
1000
0100
,
0010
0001
2000
0000
3002
0000
0103
0000
,
0201
0000
1000
0000
0301
0000
1000
1000
,
0100
0010
0002
0000
0023
0000
0031
0001
,
0100
0010
2000
0000
3020
0000
1030
1000
,
0100
1000
0001
0001
0100
0001
0200
0000
,
0320
0000
0000
0000
1030
0000
0001
0100
0001
0000
1000
0000
0200
0000
0000
0000
,
0310
0001
0010
0001
0101
0001
1000
0000
,
2010
0000
0100
0000
3001
0000
1000
0001
,
0011
0001
1000
0010
1010
1000
0200
0000
,
0302
0000
0203
0000
1300
0001
2001
0000
,
3001
0010
0100
1000
1100
1000
0001
0000
,
2001
0000
0010
0000
3001
0000
1000
0100
,
0010
0001
1000
0010
1010
1000
0001
0000
,
2000
0000
3200
0000
0320
0000
0031
1000
,
0020
0030
0020
0030
0001
0000
0200
0300
0200
0300
1000
0000
0010
0000
1000
0000
,
0100
0001
0100
1000
0002
0000
1003
0100
,
0001
1000
0010
0001
1000
0001
0010
0001
,
0100
0010
1000
0010
2000
0000
3100
0010
,
0001
0100
0020
0000
2030
0000
3001
1000
,
0010
0001
0020
0000
2030
0000
3100
0001
,
0100
1000
2000
0000
3002
0000
0203
0000
,
0320
0000
0000
0000
1030
0000
0001
1000
0001
0000
1000
0000
0001
0000
0001
0000
,
1000
1000
0010
1000
0001
0000
0011
0001
,
1000
0001
0102
0000
0000
0000
1003
0010
,
0100
0001
1000
0100
0001
0100
2000
0000
,
3002
0100
1003
0000
0001
0001
1000
0010
,
0100
0010
2000
0000
3002
0000
0103
0001
,
1000
0100
2000
0000
0000
0000
3001
0100
,
0010
2000
3002
0203
,
0310
1000
1002
0000
0000
0000
1003
0000
,
0400
0000
0000
0300
2000
0000
0000
3001
,
1000
0000
0100
1000
0010
1000
0002
0000
,
0000
1003
0010
0000
2000
0000
0000
3010
,
1000
0010
0001
0010
2000
0000
3001
0000
,
0010
0000
0400
0000
0000
0300
0000
1000
,
0001
0000
0010
0001
0100
0001
1000
0000
,
0001
2000
3002
0203
,
0310
2002
3003
0000
;
