#TITLE:BabeL ~Next Story~;
#SUBTITLE:;
#ARTIST:Power of Nature;
#TITLETRANSLIT:;
#SUBTITLETRANSLIT:;
#ARTISTTRANSLIT:;
#GENRE:;
#CREDIT:;
#MUSIC:BabeL ~Next Story~.ogg;
#BANNER:BabeL ~Next Story~.png;
#BACKGROUND:BabeL ~Next Story~-bg.png;
#CDTITLE:;
#SAMPLESTART:5.490;
#SAMPLELENGTH:17.135;
#SELECTABLE:YES;
#OFFSET:1.364;
#BPMS:0.000=140.000
,16.000=147.900
,22.000=155.000
,26.000=134.000
,27.000=118.000
,29.000=100.000
,30.000=172.998
;
#STOPS:144.000=0.347
,314.000=0.347
;
#DISPLAYBPM:100.000:173.000;
#BGCHANGES:;
#FGCHANGES:;

//--------------- dance-single - P1989 Mk II ----------------
#NOTES:
     dance-single:
     P1989 Mk II:
     Beginner:
     7:
     0,0,0,0,0:
0000
0000
0000
0000
,
0000
0000
0000
0000
,
0000
0000
0000
0000
,
0000
0000
0000
0000
,
1000
1000
0000
0001
,
0001
0000
0100
0000
,
0010
0000
1000
0000
,
0001
0001
0010
0000
,
0100
0010
0100
0000
,
0010
0000
0001
0100
,
0001
0000
1000
0100
,
1000
0000
0010
0000
,
0100
0010
0100
0000
,
0010
0000
1000
0010
,
0100
0001
0100
0010
,
1000
0000
0001
0001
,
0001
0000
1000
1000
,
1000
1001
0000
0000
,
0110
0000
0000
1001
,
0000
1000
0100
1000
,
0000
0001
0100
0001
,
0000
0010
0010
0100
,
0000
0100
0100
0010
,
0000
0001
0100
0001
,
0000
1000
0100
1000
,
0000
0010
0010
0100
,
0000
0100
0100
0010
,
0000
0110
0000
1000
,
0001
1001
0000
0010
,
0110
0000
0000
1001
,
0000
0000
0110
0000
,
0000
1001
0000
0000
,
0110
0110
0000
0000
,
0000
0001
1001
1000
,
1001
0000
0000
0100
,
0000
0010
0010
0100
,
1001
1000
1000
0000
,
1000
0001
0100
0000
,
0000
0000
0001
0001
,
1000
1000
0100
1000
,
0010
0000
0000
0100
,
0100
0000
0001
0010
,
0100
0000
0000
1000
,
0001
1000
0010
0010
,
0100
0001
1001
0000
,
0000
0000
0110
0000
,
0000
0000
1000
0000
,
1001
0000
0001
0100
,
0001
0010
0001
1000
,
0010
1000
0100
1000
,
0000
0110
0100
0001
,
0010
0100
0100
1000
,
0000
0000
0000
0000
0000
0001
0000
0000
0000
0001
0000
0000
,
0000
0001
0000
0000
0000
0001
0000
0000
0000
0001
0000
0000
,
0000
1000
0100
0000
,
1000
0001
0010
0100
,
1000
0001
0100
0000
,
0001
1000
0010
0100
,
0001
0010
0100
0000
,
1000
0001
0100
0010
,
1000
0001
0010
0000
,
0100
1000
0000
0001
,
0000
0100
0100
0100
,
0000
0001
0000
1000
,
0000
0100
0100
0100
,
0000
0100
0010
0001
,
0000
0100
0100
0100
,
0110
0000
1000
0001
,
1001
0000
0000
0000
,
0110
0000
0000
0000
,
1000
0100
1000
0001
,
0010
0001
1000
0010
,
0000
0110
0100
0001
,
0010
0100
1000
0010
,
0100
0001
0010
0000
,
0100
1000
0010
0000
,
1000
1000
1000
0000
,
0001
0001
0001
0100
,
0100
0100
0010
1001
,
0000
1000
0100
1000
,
0001
0010
0001
1000
,
0010
0100
0001
0010
,
0100
1000
0010
0100
,
0001
1000
0100
0110
,
1001
0000
1001
0110
,
0000
0000
0000
0110
0000
0000
1001
0000
0000
0000
0010
0000
,
0000
2002
0000
0000
,
0000
0000
0000
0000
0000
3003
0000
0000
0000
0000
0000
0000
;

//--------------- dance-single - P1989 Mk II ----------------
#NOTES:
     dance-single:
     P1989 Mk II:
     Easy:
     10:
     0,0,0,0,0:
0000
0000
0000
0000
,
0000
0000
0000
0000
,
0000
0000
0000
0000
,
0000
0000
0000
0000
,
1000
1100
0000
0001
,
0101
0000
0020
0030
,
0200
0300
1001
0110
,
0001
1000
0001
1000
0000
0000
0010
0000
,
0100
0001
0100
0000
0010
0000
1000
0000
,
0100
1000
0100
0000
0110
0000
0010
0001
,
0010
0000
0100
0010
0100
0000
1000
0100
,
1000
0001
0100
1001
,
1000
0010
1000
0000
0100
0000
0010
0000
,
0001
0010
0001
0000
0110
0000
1000
0010
,
1000
0000
0100
1000
0100
0000
0010
0100
,
0010
0000
0000
0000
0001
0000
0000
0000
0100
0000
0000
0100
0000
0000
0001
0000
,
0010
0000
0000
0000
0110
0000
0000
0000
0100
0000
0000
0100
0000
0000
1000
0000
,
0010
2002
0000
3003
,
0220
0000
0000
0000
0330
0000
0001
1000
,
0001
1000
0000
0010
0100
0000
0001
0010
,
0001
0000
1000
0000
0010
0000
1000
0100
,
0010
0000
0110
0000
0100
1000
0100
0000
,
0010
0100
0010
0000
0001
0010
0001
0000
,
0100
0000
0010
0000
1001
0000
1000
0010
,
0100
0000
0001
0000
1000
0000
0100
0010
,
0001
0000
0110
0000
0001
0100
0001
0000
,
1000
0100
1000
0000
0010
0100
0010
0000
,
1000
0000
0000
0000
0100
0000
0000
0100
0000
0000
0100
0000
0010
0000
0000
0000
,
1001
0000
0000
0000
0010
0000
0000
0010
0000
0000
0010
0000
0100
0000
0000
0000
,
0220
0000
0330
2002
,
0000
3003
2200
0000
,
3300
0202
0000
0303
,
0002
0000
0000
2003
0000
0000
3010
0000
0010
0000
0010
0000
,
0010
0110
0001
0110
,
1000
0000
0000
0000
0000
0000
0000
0000
0000
0001
0000
1000
,
0000
0020
0230
0302
,
2003
3000
0000
0000
0100
0000
0000
0000
1000
0000
0000
0000
0100
0000
0000
0000
,
0010
0000
0001
0000
1000
0000
0010
0100
,
0010
0100
0000
0000
0001
0000
0010
0000
,
0001
0000
1000
0000
0010
0000
1000
0001
,
1000
0001
0000
0000
0000
0000
0010
0000
,
0100
1000
0010
0100
,
0001
0001
1000
1000
0000
0000
0100
0010
,
0100
0000
0010
0000
0001
0001
0001
0000
,
0100
0010
0220
0330
,
0000
0000
0000
0000
0001
0000
1000
0000
0001
0000
0000
0000
,
0000
0000
0000
0000
0000
0000
0100
0000
0100
0000
0100
0000
,
0110
0000
0000
0000
0000
0000
1000
0000
0010
0000
1000
0000
,
0001
0000
0100
0000
0001
0000
1000
0000
0100
0000
1000
0000
,
0001
0000
0010
0000
0001
0000
0100
0000
0010
0000
1000
0000
,
0001
0000
1001
0000
0000
0000
1000
0000
0100
0000
1000
0000
,
0001
0000
0001
0000
0000
0100
0000
0110
0000
0000
0000
0010
,
0000
1000
0000
0001
0000
0010
0000
0001
0000
1000
0000
0001
,
0000
0100
0000
0001
0000
1000
0000
0001
0000
0010
0000
0001
,
0000
0000
1000
0000
0000
0000
0010
0000
0000
0000
0000
0000
0010
0000
0000
0100
0000
0000
0000
0000
0000
0001
0000
0000
,
0000
1100
0000
0010
0000
0101
0000
0010
,
0000
1000
0001
0000
1000
0100
0000
0010
,
0000
0000
0102
0000
0000
0000
0000
0000
1000
0000
0000
1000
0000
0000
1003
0000
,
0000
0000
0011
0000
1000
0100
0000
1000
,
0000
1010
0000
0100
0000
0011
0000
0100
,
0000
1000
0001
0000
0100
0010
0000
0100
,
0000
2002
0000
0000
0000
0000
3000
0000
,
0000
0100
0100
1000
,
0013
0000
0000
0000
0001
0000
1000
0001
,
1000
0000
0010
0000
0010
0100
0001
0000
,
1000
1100
0110
0011
,
0001
1000
0000
1010
0000
0010
0100
0000
,
1001
0000
0100
0010
0000
0010
0100
0000
,
2002
0000
0000
0000
0000
0000
0000
0000
0000
0000
0000
0000
3003
0000
0000
0220
,
0000
0000
0000
0000
0000
0000
0000
0000
0000
0000
0000
0330
0000
0000
0000
1001
,
0000
0000
1000
0100
0010
0000
0100
0010
,
0001
0000
0010
0001
1000
0000
0010
0000
,
0100
0000
1001
0000
0001
0100
0010
0000
,
1000
0000
0001
0000
0010
0100
1000
0000
,
1001
0000
0001
0100
0010
0000
0100
0010
,
1000
0000
0010
1000
0001
0000
0010
0000
,
0100
0000
0000
0100
0000
0000
1000
0000
0010
0000
0000
0000
1001
0000
0000
0000
,
0100
0000
0000
0100
0000
0000
0001
0000
0010
0000
0000
0000
0110
0000
0000
0100
,
0000
0000
0000
0000
0000
0000
0010
0000
0000
0000
0000
0000
0100
0000
0000
0000
0000
0000
0000
0000
0000
0000
0000
0000
2002
0000
0000
3003
0000
0000
0000
0000
0000
0000
0000
0000
1000
0000
0000
0000
0000
0000
0000
0000
0100
0000
0000
0000
,
0000
1000
0000
0001
0000
0100
0000
0001
0000
0010
0000
0100
,
0000
0010
0000
0001
0000
1000
0000
0010
0000
0100
0000
1000
,
0000
0100
0000
0001
0000
0000
0010
0000
0010
0000
0000
0110
,
0000
0000
0000
0100
0000
1000
0000
0001
0000
0100
0000
0100
,
0000
0000
0010
0000
1001
0000
0000
1000
0000
1100
0000
0000
,
0011
0000
0101
1010
,
0000
0000
0000
0110
0000
0000
1001
0000
0000
0000
0020
0000
,
0000
0200
0000
0000
,
0000
0000
0000
0000
0000
0330
0000
0000
0000
0000
0000
0000
;

//--------------- dance-single - P1989 Mk II ----------------
#NOTES:
     dance-single:
     P1989 Mk II:
     Medium:
     14:
     0,0,0,0,0:
0000
0000
0000
0000
,
0000
0000
0000
0000
,
0000
0000
0000
0000
,
0000
0000
0000
0000
,
1000
0010
0100
0002
0000
0000
0003
0000
0000
0001
0010
0100
,
2000
3000
2002
3003
,
0220
0000
0330
0000
1000
0100
0010
0001
,
0100
0100
0010
2002
3003
0000
1000
0100
,
0010
0000
0100
1000
0000
0001
0000
0020
0000
0000
0031
0000
0100
0000
0001
0000
,
1000
0000
0010
1000
0000
1000
0000
0010
0000
0000
0010
0000
1000
0000
0000
0001
,
0000
0000
0100
0000
0001
0000
0000
1000
0000
0000
0100
0000
0010
0000
0000
0001
,
0000
1000
0010
0100
0002
0000
0103
0001
,
0010
0000
0100
0010
0000
0001
0000
2000
0000
0000
3010
0000
0100
0000
0010
0000
,
1000
0000
0001
0010
0000
0010
0000
0100
0000
0000
0100
0000
1000
0000
0000
0001
,
0000
0100
0001
0000
1000
0010
0100
0001
,
0000
0010
0001
0000
0010
0000
0100
0000
1000
0000
0000
1010
0000
0000
0010
0000
,
1000
0000
0001
0000
0101
0000
0000
0000
0001
0000
0000
0011
0000
0000
0010
0000
,
0001
0000
0000
1000
0000
0000
0100
0000
0010
0000
0001
0000
0100
0000
0000
0000
0100
0000
0010
0000
0000
0000
0000
0000
,
0100
0010
1000
0100
0000
0100
0010
0000
0000
2002
0000
0000
,
0000
0000
0000
0000
3003
0000
1000
0000
0100
0000
0010
0000
0100
0000
1000
0001
,
0000
0100
0000
0002
0000
0000
0013
0000
0001
0000
0100
0000
0001
0000
1000
0010
,
0000
1000
0000
0200
0000
0000
0310
0000
0001
0000
0000
0100
0000
0000
1000
0000
,
0100
0000
0000
0001
0000
0000
1000
0000
0010
0000
0000
0001
0000
0000
0010
0000
,
0100
0000
0001
0000
2000
0000
0000
0000
3100
0000
0010
0000
0100
0000
1000
0010
,
0000
1000
0000
0002
0000
0000
0013
0000
0001
0000
0100
0000
0001
0000
0010
0100
,
0000
1000
0000
0020
0000
0000
0130
0000
0001
0000
0000
0010
0000
0000
0100
0000
,
1000
0000
0000
0010
0000
0000
0001
0000
0010
0000
1000
0000
0000
0001
0000
0100
,
0001
0000
0010
0000
0100
0000
0000
1100
0000
0000
1000
0000
0010
0000
0100
0000
,
0101
0000
0000
0000
0010
0000
0000
1001
0000
0000
0001
0000
0010
0000
0100
0000
,
1001
0000
1000
0000
1000
0010
0100
0000
0000
0001
0010
0002
,
0000
0000
0000
0000
0103
0000
1001
0000
0001
0000
0001
0010
,
0100
0000
0000
1000
0010
2000
0000
0000
0000
0000
3100
0000
,
0010
0000
0010
0001
0000
0001
0100
0000
0110
0000
0110
0000
,
0110
0000
0010
1000
0000
1000
0100
0000
0010
0001
0000
0001
,
0200
0000
0000
0301
1000
0001
1000
0000
0000
0010
0100
0010
,
0000
0000
0000
1000
0000
0100
0001
0000
0100
1000
0010
0100
,
0002
0003
0000
0000
0010
0000
0000
0010
0200
0000
0000
0000
1300
0000
0000
0100
,
0010
0000
0000
0010
0001
0000
0000
0001
0100
0000
0000
0100
0020
0000
2030
0000
,
3002
0000
0203
0000
0300
0000
0000
0000
0010
0000
0000
0010
1000
0000
0000
1000
,
0001
0000
0000
0001
0010
0000
0000
0001
0100
0000
0000
0010
1000
0000
0000
0001
,
0010
0000
0000
0100
2000
0000
3020
0000
0230
0000
0302
0000
1003
0000
0000
1000
,
0200
0000
0000
0000
0310
0000
0000
0100
1000
0000
0000
1000
0002
0000
0000
0000
,
0103
0000
0000
0000
0010
0000
0000
0000
0100
0000
0000
0000
0010
0000
0000
0000
0100
0000
0000
0000
0010
0000
0000
0000
1000
0000
0000
0000
0000
0000
0000
0000
0000
1000
0000
0000
0100
0000
0000
0000
0000
0000
0010
0000
0000
0100
0000
0000
,
0010
0000
0001
0010
0001
0000
1000
0000
0010
0000
0010
0000
0010
0000
0000
0100
,
0001
0000
0000
0000
0000
0000
0000
0000
0000
0010
0000
0000
0001
0000
0000
0000
0000
0000
0000
0000
0000
1000
0000
0000
0010
0000
0000
0000
0100
0000
0000
0000
0020
0000
0000
0000
0000
0000
0000
0000
0000
0000
0000
0000
0000
0000
0000
0000
,
0030
0000
0000
0000
1000
0100
1000
0001
0010
0002
0000
0000
,
0003
0000
0000
0000
0000
0000
0110
0000
0110
0000
0110
0000
,
1000
0001
1000
0000
0000
0000
0001
0000
0001
0100
0000
0010
,
1000
0100
1000
0100
0000
0010
0001
1000
0001
1000
0001
1000
,
0010
0000
0100
0000
0010
0000
1000
0100
0010
0001
0010
0100
,
1000
0000
2001
0000
0000
0000
3001
0100
0001
1000
0100
1000
,
0010
0000
0010
0100
0000
0001
1000
0002
0000
1003
0100
0010
,
0001
0000
0100
0001
0000
0011
0000
1000
0000
1010
0000
0001
,
0000
0101
0000
1000
0000
1100
0000
0010
0000
0110
0000
0100
,
0000
0000
1001
0000
0000
0000
1000
0000
0000
0100
0000
0000
1000
0000
0000
1020
0000
0000
0000
0000
0000
0130
0000
0000
,
0001
0021
0000
2030
0000
3002
0000
0103
,
1000
0001
0010
0001
0100
0102
0000
0013
,
0100
0000
2100
0000
0000
0000
3001
0000
0100
0000
0000
1000
0000
0000
0100
0000
,
0001
0010
0110
0100
1000
1020
0000
0130
,
0001
2001
0000
3200
0000
0302
0000
1003
,
0010
0001
0101
0100
0010
2010
0000
3100
,
0010
1002
0000
0000
0100
0000
0000
1000
,
0000
0000
0010
0000
0010
0000
1000
1003
,
0001
2000
0000
0100
0100
0000
0001
0001
,
0000
0010
3000
1000
0100
0010
0001
0200
,
0000
0300
1010
0000
1100
0000
0101
0000
,
0001
0010
0000
0110
0000
0100
1000
0000
,
1001
0000
0010
0110
0000
0100
0010
0100
,
2002
0000
0000
0000
0000
0000
0000
0000
0000
0000
0000
0000
3003
0000
0000
0210
,
0000
0000
1000
0000
0010
0000
0301
0000
0100
0000
0010
0100
0000
0010
0000
0110
,
0000
0000
1001
0000
1000
0000
0000
0100
0000
0000
0001
0000
1000
0000
0000
0010
,
0000
0000
0001
0000
0100
0000
0000
0110
0000
0000
0010
0000
1000
0000
0001
0000
,
0020
0000
0000
0000
0130
0010
0100
0000
1000
0000
0001
0100
0000
0010
0000
2000
,
0000
0000
3001
0000
0010
0000
0100
0000
0010
0000
0001
1000
0000
0001
0000
0200
,
0000
0000
1300
0000
0100
0000
0000
0001
0000
0000
0010
0000
0001
0000
0000
1000
,
0000
0000
0010
0000
1000
0000
0100
1000
0000
0000
0100
0000
0010
0000
0001
0000
,
1000
0000
0000
1010
0000
0000
0001
0000
0100
0000
0010
0000
1001
0000
0000
0000
,
1100
0000
0000
0101
0000
0000
0001
0000
1000
0001
1000
0000
0010
0000
0000
0110
,
0000
0000
0000
0000
0000
0000
1000
0000
0000
0000
0000
0000
0001
0000
0000
1000
0000
0000
0001
0000
0000
0000
0000
0000
2002
0000
0000
3003
0000
0000
0000
0000
0000
0000
0000
0000
1000
0000
0000
0000
0100
0000
0000
0000
0010
0000
0000
0000
,
0000
0010
0000
0001
0100
0001
0100
0010
0100
0010
1000
0010
,
1000
0001
1000
0100
0000
0010
0000
0100
0010
0100
1000
0001
,
0100
0010
0100
0010
1000
0000
0010
0000
0010
0100
0000
1001
,
0000
1000
0100
1000
0001
0100
0001
0010
0100
1000
0001
0100
,
0001
1000
0100
0000
0110
0000
1000
0002
0000
0103
0010
0100
,
2000
0000
3100
0001
0000
0000
0010
0100
0010
2000
0000
3010
,
0001
0000
0000
0001
0100
0010
0002
0000
0000
0000
0013
0100
,
0010
0100
0010
2002
0000
0000
0000
0000
0000
0000
0000
0000
,
0000
0000
0000
0000
0000
3003
0000
0000
0000
0000
0000
0000
;

//--------------- dance-single - P1989 Mk II ----------------
#NOTES:
     dance-single:
     P1989 Mk II:
     Hard:
     17:
     0,0,0,0,0:
0000
0000
0000
0000
,
0000
0000
0000
0000
,
0000
0000
0000
0000
,
0000
0000
0000
0000
,
1000
0100
0010
0022
0000
0000
0033
0000
0000
0001
0100
0010
,
2020
3030
2200
3300
,
0022
0000
0000
0000
0033
0000
0000
0000
0001
0100
0010
0100
0001
1000
0010
1000
,
0002
0000
0023
0000
0230
0000
2300
0000
3000
0000
0000
0000
0001
0100
0010
1000
,
0001
0000
0010
0100
0000
1000
0000
0020
0000
0000
1030
0000
0001
0010
0100
1000
,
0001
0000
0100
0010
0000
0010
0000
1001
0000
0000
1000
0000
0200
0000
0000
0010
,
0000
0000
0010
0000
2300
0000
0000
0010
0000
0000
0001
0000
3200
0000
0000
0310
,
0000
0001
1000
0010
0100
0010
1000
0001
0020
0000
0000
0000
0130
1000
0001
0010
,
0100
0000
1000
0010
0000
0100
0000
0002
0000
0000
0013
0000
0001
0100
0010
1000
,
0001
0000
0010
0000
0010
0100
0000
1100
0000
1000
0100
0010
0001
1000
0000
0010
,
0000
0010
0100
0001
1000
0010
0000
1000
0100
0010
0100
1000
0001
0010
0100
0010
,
0000
0001
0100
0010
1000
0010
0100
0001
1000
0000
0000
1100
0000
0000
0110
0000
,
0010
0000
0001
0000
1001
0000
0000
0000
0101
0000
0000
0110
0000
0000
1010
0000
,
1000
0000
0000
0001
0000
0000
1000
0000
0010
0000
1000
0000
0100
0000
0001
0000
1000
0000
0010
0000
0000
0000
0000
0000
,
0001
0000
0000
0000
0010
0000
0000
0000
0001
0000
0000
0000
0100
0000
0000
0000
1000
0000
0000
0000
0001
0000
0000
0000
0020
0000
0000
0000
0000
0000
0000
0000
0000
0000
0000
0000
0130
0000
0000
0001
0000
0000
0100
0000
0000
0001
0000
0000
,
1000
0100
0010
0001
0000
0000
1000
0000
0010
0100
0001
1000
0010
0000
0100
0001
,
0000
0010
0000
0210
0000
0000
1300
0000
0100
0010
0001
1000
0100
0000
1000
0010
,
0000
0100
0000
0120
0000
0000
1030
0000
0002
0000
0000
0010
0000
0000
0100
0000
,
2003
0000
0000
0010
0000
0000
0100
0000
3002
0000
0000
1003
0000
0001
0010
0100
,
1000
0001
1000
0100
0020
0000
0000
0000
0031
1000
0010
0100
0001
0000
0010
0100
,
0000
1000
0000
1020
0000
0000
0130
0000
0001
0010
0100
1000
0001
0000
0100
0010
,
0100
0001
0000
1001
0000
1000
0100
1000
0001
0010
0000
0001
0000
0001
0100
0010
,
1000
0001
0000
0010
0001
0100
0001
1000
0100
1000
0010
0100
0000
0001
0010
0100
,
1000
0100
0010
0001
1000
0000
0000
0101
0000
0000
1100
0000
0010
0000
0100
0000
,
1001
0000
0000
0000
0101
0000
0000
1100
0000
0000
1010
0000
0001
0000
1000
0000
,
0001
0010
0100
0001
0100
1000
0010
0000
0010
0100
1000
0100
,
0001
0010
0001
0100
0010
1000
0100
0001
0100
1000
0010
1000
,
0001
0000
0001
0100
1000
0100
0001
0010
0001
1000
0010
1000
,
0200
0320
0032
0203
0320
0032
0013
0000
1010
0000
1001
0000
,
1100
0000
0001
0200
0320
2030
3200
0320
2030
3020
0032
0203
,
0320
2030
3200
0300
0010
0001
0100
0000
0100
0001
0010
1000
,
0000
0000
0000
1000
0010
0001
1000
0010
0001
1000
0100
0001
,
0020
0030
0000
0000
1001
0000
0000
1000
0010
0000
0000
0000
0100
0000
0000
0100
,
0001
0000
0000
0001
0010
0000
0000
0010
0100
0000
1000
0000
0001
0100
0001
0100
,
0010
1000
0010
1000
0000
0000
0000
0000
0001
0000
0000
0010
0100
0000
0000
0100
,
1000
0000
0000
0010
0100
0000
0000
0001
0100
0000
0000
1000
0100
0000
0000
0001
,
0010
0000
0000
0000
0000
0000
0000
0000
0000
0100
0000
0000
1000
0000
0000
0000
0001
0000
0000
0000
0010
0000
0000
0000
1000
0000
0000
0000
0010
0000
0000
0000
0001
0000
0000
0000
1000
0000
0000
0000
0000
0000
0000
0000
0000
1000
0000
0000
,
0010
0000
0000
0000
0100
0000
0000
0100
0001
0000
0000
0010
0100
0000
0000
0100
,
1000
0000
0000
0000
0010
0000
0000
0000
0100
0000
0000
0000
1000
0000
0000
0000
0100
0000
0000
0000
0010
0000
0000
0000
1000
0000
0000
0000
0000
0000
0000
0000
0000
1000
0000
0000
0001
0000
0000
0010
0000
0000
0100
0000
0000
1000
0000
0000
,
0001
0000
0100
0001
0100
0000
0010
0000
1000
0100
1000
0100
1000
0000
0000
0001
,
0010
0000
0000
0000
0000
0000
0000
0000
0000
0001
0000
0000
0100
0000
0000
0000
0000
0000
0000
0000
0000
1000
0000
0000
0100
0000
0000
0000
0010
0000
0000
0000
1000
0000
0000
0000
0002
0000
0000
0000
0000
0000
0000
0000
0000
0000
0000
0000
,
0103
0000
0000
0000
0000
0000
0100
0000
0001
0000
0010
0000
0100
0000
0001
0000
0100
0000
0020
0000
0000
0032
0000
0000
,
2003
0000
0000
3010
0000
0000
1100
0000
0011
0000
1100
0000
,
0001
0100
1000
0000
0000
0000
1000
0100
0001
0010
0100
1000
,
0010
0100
0001
1000
0100
1000
0020
2030
3002
0203
0320
0032
,
0013
0100
0001
1000
0100
0010
0002
0023
0230
0302
0203
2300
,
3010
0000
1010
0000
1000
0100
0020
0230
2300
3002
0203
2300
,
3100
0000
0100
1000
0000
0100
0002
0023
0032
2003
3020
2030
,
3100
0000
0010
0000
0001
0000
0200
0000
0000
0300
1200
0000
0000
0300
0201
0000
0000
0300
1200
0000
0000
0300
0201
0000
,
0000
0300
1200
0000
0000
0300
0201
0000
0000
0300
1200
0000
0000
0300
0201
0000
0000
0300
1200
0000
0000
0300
0100
0000
,
0020
0000
0000
0000
1030
0000
0100
0010
0001
0000
0101
0000
0000
0000
0100
0010
,
1000
0000
1010
0000
0000
0000
1000
0100
1000
0000
0100
0010
0100
0000
0010
0001
,
0010
0000
0001
0000
0100
0000
0010
1000
0001
0000
0011
0000
0000
0000
0010
0100
,
1000
0000
1020
0000
0000
0000
0130
0001
1000
0000
1000
0100
0000
0100
0010
0000
,
0010
0001
1000
0001
0100
0000
0010
1000
0100
0000
0110
0000
0000
0000
0010
0001
,
1000
0000
1010
0000
0000
0000
0010
0100
0010
0000
0100
0001
0100
0000
0001
0010
,
0100
1000
0100
0000
0110
0000
0010
0001
1000
0000
1010
0000
0000
0000
1000
0001
,
0100
0020
0000
1000
1000
0000
0100
0100
,
0000
0000
0031
0000
0010
0000
0100
0000
0010
0000
1000
0000
0001
0010
0001
0000
,
0100
0210
0000
1000
1000
0000
0010
0010
,
0000
0000
0302
0000
0000
0000
0103
0010
1000
0000
1000
0000
0001
0000
0010
0100
,
1000
0000
0000
0000
1100
0000
0000
0000
0101
0000
0000
0001
0010
0000
0010
0000
,
0100
0000
1001
0000
0000
0000
1000
0000
0100
0000
0001
0000
0100
0000
1000
0001
,
0020
0000
0000
0000
0031
0100
2000
0000
0000
0000
3100
0001
1000
0000
0010
0000
,
0110
0000
0100
0000
0001
0010
0100
1000
0001
0000
0100
0010
0000
1000
0000
1200
,
0000
0000
0001
0300
0001
0100
0010
0100
1000
0000
1000
0010
0000
0100
0000
1001
,
0000
0000
1100
0000
0100
0020
0000
0031
0100
0000
0010
0000
1000
0200
0000
1300
,
0001
0000
0010
0000
0001
0200
0000
1300
0000
0100
0010
1000
0001
0010
0100
1000
,
0020
0000
0100
0000
0031
0010
0100
0010
1000
0000
0001
0100
0000
0110
0000
2010
,
0000
0000
3100
0000
0010
0001
1000
0010
0100
0000
0001
0010
0001
0100
0000
0110
,
0000
0010
1000
0001
1000
0200
0000
0310
0000
0001
1000
0010
0100
0002
0000
0013
,
0100
1000
0001
0100
0010
1000
0001
0020
0000
0130
1000
0001
1000
0010
0100
0001
,
1000
0000
0000
1100
0000
0000
0011
0000
0001
0000
1000
0100
0001
0000
0000
0000
,
0101
0000
0000
1100
0000
0000
1010
0000
0010
0100
0001
1000
0010
0000
0100
0001
,
0100
0000
0000
0001
0000
0000
0010
0000
0000
0000
0000
0000
0100
0000
0000
1000
0000
0000
0001
0000
0000
0100
0000
0000
2000
0000
0000
3000
0000
0000
0000
0000
0000
0000
0000
0000
0100
0000
0000
0000
0001
0000
0000
0000
0010
0000
0000
0000
,
0100
0001
0100
1000
0001
0100
0001
1000
0010
0002
0023
2030
,
3002
0203
0320
1030
0100
1000
0010
0100
0001
0020
0032
2003
,
3200
0302
0203
1300
0010
1000
0001
0010
0001
0100
1000
2100
,
0000
3100
0001
1000
0010
1000
0100
0010
1000
0020
0230
2300
,
3002
0203
2300
3000
0102
0000
0013
0100
1000
0001
0100
0010
,
2010
0000
0100
3100
0000
0000
1000
0100
0010
0012
0000
0100
,
0103
0000
0000
0001
1000
0001
2001
0000
0000
0000
3010
0010
,
0010
0100
0100
2002
0000
0000
0000
0000
0000
0000
0000
0000
,
0000
0000
0000
0000
0000
3003
0000
0000
0000
0000
0000
0000
;
